osu file format v14

[General]
AudioFilename: audio.mp3
AudioLeadIn: 0
PreviewTime: 46023
Countdown: 0
SampleSet: Soft
StackLeniency: 0.7
Mode: 0
LetterboxInBreaks: 0
WidescreenStoryboard: 0

[Editor]
DistanceSpacing: 1
BeatDivisor: 4
GridSize: 4
TimelineZoom: 1.5

[Metadata]
Title:Memento (TV Size)
TitleUnicode:Memento (TV Size)
Artist:nonoc
ArtistUnicode:nonoc
Creator:Kuki1537
Version:Endless Repetition
Source:Re:ゼロから始める異世界生活
Tags:re:zero kara hajimeru isekai seikatsu rezero starting life in another world different from zero season two anime ending ed japanese pop rock pikaqours my angel ram my_angel_ram jpop j-pop j-rock jrock
BeatmapID:2583792
BeatmapSetID:1242807

[Difficulty]
HPDrainRate:5.2
CircleSize:4.2
OverallDifficulty:8.8
ApproachRate:9.2
SliderMultiplier:2.6
SliderTickRate:1

[Events]
//Background and Video events
0,0,"bg.jpg",0,0
Video,-131,"video.mp4"
//Break Periods
//Storyboard Layer 0 (Background)
//Storyboard Layer 1 (Fail)
//Storyboard Layer 2 (Pass)
//Storyboard Layer 3 (Foreground)
//Storyboard Layer 4 (Overlay)
//Storyboard Sound Samples

[TimingPoints]
63,480,4,2,22,52,1,0
1023,480,4,2,22,52,1,0
1023,-142.857142857143,4,2,22,52,0,0
4383,-166.666666666667,4,2,22,52,0,0
4863,-200,4,2,22,52,0,0
5823,-166.666666666667,4,2,22,52,0,0
7263,-142.857142857143,4,2,22,52,0,0
7743,-200,4,2,22,52,0,0
8703,-100,4,2,22,72,0,0
16383,-142.857142857143,4,2,22,62,0,0
18183,-142.857142857143,4,2,22,5,0,0
18303,-142.857142857143,4,2,22,62,0,0
31743,-200,4,2,22,42,0,0
37503,-166.666666666667,4,2,22,42,0,0
39423,-142.857142857143,4,2,22,52,0,0
44223,-117.647058823529,4,2,22,62,0,0
45183,-100,4,2,22,72,0,0
46143,-142.857142857143,4,2,22,62,0,0
47103,-83.3333333333333,4,2,22,82,0,1
61023,-83.3333333333333,4,2,22,72,0,0
62463,-76.9230769230769,4,2,22,82,0,1
77823,-100,4,2,22,72,0,0
85503,-66.6666666666667,4,2,22,72,0,0
85623,-66.6666666666667,4,2,22,5,0,0
85863,-66.6666666666667,4,2,22,72,0,0
85983,-66.6666666666667,4,2,22,5,0,0
86223,-66.6666666666667,4,2,22,72,0,0
86343,-66.6666666666667,4,2,22,5,0,0
86583,-66.6666666666667,4,2,22,72,0,0
86703,-66.6666666666667,4,2,22,5,0,0
86943,-66.6666666666667,4,2,22,72,0,0
87063,-66.6666666666667,4,2,22,5,0,0

[Colours]
Combo1 : 227,198,168
Combo2 : 60,133,255
Combo3 : 194,205,211
Combo4 : 91,98,113

[HitObjects]
136,163,63,5,2,0:2:0:0:
143,184,303,1,2,0:2:0:0:
252,105,543,1,2,0:2:0:0:
245,126,783,1,2,0:2:0:0:
312,243,1023,6,0,L|333:341,1,90.9999972229005,2|0,0:2|0:2,0:2:0:0:
378,182,1503,1,2,0:2:0:0:
227,216,1743,1,2,0:2:0:0:
397,270,1983,2,0,P|439:247|466:200,1,90.9999972229005,2|0,0:2|0:2,0:2:0:0:
359,94,2463,1,2,0:2:0:0:
312,243,2703,1,2,0:2:0:0:
273,66,2943,5,2,0:2:0:0:
378,182,3183,1,2,0:2:0:0:
340,6,3423,1,2,0:2:0:0:
293,155,3663,1,2,0:2:0:0:
187,38,3903,2,0,P|146:13|91:13,1,90.9999972229005,2|0,0:2|0:2,0:2:0:0:
102,173,4383,2,0,L|122:85,1,77.999997619629,2|0,0:2|0:2,0:2:0:0:
28,226,4863,6,0,P|81:261|154:248,1,130,2|0,0:2|0:2,0:2:0:0:
203,125,5583,1,2,0:2:0:0:
369,214,5823,2,0,B|316:204|316:204|274:221|274:221|217:211,1,155.999995239258,2|0,0:2|0:2,0:2:0:0:
113,111,6543,1,2,0:2:0:0:
139,257,6783,1,2,0:2:0:0:
203,125,7023,1,2,0:2:0:0:
73,194,7263,2,0,P|50:236|52:284,1,90.9999972229005,2|0,0:2|0:2,0:2:0:0:
199,327,7743,6,0,B|240:294|237:234|217:208|217:208|242:238|287:240,1,195,2|0,0:2|0:2,0:2:0:0:
358,205,8703,6,0,P|376:152|347:85,1,130,6|0,1:2|3:2,0:2:0:0:
179,54,9063,1,10,1:3:0:0:
226,138,9183,2,0,L|300:153,1,65,10|0,0:2|0:2,0:2:0:0:
366,3,9423,2,0,L|292:18,1,65,10|0,1:3|0:2,0:2:0:0:
84,73,9663,5,2,1:2:0:0:
179,54,9783,1,2,0:2:0:0:
226,138,9903,1,2,3:2:0:0:
162,209,10023,1,10,1:3:0:0:
74,169,10143,2,0,P|45:152|-7:148,1,65,10|0,0:2|0:2,0:2:0:0:
123,291,10383,1,10,1:3:0:0:
123,291,10503,1,0,0:2:0:0:
123,291,10623,6,0,B|175:300|175:300|207:288|207:288|278:302,1,130,2|0,1:2|3:2,0:2:0:0:
423,338,10983,1,10,1:3:0:0:
353,267,11103,2,0,L|368:196,1,65,8|0,0:2|0:2,0:2:0:0:
435,74,11343,2,0,L|448:137,1,65,6|0,1:3|0:2,0:2:0:0:
279,172,11583,5,2,1:2:0:0:
273,153,11703,1,2,3:2:0:0:
331,101,11823,1,2,3:2:0:0:
337,82,11943,1,6,1:3:0:0:
274,14,12063,2,0,P|241:3|204:8,1,65,10|0,0:2|0:2,0:2:0:0:
106,85,12303,1,2,3:2:0:0:
106,85,12423,1,0,3:2:0:0:
106,85,12543,6,0,P|146:142|109:228,1,130,2|0,1:2|3:2,0:2:0:0:
0,264,12903,1,10,1:3:0:0:
0,264,13023,2,0,P|36:249|84:256,1,65,10|0,0:2|0:2,0:2:0:0:
186,332,13263,2,0,P|155:308|137:263,1,65,10|0,1:3|0:2,0:2:0:0:
231,148,13503,5,2,1:2:0:0:
250,142,13623,1,2,0:2:0:0:
326,188,13743,1,2,3:2:0:0:
345,194,13863,1,10,1:3:0:0:
423,148,13983,2,0,P|436:193|426:234,1,65,10|0,0:2|0:2,0:2:0:0:
340,341,14223,1,0,3:2:0:0:
340,341,14343,1,0,3:2:0:0:
340,341,14463,6,0,L|207:316,1,130,2|0,1:2|3:2,0:2:0:0:
88,235,14823,1,8,1:3:0:0:
119,320,14943,2,0,L|107:394,1,65,10|0,0:2|0:2,0:2:0:0:
10,278,15183,2,0,L|-1:209,1,65,8|8,0:2|0:3,0:0:0:0:
0,92,15423,5,2,1:2:0:0:
19,98,15543,1,10,0:3:0:0:
79,38,15663,1,10,3:3:0:0:
98,32,15783,1,6,1:3:0:0:
164,86,15903,5,8,0:2:0:0:
151,163,16023,1,8,0:3:0:0:
222,200,16143,1,8,1:3:0:0:
276,143,16263,1,4,3:3:0:0:
241,74,16383,6,0,B|290:50|338:76|319:96|367:123|412:103,1,181.999994445801,4|2,1:2|3:2,0:2:0:0:
512,0,17103,2,0,L|493:90,1,90.9999972229005,10|2,0:2|0:2,0:2:0:0:
464,211,17583,1,10,1:3:0:0:
384,29,17823,1,10,0:2:0:0:
384,29,17943,2,0,P|346:67|344:110,1,90.9999972229005,8|0,0:3|0:2,0:2:0:0:
369,191,18303,6,0,L|269:209,1,90.9999972229005,6|0,1:3|0:2,0:2:0:0:
186,224,18663,1,0,3:2:0:0:
186,224,18783,1,0,3:2:0:0:
281,378,19023,1,8,0:2:0:0:
94,244,19263,1,0,3:2:0:0:
94,244,19383,1,0,3:2:0:0:
94,244,19503,1,0,1:2:0:0:
271,93,19743,1,8,0:2:0:0:
278,128,19863,1,0,1:3:0:0:
285,163,19983,1,0,3:3:0:0:
280,185,20103,1,0,3:3:0:0:
275,207,20223,6,0,L|181:224,1,90.9999972229005,4|2,1:3|0:2,0:2:0:0:
94,244,20583,1,0,3:2:0:0:
94,244,20703,1,2,3:2:0:0:
182,47,20943,1,10,0:2:0:0:
8,171,21183,1,2,3:2:0:0:
8,171,21303,1,0,3:2:0:0:
8,171,21423,1,2,1:2:0:0:
155,311,21663,1,10,0:2:0:0:
187,318,21783,1,0,1:2:0:0:
222,327,21903,1,2,3:2:0:0:
242,316,22023,1,0,3:2:0:0:
262,305,22143,6,0,L|366:328,1,90.9999972229005,2|0,1:2|0:2,0:2:0:0:
442,343,22503,2,0,L|431:288,1,45.4999986114502,8|2,0:3|3:2,0:2:0:0:
416,220,22743,1,0,3:2:0:0:
416,220,22863,1,8,0:2:0:0:
506,78,23103,1,2,3:2:0:0:
506,78,23223,1,0,3:2:0:0:
506,78,23343,1,0,1:2:0:0:
310,177,23583,1,10,0:2:0:0:
275,187,23703,1,0,1:2:0:0:
240,197,23823,1,0,3:2:0:0:
218,189,23943,1,0,3:2:0:0:
196,181,24063,6,0,B|186:112|186:112|201:68|201:68|191:2,1,181.999994445801,4|2,1:2|3:2,0:2:0:0:
0,137,24783,1,10,0:2:0:0:
161,273,25023,1,2,3:2:0:0:
161,273,25143,1,0,3:2:0:0:
161,273,25263,1,10,1:3:0:0:
115,52,25503,1,10,0:2:0:0:
105,86,25623,1,0,1:2:0:0:
95,120,25743,1,2,3:2:0:0:
99,142,25863,1,0,3:2:0:0:
103,164,25983,6,0,L|82:259,1,90.9999972229005,2|0,1:3|0:2,0:2:0:0:
63,341,26343,2,0,L|117:329,1,45.4999986114502,4|0,0:3|3:2,0:2:0:0:
196,307,26583,1,0,3:2:0:0:
196,307,26703,1,8,0:2:0:0:
12,163,26943,1,0,3:2:0:0:
12,163,27063,1,0,3:2:0:0:
12,163,27183,1,0,1:2:0:0:
216,204,27423,1,8,0:2:0:0:
251,211,27543,1,0,1:2:0:0:
286,218,27663,1,10,3:3:0:0:
277,150,27783,1,2,3:2:0:0:
268,82,27903,6,0,L|377:63,1,90.9999972229005,6|0,1:3|0:2,0:2:0:0:
441,52,28263,1,0,3:2:0:0:
441,52,28383,1,0,3:2:0:0:
504,205,28623,1,10,0:2:0:0:
496,249,28743,1,2,3:2:0:0:
488,293,28863,1,2,3:2:0:0:
465,298,28983,1,0,3:2:0:0:
442,303,29103,1,0,1:2:0:0:
323,233,29343,1,8,0:2:0:0:
287,224,29463,1,0,3:2:0:0:
251,215,29583,2,0,L|266:280,1,45.4999986114502,2|0,3:2|3:2,0:2:0:0:
292,376,29823,6,0,L|182:357,1,90.9999972229005,6|0,1:3|0:2,0:2:0:0:
112,340,30183,1,0,1:2:0:0:
112,340,30303,1,0,3:2:0:0:
152,142,30543,1,8,0:2:0:0:
22,269,30783,1,8,0:3:0:0:
22,269,30903,1,8,0:3:0:0:
226,251,31143,1,4,0:3:0:0:
226,251,31263,5,4,0:3:0:0:
220,219,31383,1,0,3:2:0:0:
251,185,31503,1,4,1:3:0:0:
227,130,31623,1,0,3:2:0:0:
255,49,31743,5,6,1:2:0:0:
355,234,32223,1,2,0:2:0:0:
511,123,32703,2,0,L|368:150,1,130,2|0,0:2|0:2,0:2:0:0:
235,147,33423,1,2,0:2:0:0:
309,93,33663,5,2,3:2:0:0:
355,234,33903,1,2,0:2:0:0:
264,234,34143,1,2,0:2:0:0:
383,147,34383,1,2,0:2:0:0:
427,288,34623,1,2,0:2:0:0:
321,328,34863,1,2,0:2:0:0:
288,319,34983,1,2,0:2:0:0:
256,323,35103,1,2,0:2:0:0:
228,341,35223,1,2,0:2:0:0:
201,359,35343,1,2,0:2:0:0:
168,363,35463,1,2,0:2:0:0:
136,355,35583,5,2,3:2:0:0:
0,252,36063,1,2,0:2:0:0:
154,159,36543,2,0,B|188:193|188:193|170:285,1,130,2|0,0:2|0:2,0:2:0:0:
87,103,37263,1,2,0:2:0:0:
231,116,37503,6,0,B|281:139|326:108|326:108|357:126|357:126|400:94|452:112,1,233.999992858887,2|0,3:2|0:2,0:2:0:0:
417,191,38463,2,0,L|387:349,1,155.999995239258,2|0,0:2|3:2,0:2:0:0:
381,384,39063,1,0,3:2:0:0:
381,384,39183,1,0,3:2:0:0:
281,302,39423,6,0,P|250:344|182:341,1,90.9999972229005,0|0,3:2|0:2,0:2:0:0:
127,343,39783,1,0,1:2:0:0:
111,327,39903,2,0,L|95:234,1,90.9999972229005,2|0,0:2|0:2,0:2:0:0:
74,121,40383,1,2,0:2:0:0:
74,121,40503,1,0,0:2:0:0:
74,121,40623,2,0,P|123:153|163:146,1,90.9999972229005,0|0,1:2|0:2,0:2:0:0:
320,82,41103,1,2,1:2:0:0:
296,256,41343,5,2,1:3:0:0:
238,115,41583,1,2,0:2:0:0:
377,222,41823,1,2,0:2:0:0:
226,202,42063,1,2,3:2:0:0:
389,135,42303,1,2,0:2:0:0:
389,135,42423,1,0,0:2:0:0:
389,135,42543,2,0,L|439:125,1,45.4999986114502,0|0,1:2|0:2,0:2:0:0:
512,227,42783,2,0,L|462:217,1,45.4999986114502,0|0,0:2|0:2,0:2:0:0:
397,300,43023,1,2,1:2:0:0:
403,326,43143,1,2,0:2:0:0:
409,352,43263,6,0,B|360:323|308:349|332:366|283:397|232:370,1,181.999994445801,2|0,3:2|0:2,0:2:0:0:
81,173,43983,1,2,0:2:0:0:
71,216,44103,1,2,0:2:0:0:
61,258,44223,6,0,B|113:223|184:261|142:277|216:320|274:274,1,221.000004215241,2|0,0:2|3:2,0:2:0:0:
455,66,44943,1,2,0:2:0:0:
466,136,45063,1,2,0:2:0:0:
476,206,45183,6,0,B|383:201|383:201|362:192|362:192|330:206|330:206|310:196|310:196|208:190,1,260,2|2,0:2|0:2,0:2:0:0:
0,23,46143,6,0,L|24:159,1,136.499995834351,2|0,0:2|0:2,0:2:0:0:
64,228,46623,2,0,L|76:294,1,45.4999986114502,2|0,0:2|0:2,0:2:0:0:
103,114,46863,2,0,L|115:180,1,45.4999986114502,2|0,0:2|0:2,0:2:0:0:
142,0,47103,6,0,P|176:67|328:60,1,233.999992858887,6|8,1:2|3:3,0:2:0:0:
434,1,47583,2,0,L|417:92,1,77.999997619629,10|0,0:2|0:2,0:2:0:0:
299,254,47823,2,0,L|284:177,1,77.999997619629,2|0,0:2|0:2,0:2:0:0:
512,154,48063,1,2,1:2:0:0:
512,154,48183,1,0,0:2:0:0:
512,154,48303,2,0,L|427:170,1,77.999997619629,0|0,3:2|3:2,0:2:0:0:
248,326,48543,2,0,P|285:343|341:331,1,77.999997619629,10|0,0:2|0:2,0:2:0:0:
351,183,48783,2,0,P|314:166|258:178,1,77.999997619629,2|0,3:2|0:2,0:2:0:0:
153,384,49023,6,0,L|136:299,1,77.999997619629,2|0,1:2|0:2,0:2:0:0:
293,92,49263,2,0,L|277:168,1,77.999997619629,2|0,3:3|0:2,0:2:0:0:
48,274,49503,1,8,0:2:0:0:
103,219,49623,1,8,0:3:0:0:
180,222,49743,1,2,3:2:0:0:
228,282,49863,1,0,3:2:0:0:
299,312,49983,2,0,P|342:307|380:268,1,77.999997619629,6|0,1:3|0:2,0:2:0:0:
314,147,50223,1,0,3:2:0:0:
314,147,50343,1,8,3:3:0:0:
314,147,50463,2,0,P|296:186|311:239,1,77.999997619629,10|0,0:2|0:2,0:2:0:0:
392,109,50703,1,0,3:2:0:0:
339,63,50823,1,0,3:2:0:0:
268,67,50943,6,0,B|207:77|207:77|169:59|169:59|92:75,1,155.999995239258,2|0,1:2|3:2,0:2:0:0:
0,150,51303,1,8,0:3:0:0:
0,150,51423,2,0,P|41:148|88:177,1,77.999997619629,8|0,3:2|0:2,0:2:0:0:
215,240,51663,2,0,P|179:255|141:253,1,77.999997619629,10|0,3:3|0:2,0:2:0:0:
0,340,51903,2,0,B|37:318|87:348|60:354|105:379|151:361,1,155.999995239258,2|0,1:2|3:2,0:2:0:0:
280,295,52263,1,0,0:2:0:0:
280,295,52383,2,0,P|300:257|290:203,1,77.999997619629,8|0,0:2|0:2,0:2:0:0:
191,33,52623,1,10,3:3:0:0:
178,101,52743,1,4,3:3:0:0:
164,169,52863,6,0,L|251:153,1,77.999997619629,2|0,1:3|0:2,0:2:0:0:
414,80,53103,2,0,L|327:64,1,77.999997619629,2|0,3:2|0:2,0:2:0:0:
221,236,53343,2,0,L|308:220,1,77.999997619629,10|0,0:2|0:2,0:2:0:0:
496,130,53583,1,0,3:2:0:0:
484,207,53703,1,0,3:2:0:0:
472,284,53823,2,0,P|435:298|394:290,1,77.999997619629,2|0,1:2|0:2,0:2:0:0:
289,159,54063,2,0,P|319:182|334:223,1,77.999997619629,10|0,3:3|0:2,0:2:0:0:
278,384,54303,2,0,P|283:345|310:313,1,77.999997619629,10|0,0:2|0:2,0:2:0:0:
380,121,54543,1,2,3:2:0:0:
380,121,54663,1,0,3:2:0:0:
380,121,54783,6,0,B|317:69|317:69|157:98,1,233.999992858887,6|8,1:2|3:3,0:2:0:0:
40,125,55263,2,0,L|24:211,1,77.999997619629,10|0,0:2|0:2,0:2:0:0:
150,381,55503,2,0,L|135:304,1,77.999997619629,2|0,3:2|0:2,0:2:0:0:
235,166,55743,1,6,1:3:0:0:
235,166,55863,1,0,3:2:0:0:
235,166,55983,2,0,P|274:161|321:185,1,77.999997619629,2|0,3:2|0:2,0:2:0:0:
397,355,56223,2,0,L|382:278,1,77.999997619629,10|0,0:2|0:2,0:2:0:0:
407,85,56463,2,0,L|421:161,1,77.999997619629,2|0,3:2|0:2,0:2:0:0:
291,291,56703,6,0,P|252:296|205:272,1,77.999997619629,2|0,1:2|0:2,0:2:0:0:
122,137,56943,2,0,P|145:168|148:220,1,77.999997619629,2|0,3:2|3:2,0:2:0:0:
91,359,57183,1,10,0:2:0:0:
13,346,57303,1,8,0:3:0:0:
0,269,57423,1,2,3:2:0:0:
71,233,57543,1,0,3:2:0:0:
125,288,57663,2,0,B|182:297|182:297|221:280|221:280|296:293,1,155.999995239258,2|0,1:2|3:2,0:2:0:0:
393,310,58023,1,0,0:2:0:0:
393,310,58143,2,0,L|376:224,1,77.999997619629,8|0,0:2|0:2,0:2:0:0:
477,79,58383,2,0,L|461:155,1,77.999997619629,2|0,3:2|3:2,0:2:0:0:
271,188,58623,6,0,P|218:118|246:31,1,155.999995239258,2|0,1:2|3:2,0:2:0:0:
389,86,58983,1,8,0:3:0:0:
389,86,59103,2,0,L|303:105,1,77.999997619629,8|0,0:2|0:2,0:2:0:0:
118,124,59343,2,0,L|204:143,1,77.999997619629,2|0,3:2|0:2,0:2:0:0:
297,274,59583,2,0,B|260:294|214:272|238:261|185:237|144:265,1,155.999995239258,2|0,1:2|3:2,0:2:0:0:
63,384,59943,1,8,3:3:0:0:
63,384,60063,2,0,P|75:349|63:292,1,77.999997619629,8|0,0:2|0:2,0:2:0:0:
4,168,60303,2,0,P|28:195|83:214,1,77.999997619629,2|0,3:2|0:2,0:2:0:0:
268,117,60543,6,8,B|238:69|238:69|160:147|220:238,1,233.999992858887,2|8,1:3|0:3,0:3:0:0:
343,315,61023,2,0,L|359:229,1,77.999997619629,8|0,0:2|0:2,0:2:0:0:
446,39,61263,1,8,3:2:0:0:
345,151,61383,1,8,0:2:0:0:
493,120,61503,1,10,1:3:0:0:
355,58,61623,1,8,0:2:0:0:
431,190,61743,2,0,L|445:266,1,77.999997619629,10|0,0:2|0:2,0:2:0:0:
254,380,61983,2,0,L|268:303,1,77.999997619629,2|0,1:2|0:2,0:2:0:0:
168,132,62223,1,10,0:2:0:0:
92,221,62343,1,8,0:2:0:0:
206,243,62463,6,0,B|186:53|186:53|200:94|249:109,1,253.499988395691,6|8,1:2|1:3,0:2:0:0:
362,14,62943,2,0,P|314:10|270:28,1,84.4999961318971,10|0,0:2|0:2,0:2:0:0:
297,186,63183,2,0,P|345:189|389:171,1,84.4999961318971,2|0,3:2|3:2,0:2:0:0:
493,120,63423,1,8,1:3:0:0:
500,222,63543,2,0,L|483:134,1,84.4999961318971,8|0,0:2|3:2,0:2:0:0:
362,14,63783,1,8,0:3:0:0:
330,102,63903,2,0,L|245:115,1,84.4999961318971,10|0,0:2|0:2,0:2:0:0:
76,17,64143,2,0,L|161:30,1,84.4999961318971,6|0,1:3|0:2,0:2:0:0:
304,181,64383,6,0,P|321:226|305:286,1,84.4999961318971,2|0,1:2|0:2,0:2:0:0:
153,384,64623,1,2,3:2:0:0:
113,318,64743,1,8,1:3:0:0:
143,246,64863,2,0,L|249:225,1,84.4999961318971,10|0,0:2|0:2,0:2:0:0:
313,378,65103,2,0,P|265:370|221:326,1,84.4999961318971,2|0,3:2|0:2,0:2:0:0:
304,181,65343,1,2,1:2:0:0:
406,200,65463,1,8,0:2:0:0:
337,280,65583,2,0,L|319:182,1,84.4999961318971,8|0,3:3|0:2,0:2:0:0:
277,21,65823,1,10,0:2:0:0:
212,41,65943,1,8,1:3:0:0:
147,61,66063,1,0,3:2:0:0:
106,48,66183,1,0,3:2:0:0:
65,35,66303,6,0,B|93:153|93:153|69:207,1,168.999992263794,2|0,1:2|3:2,0:2:0:0:
0,310,66663,1,8,0:3:0:0:
41,384,66783,2,0,L|132:365,1,84.4999961318971,8|0,0:2|0:2,0:2:0:0:
251,251,67023,2,0,L|160:232,1,84.4999961318971,2|0,3:2|0:2,0:2:0:0:
34,222,67263,1,10,1:3:0:0:
28,121,67383,2,0,L|46:208,1,84.4999961318971,8|0,0:2|3:2,0:2:0:0:
123,366,67623,1,8,1:3:0:0:
173,272,67743,2,0,P|209:251|279:264,1,84.4999961318971,8|0,3:2|0:2,0:2:0:0:
378,384,67983,2,0,P|341:363|318:296,1,84.4999961318971,2|0,3:2|3:2,0:0:0:0:
446,178,68223,5,6,1:3:0:0:
451,278,68343,2,0,L|461:193,1,84.4999961318971,8|2,0:2|3:2,0:0:0:0:
382,36,68583,1,8,0:3:0:0:
344,121,68703,2,0,P|309:162|202:135,1,168.999992263794,10|8,0:2|3:3,0:2:0:0:
149,17,69063,1,8,0:2:0:0:
100,96,69183,2,0,L|121:196,1,84.4999961318971,10|0,1:3|0:2,0:2:0:0:
0,320,69423,2,0,L|100:299,1,84.4999961318971,2|0,1:2|0:2,0:2:0:0:
280,238,69663,2,0,B|327:209|303:128|199:120|129:202,1,253.499988395691,14|0,0:2|0:2,0:2:0:0:
243,344,70143,6,0,B|305:352|305:352|349:329|349:329|418:339,1,168.999992263794,6|0,1:2|0:2,0:2:0:0:
509,227,70503,1,8,0:3:0:0:
425,156,70623,2,0,L|409:247,1,84.4999961318971,10|0,0:2|0:2,0:2:0:0:
260,359,70863,2,0,L|245:275,1,84.4999961318971,2|0,3:2|0:2,0:2:0:0:
161,159,71103,1,10,0:3:0:0:
58,178,71223,1,8,0:2:0:0:
127,258,71343,2,0,L|144:160,1,84.4999961318971,8|0,1:3|0:2,0:2:0:0:
150,41,71583,1,10,0:2:0:0:
214,21,71703,1,0,1:2:0:0:
278,1,71823,1,2,3:2:0:0:
319,7,71943,1,0,3:2:0:0:
360,14,72063,6,0,L|379:114,1,84.4999961318971,2|0,1:2|0:2,0:2:0:0:
261,241,72303,1,2,0:2:0:0:
243,169,72423,1,8,0:3:0:0:
292,113,72543,2,0,L|386:94,1,84.4999961318971,10|0,0:2|0:2,0:2:0:0:
512,237,72783,2,0,L|418:218,1,84.4999961318971,10|0,3:3|0:2,0:2:0:0:
239,384,73023,1,2,1:2:0:0:
342,365,73143,1,8,0:2:0:0:
273,285,73263,2,0,L|255:382,1,84.4999961318971,8|4,3:3|0:3,0:2:0:0:
100,337,73503,1,8,0:2:0:0:
59,272,73623,1,8,1:3:0:0:
68,196,73743,2,0,P|86:160|136:133,1,84.4999961318971,0|0,3:2|0:2,0:2:0:0:
313,206,73983,6,0,B|249:198|249:198|209:224|209:224|145:218,1,168.999992263794,2|0,1:2|3:0,0:2:0:0:
98,60,74343,1,8,0:3:0:0:
172,5,74463,2,0,L|186:96,1,84.4999961318971,8|0,0:2|0:2,0:2:0:0:
332,191,74703,1,2,3:2:0:0:
344,107,74823,1,10,0:3:0:0:
357,23,74943,1,2,1:2:0:0:
259,21,75063,2,0,L|341:37,1,84.4999961318971,8|0,0:2|3:2,0:2:0:0:
493,138,75303,1,8,1:3:0:0:
434,205,75423,2,0,L|347:218,1,84.4999961318971,8|0,0:2|3:2,0:2:0:0:
124,209,75663,1,10,0:2:0:0:
183,126,75783,1,2,3:2:0:0:
279,157,75903,5,10,0:3:0:0:
280,259,76023,2,0,L|262:165,1,84.4999961318971,8|0,0:2|3:2,0:2:0:0:
138,51,76263,1,4,1:3:0:0:
26,209,76383,5,12,0:2:0:0:
183,126,76503,1,8,0:2:0:0:
106,286,76623,1,10,0:2:0:0:
75,110,76743,1,10,0:2:0:0:
202,234,76863,5,6,1:3:0:0:
270,267,76983,1,10,1:3:0:0:
343,249,77103,1,10,1:3:0:0:
377,181,77223,1,10,1:3:0:0:
360,106,77343,5,10,1:2:0:0:
356,131,77463,1,10,1:3:0:0:
353,156,77583,1,10,1:3:0:0:
350,181,77703,1,10,1:3:0:0:
346,206,77823,6,0,L|473:237,1,130,6|0,1:2|3:2,0:2:0:0:
493,381,78183,1,10,1:3:0:0:
417,310,78303,2,0,P|379:302|349:309,1,65,10|0,0:2|0:2,0:2:0:0:
221,373,78543,2,0,P|259:381|289:374,1,65,10|0,1:3|0:2,0:2:0:0:
310,216,78783,5,2,1:2:0:0:
253,137,78903,1,2,0:2:0:0:
160,167,79023,1,2,3:2:0:0:
160,264,79143,1,10,1:3:0:0:
253,295,79263,2,0,L|321:307,1,65,10|0,0:2|0:2,0:2:0:0:
405,129,79503,1,10,1:3:0:0:
405,129,79623,1,0,0:2:0:0:
405,129,79743,6,0,B|355:138|355:138|324:124|324:124|267:133,1,130,2|0,1:2|3:2,0:2:0:0:
124,65,80103,1,10,1:3:0:0:
191,7,80223,2,0,P|212:51|210:85,1,65,8|0,0:2|0:2,0:2:0:0:
123,189,80463,2,0,P|150:148|181:133,1,65,6|0,1:3|0:2,0:2:0:0:
310,216,80703,5,2,1:2:0:0:
291,221,80823,1,2,3:2:0:0:
232,286,80943,1,2,3:2:0:0:
213,281,81063,1,6,1:3:0:0:
123,268,81183,2,0,P|124:304|143:337,1,65,10|0,0:2|0:2,0:2:0:0:
296,381,81423,1,2,3:2:0:0:
296,381,81543,1,0,3:2:0:0:
296,381,81663,6,0,P|314:335|409:318,1,130,2|0,1:2|3:2,0:2:0:0:
485,339,82023,1,10,1:3:0:0:
485,339,82143,2,0,L|470:264,1,65,10|0,0:2|0:2,0:2:0:0:
384,191,82383,2,0,L|399:116,1,65,10|0,1:3|0:2,0:2:0:0:
459,0,82623,5,2,1:2:0:0:
440,6,82743,1,2,0:2:0:0:
366,46,82863,1,2,3:2:0:0:
347,40,82983,1,10,1:3:0:0:
265,0,83103,2,0,L|251:71,1,65,10|0,0:2|0:2,0:2:0:0:
192,197,83343,2,0,L|179:133,1,65,0|0,3:2|3:2,0:0:0:0:
95,28,83583,6,0,P|27:11|-10:60,1,130,2|0,1:2|3:2,0:2:0:0:
30,222,83943,1,8,1:3:0:0:
58,140,84063,2,0,L|45:210,1,65,14|0,0:2|0:2,0:2:0:0:
132,340,84303,2,0,L|120:276,1,65,8|8,0:2|0:3,0:0:0:0:
206,157,84543,5,2,1:2:0:0:
224,151,84663,1,10,0:3:0:0:
289,203,84783,1,10,3:3:0:0:
307,209,84903,1,6,1:3:0:0:
376,162,85023,5,8,0:2:0:0:
362,84,85143,1,8,0:3:0:0:
431,47,85263,1,8,1:3:0:0:
487,102,85383,1,4,3:3:0:0:
453,172,85503,6,0,L|437:276,1,97.50000371933,10|0,1:3|0:2,0:2:0:0:
435,186,85863,6,0,L|419:290,1,97.50000371933,6|0,1:3|0:2,0:2:0:0:
417,200,86223,6,0,L|401:304,1,97.50000371933,6|0,1:3|0:2,0:2:0:0:
399,214,86583,6,0,L|383:318,1,97.50000371933,6|0,1:3|0:2,0:2:0:0:
381,228,86943,6,0,L|365:332,1,97.50000371933,6|0,1:3|0:2,0:2:0:0:
