osu file format v14

[General]
AudioFilename: audio.mp3
AudioLeadIn: 0
PreviewTime: 180333
Countdown: 0
SampleSet: Soft
StackLeniency: 0.7
Mode: 0
LetterboxInBreaks: 0
WidescreenStoryboard: 1

[Editor]
Bookmarks: 17111,32471,47831,63191,78551,86231,100631,118871,134231,147671,163053,182235,197595,212955,228315,282075
DistanceSpacing: 1
BeatDivisor: 8
GridSize: 4
TimelineZoom: 2.5

[Metadata]
Title:Memento
TitleUnicode:Memento
Artist:nonoc
ArtistUnicode:nonoc
Creator:Cellina
Version:Collab Insane feat. GimBab
Source:Re:ゼロから始める異世界生活
Tags:different from zero season two 2nd season anime ending j-pop rock j-rock jpop jrock japanese pop dailycare re:zero starting life in another world kara hajimeru isekai seikatsu gimbab pdc pending cup 2020 pdc2020 mapping contest garden agatsu kalibe deca full version skymin
BeatmapID:3846485
BeatmapSetID:1853174

[Difficulty]
HPDrainRate:5
CircleSize:4
OverallDifficulty:8
ApproachRate:9
SliderMultiplier:3.19999990463257
SliderTickRate:1

[Events]
//Background and Video events
0,0,"4133399.jpg",0,0
//Break Periods
2,86431,100031
2,182235,195075
//Storyboard Layer 0 (Background)
//Storyboard Layer 1 (Fail)
//Storyboard Layer 2 (Pass)
//Storyboard Layer 3 (Foreground)
//Storyboard Layer 4 (Overlay)
//Storyboard Sound Samples

[TimingPoints]
791,480,4,2,0,55,1,0
1751,480,4,2,0,55,1,0
5111,-166.666666666667,4,2,0,55,0,0
9431,-125,4,2,1,70,0,0
17111,-125,4,2,1,40,0,0
17351,-166.666666666667,4,2,1,40,0,0
32471,-250,4,2,1,40,0,0
32591,-250,4,2,0,40,0,0
35951,-166.666666666667,4,2,0,40,0,0
36791,-250,4,2,0,40,0,0
39791,-166.666666666667,4,2,0,40,0,0
40151,-166.666666666667,4,2,1,55,0,0
43991,-250.000000000001,4,2,1,55,0,0
44951,-166.666666666667,4,2,1,55,0,0
45911,-125,4,2,1,55,0,0
47831,-100,4,2,1,85,0,0
78551,-100,4,2,1,70,0,0
100631,-166.666666666667,4,2,1,50,0,0
101111,-125,4,2,1,50,0,0
115031,-125,4,2,1,50,0,0
115511,-125,4,2,1,60,0,0
115991,-125,4,2,1,70,0,0
116471,-125,4,2,1,80,0,0
116951,-166.666666666667,4,2,1,80,0,0
117311,-83.3333333333333,4,2,1,55,0,0
117791,-100,4,2,1,55,0,0
118391,-333.333333333333,4,2,1,55,0,0
118871,480,4,2,1,85,1,0
118871,-100,4,2,1,85,0,0
145991,-100,4,2,1,70,0,0
146711,-100,4,2,1,55,0,0
147671,-100,4,2,1,40,0,0
147911,-333.333333333333,4,2,0,40,0,0
149618,480,4,2,0,40,1,0
149618,-333.333333333333,4,2,0,40,0,0
163053,480,4,2,0,40,1,0
163533,-250,4,2,0,40,0,0
167373,-200,4,2,0,40,0,0
171213,-166.666666666667,4,2,0,40,0,0
173853,-166.666666666667,4,2,1,40,0,0
174093,-166.666666666667,4,2,0,40,0,0
174573,-250,4,2,0,40,0,0
176493,-250,4,2,1,40,0,0
182235,480,4,2,0,40,1,0
195675,-100,4,2,2,40,0,0
195915,-100,4,2,1,70,0,0
197195,-100,4,2,0,70,0,0
197355,-83.3333333333333,4,2,0,70,0,0
197595,-100,4,2,1,85,0,0
228315,-100,4,2,1,70,0,0
266715,-100,4,2,1,85,0,0
274395,-100,4,2,1,80,0,0
276315,-100,4,2,1,65,0,0
278235,-100,4,2,1,50,0,0
280155,-100,4,2,1,40,0,0
281595,-100,4,2,1,30,0,0
282075,-100,4,2,1,20,0,0

[Colours]
Combo1 : 72,0,162
Combo2 : 159,174,255
Combo3 : 209,125,255
Combo4 : 136,102,255

[HitObjects]
468,336,791,5,2,0:0:0:0:
492,294,1031,1,0,0:0:0:0:
460,258,1271,1,2,0:0:0:0:
417,278,1511,1,2,0:0:0:0:
422,326,1751,5,2,0:0:0:0:
168,376,2231,1,0,0:0:0:0:
285,339,2471,1,2,0:0:0:0:
194,256,2711,5,2,0:0:0:0:
448,208,3191,1,0,0:0:0:0:
331,171,3431,1,2,0:0:0:0:
422,88,3671,5,2,0:0:0:0:
346,142,3911,1,2,0:0:0:0:
253,140,4151,1,2,0:0:0:0:
173,95,4391,1,2,0:0:0:0:
132,12,4631,1,2,0:0:0:0:
20,168,5111,2,0,P|28:215|34:262,1,95.9999942092898
31,360,5591,6,0,P|114:312|209:310,1,191.99998841858,2|0,0:0|0:0,0:0:0:0:
280,376,6311,1,2,0:0:0:0:
460,240,6551,2,0,P|377:192|282:190,1,191.99998841858,2|0,0:0|0:0,0:0:0:0:
192,160,7271,1,2,0:0:0:0:
300,280,7511,5,0,0:0:0:0:
349,126,7751,1,2,0:0:0:0:
208,256,7991,2,0,P|215:303|219:351,1,95.9999942092898,2|0,0:0|0:0,0:0:0:0:
476,384,8471,2,0,P|453:241|441:98,1,287.999982627869,2|0,0:0|0:0,0:0:0:0:
216,216,9431,6,0,P|267:140|358:150,1,191.999994277954,4|8,1:1|2:1,0:0:0:0:
448,112,9911,2,0,P|440:143|436:174,1,63.9999980926514,2|0,1:2|0:0,0:0:0:0:
320,288,10151,2,0,P|316:256|309:225,1,63.9999980926514,8|0,2:1|0:0,0:0:0:0:
396,260,10391,5,0,1:2:0:0:
452,272,10511,1,0,0:0:0:0:
440,328,10631,1,2,2:1:0:0:
384,316,10751,1,8,0:0:0:0:
404,252,10871,2,0,P|435:248|467:242,1,63.9999980926514,8|0,1:1|0:0,0:0:0:0:
324,372,11111,2,0,P|292:367|260:364,1,63.9999980926514,2|8,1:2|2:1,0:0:0:0:
176,320,11351,6,0,P|171:256|159:193,1,127.999996185303,0|2,1:2|2:3,0:0:0:0:
300,108,11711,1,8,2:1:0:0:
300,108,11831,2,0,P|304:171|316:234,1,127.999996185303,0|2,1:2|1:2,0:0:0:0:
208,112,12191,1,8,2:1:0:0:
248,28,12311,5,0,1:2:0:0:
264,18,12431,1,2,2:3:0:0:
281,14,12551,1,2,1:2:0:0:
298,13,12671,1,0,0:0:0:0:
372,124,12791,2,0,L|308:114,1,63.9999980926514,8|0,2:1|0:0,0:0:0:0:
160,36,13031,2,0,L|96:46,1,63.9999980926514,0|8,0:0|2:1,0:0:0:0:
0,176,13271,6,0,B|36:148|36:148|56:184|56:184|96:192,1,127.999996185303,0|2,1:2|2:1,0:0:0:0:
176,244,13631,2,0,L|301:220,1,127.999996185303,8|0,0:0|0:0,0:0:0:0:
376,280,13991,2,0,B|412:308|412:308|432:272|432:272|472:264,1,127.999996185303,0|0,1:2|1:2,0:0:0:0:
472,180,14351,5,0,0:0:0:0:
428,144,14471,1,2,2:3:0:0:
420,200,14591,1,0,1:2:0:0:
320,300,14711,2,0,L|383:290,1,63.9999980926514,8|0,2:1|0:0,0:0:0:0:
180,232,14951,2,0,L|243:241,1,63.9999980926514,2|2,0:0|1:2,0:0:0:0:
28,296,15191,6,0,P|4:206|60:132,2,191.999994277954,0|8|8,1:2|0:0|2:1,0:0:0:0:
100,360,16031,1,8,3:3:0:0:
192,352,16151,5,0,3:2:0:0:
248,344,16271,1,0,3:2:0:0:
240,288,16391,1,0,1:2:0:0:
184,296,16511,1,0,1:2:0:0:
324,368,16631,2,0,P|328:336|334:304,1,63.9999980926514,8|0,2:1|0:0,0:0:0:0:
196,216,16871,2,0,P|164:211|132:205,1,63.9999980926514,0|8,1:2|2:1,0:0:0:0:
312,136,17111,5,4,1:2:0:0:
319,144,17591,2,0,P|390:155|456:168,1,95.9999942092898,2|8,0:0|2:1,0:0:0:0:
475,113,18071,1,0,0:0:0:0:
503,240,18311,1,2,1:2:0:0:
391,319,18551,5,8,2:1:0:0:
405,305,18671,2,0,P|322:321|276:327,1,95.9999942092898,0|0,1:2|0:0,0:0:0:0:
272,384,19031,6,0,P|264:298|153:282,1,191.99998841858,0|0,1:2|0:0,0:0:0:0:
67,143,19751,1,8,2:1:0:0:
0,208,19991,1,2,0:0:0:0:
35,238,20111,1,2,0:0:0:0:
55,224,20231,2,0,P|88:229|128:230,1,47.9999971046449,2|0,1:2|0:0,0:0:0:0:
173,271,20471,5,8,2:1:0:0:
227,217,20591,2,0,P|279:202|335:194,1,95.9999942092898,0|0,1:2|1:2,0:0:0:0:
317,173,20951,6,0,P|398:189|486:194,2,143.999991313935,0|2|8,1:2|2:3|2:1,0:0:0:0:
216,77,21911,1,0,0:0:0:0:
243,54,22031,1,2,0:0:0:0:
259,60,22151,2,0,P|286:56|311:49,1,47.9999971046449,0|0,1:2|0:0,0:0:0:0:
426,9,22391,5,8,2:1:0:0:
415,23,22511,2,0,P|429:88|435:128,1,95.9999942092898,0|8,1:2|2:1,0:0:0:0:
418,107,22871,6,0,P|330:130|318:188,2,143.999991313935,0|0|8,1:2|1:2|2:1,0:0:0:0:
412,275,23831,1,0,0:0:0:0:
395,289,23951,1,2,0:0:0:0:
354,277,24071,1,2,1:2:0:0:
227,212,24311,5,8,2:1:0:0:
181,156,24431,2,0,P|131:177|70:193,1,95.9999942092898,0|2,1:2|1:2,0:0:0:0:
60,164,24791,6,0,P|100:257|91:321,1,143.999991313935,4|0,1:1|0:0,0:0:0:0:
87,308,25271,1,0,0:0:0:0:
197,368,25511,1,8,2:1:0:0:
291,257,25751,5,0,0:0:0:0:
302,244,25871,1,0,0:0:0:0:
344,255,25991,1,2,0:0:0:0:
464,316,26231,5,8,2:1:0:0:
445,346,26351,2,0,B|390:357|407:365|352:377,1,95.9999942092898,0|8,1:2|2:1,0:0:0:0:
330,373,26711,6,0,P|356:285|365:204,2,143.999991313935,0|0|8,1:2|1:2|2:1,0:0:0:0:
218,247,27671,1,2,0:0:0:0:
152,339,27911,5,2,1:2:0:0:
128,329,28031,1,0,0:0:0:0:
90,357,28151,1,8,2:1:0:0:
71,369,28271,6,0,P|55:304|33:247,1,95.9999942092898,0|8,1:2|2:1,0:0:0:0:
68,273,28631,6,0,P|84:208|106:151,1,95.9999942092898,2|0,1:2|0:0,0:0:0:0:
63,112,28991,1,2,2:1:0:0:
83,95,29111,1,2,0:0:0:0:
280,49,29351,1,8,2:1:0:0:
173,35,29591,6,0,P|184:74|186:101,1,47.9999971046449,2|0,0:0|0:0,0:0:0:0:
243,129,29831,6,0,B|300:137|279:150|351:159,1,95.9999942092898,2|8,1:2|2:1,0:0:0:0:
428,212,30191,2,0,B|371:220|392:233|320:242,1,95.9999942092898,0|8,1:2|2:1,0:0:0:0:
275,288,30551,1,0,1:2:0:0:
437,339,30791,5,0,0:0:0:0:
454,350,30911,1,0,1:2:0:0:
500,332,31031,1,0,0:0:0:0:
346,247,31271,5,8,2:1:0:0:
280,354,31511,5,8,0:0:0:0:
205,346,31631,1,8,3:3:0:0:
136,239,31871,5,8,3:3:0:0:
91,250,31991,1,0,3:0:0:0:
82,265,32111,5,0,0:0:0:0:
60,265,32231,1,0,1:2:0:0:
0,214,32351,5,0,0:0:0:0:
50,152,32471,5,4,1:3:0:0:
212,44,32951,2,0,L|205:107,1,63.9999980926514
132,152,33431,2,0,L|118:24,1,127.999996185303
40,84,34151,1,2,0:0:0:0:
204,192,34391,5,0,0:0:0:0:
296,176,34631,1,2,0:0:0:0:
312,268,34871,1,0,0:0:0:0:
220,284,35111,1,2,0:0:0:0:
259,230,35351,1,0,0:0:0:0:
496,324,35831,5,2,0:0:0:0:
484,316,35951,2,0,P|436:316|393:338,1,95.9999942092898,2|2,0:0|0:0,0:0:0:0:
382,350,36311,5,0,0:0:0:0:
212,296,36791,2,0,P|208:264|201:232,1,63.9999980926514
256,168,37271,2,0,L|382:190,1,127.999996185303
460,228,37991,1,2,0:0:0:0:
332,328,38231,2,0,L|206:306,1,127.999996185303
132,264,38951,1,0,0:0:0:0:
56,300,39191,1,0,0:0:0:0:
204,220,39671,5,2,0:0:0:0:
213,207,39791,2,0,P|223:160|217:112,1,95.9999942092898,2|2,0:0|0:0,0:0:0:0:
160,60,40151,6,0,P|89:60|26:94,2,143.999991313935,4|0|0,1:3|1:0|0:0,0:0:0:0:
316,12,41231,1,0,1:2:0:0:
313,28,41351,2,0,L|301:124,1,95.9999942092898,0|0,1:2|3:0,0:0:0:0:
356,180,41711,1,0,1:2:0:0:
353,194,41831,2,0,L|347:242,1,47.9999971046449
320,316,42071,6,0,P|391:316|454:350,2,143.999991313935,0|0|0,3:0|0:0|0:0,0:0:0:0:
176,376,43151,1,0,0:0:0:0:
167,363,43271,2,0,P|123:345|76:336,1,95.9999942092898,0|0,1:2|0:0,0:0:0:0:
72,256,43631,1,0,0:0:0:0:
61,246,43751,2,0,L|13:238,1,47.9999971046449,0|0,3:0|1:0,0:0:0:0:
24,228,43991,6,0,P|19:164|4:102,1,127.999996185303
252,24,44711,1,0,1:0:0:0:
252,24,44831,1,0,0:0:0:0:
252,24,44951,6,0,P|258:119|281:212,1,191.99998841858,0|0,0:0|1:0,0:0:0:0:
127,172,45671,1,0,1:0:0:0:
116,120,45791,1,8,2:1:0:0:
166,137,45911,5,4,1:3:0:0:
392,272,46871,1,0,0:0:0:0:
403,272,47111,1,0,0:0:0:0:
397,261,47351,1,0,0:0:0:0:
383,264,47591,1,4,1:2:0:0:
332,325,47831,6,0,P|413:288|497:290,1,159.999995231628,4|2,1:1|0:0,0:0:0:0:
446,173,48191,1,8,2:1:0:0:
461,189,48311,2,0,P|489:153|478:109,1,79.9999976158142,0|0,1:2|0:0,0:0:0:0:
305,7,48551,2,0,P|321:61|324:93,1,79.9999976158142,10|0,2:1|0:0,0:0:0:0:
413,88,48791,6,0,B|314:96|356:129|262:135,1,159.999995231628,0|2,0:0|1:1,0:0:0:0:
106,109,49151,1,0,1:2:0:0:
92,93,49271,2,0,P|106:52|110:7,1,79.9999976158142,0|0,1:2|0:0,0:0:0:0:
184,130,49511,2,0,P|169:170|126:182,1,79.9999976158142,2|8,1:1|2:1,0:0:0:0:
47,269,49751,6,0,P|60:323|62:354,1,79.9999976158142,0|0,1:2|0:0,0:0:0:0:
222,245,49991,2,0,P|209:299|207:330,1,79.9999976158142,10|0,2:1|0:0,0:0:0:0:
38,279,50231,6,0,P|51:333|53:364,1,79.9999976158142,0|0,1:2|0:0,0:0:0:0:
237,231,50471,2,0,P|224:285|222:316,1,79.9999976158142,10|0,2:1|0:0,0:0:0:0:
293,346,50711,2,0,B|384:354|355:380|454:385,1,159.999995231628,0|2,1:2|1:1,0:0:0:0:
222,309,51071,1,0,0:0:0:0:
207,323,51191,2,0,B|116:331|145:357|46:362,1,159.999995231628,8|2,2:1|0:0,0:0:0:0:
96,202,51551,5,8,2:1:0:0:
154,148,51671,2,0,P|134:199|122:305,1,159.999995231628,4|2,1:2|2:1,0:0:0:0:
286,213,52031,1,8,2:1:0:0:
293,195,52151,2,0,P|241:211|205:217,1,79.9999976158142,0|0,1:2|0:0,0:0:0:0:
213,67,52391,2,0,P|161:51|125:45,1,79.9999976158142,10|0,2:1|0:0,0:0:0:0:
12,192,52631,6,0,P|57:153|166:153,1,159.999995231628,0|2,1:2|2:1,0:0:0:0:
280,117,52991,2,0,P|306:61|312:22,2,79.9999976158142,8|0|0,2:1|1:2|0:0,0:0:0:0:
286,213,53351,2,0,P|345:231|369:247,1,79.9999976158142,2|8,1:2|2:1,0:0:0:0:
419,293,53591,6,0,P|470:253|462:224,1,79.9999976158142,0|0,1:2|0:0,0:0:0:0:
382,106,53831,2,0,P|404:160|412:191,1,79.9999976158142,10|0,2:1|0:0,0:0:0:0:
337,318,54071,2,0,P|279:338|256:355,1,79.9999976158142,0|0,1:2|0:0,0:0:0:0:
135,359,54311,5,2,1:2:0:0:
169,340,54431,1,8,2:1:0:0:
118,258,54551,5,0,0:0:0:0:
54,303,54671,1,2,1:2:0:0:
63,325,54791,2,0,P|105:342|143:365,1,79.9999976158142,8|10,2:1|2:1,0:0:0:0:
170,153,55031,2,0,P|87:175|18:212,1,159.999995231628,0|0,1:2|1:2,0:0:0:0:
21,209,55391,1,10,2:1:0:0:
118,258,55511,6,0,B|213:266|182:295|271:299,1,159.999995231628,4|0,1:1|0:0,0:0:0:0:
372,264,55871,1,8,2:1:0:0:
384,281,55991,2,0,P|374:326|370:363,1,79.9999976158142,0|0,1:2|0:0,0:0:0:0:
262,208,56231,2,0,P|257:168|248:129,1,79.9999976158142,10|0,2:1|0:0,0:0:0:0:
319,41,56471,6,0,P|419:55|426:120,1,159.999995231628,0|10,1:2|2:1,0:0:0:0:
338,175,56831,1,8,2:1:0:0:
358,190,56951,2,0,P|405:179|454:175,1,79.9999976158142,0|0,1:2|0:0,0:0:0:0:
384,281,57191,2,0,P|426:290|465:306,1,79.9999976158142,2|8,1:2|2:1,0:0:0:0:
274,370,57431,6,0,P|253:330|274:277,1,79.9999976158142,0|0,1:2|0:0,0:0:0:0:
178,259,57671,2,0,P|201:215|251:213,1,79.9999976158142,10|0,2:1|0:0,0:0:0:0:
267,382,57911,6,0,P|246:342|267:289,1,79.9999976158142,0|0,1:2|0:0,0:0:0:0:
163,259,58151,2,0,P|186:215|236:213,1,79.9999976158142,10|0,2:1|0:0,0:0:0:0:
283,167,58391,2,0,P|328:112|287:16,1,159.999995231628,0|2,1:2|1:1,0:0:0:0:
202,113,58751,1,8,2:1:0:0:
165,97,58871,2,0,B|71:107|98:132|11:140,1,159.999995231628,0|2,1:2|0:0,0:0:0:0:
12,139,59231,1,8,2:1:0:0:
59,48,59351,6,0,P|95:148|105:205,1,159.999995231628,4|2,1:2|1:1,0:0:0:0:
116,313,59711,1,8,2:1:0:0:
53,376,59831,2,0,P|36:322|17:288,1,79.9999976158142,0|0,1:2|0:0,0:0:0:0:
192,355,60071,2,0,P|193:298|202:260,1,79.9999976158142,10|2,2:1|0:0,0:0:0:0:
271,229,60311,6,0,B|368:238|332:267|422:276,1,159.999995231628,0|2,1:2|2:1,0:0:0:0:
294,104,60671,1,8,2:1:0:0:
366,138,60791,2,0,P|412:124|443:106,1,79.9999976158142,0|0,1:2|0:0,0:0:0:0:
234,151,61031,2,0,P|188:137|157:119,1,79.9999976158142,10|0,2:1|0:0,0:0:0:0:
77,91,61271,5,0,1:2:0:0:
44,99,61391,1,0,0:0:0:0:
16,172,61511,5,10,2:1:0:0:
93,191,61631,1,0,0:0:0:0:
104,210,61751,2,0,P|91:262|86:296,1,79.9999976158142,0|8,1:2|2:1,0:0:0:0:
143,363,61991,5,0,0:0:0:0:
177,353,62111,1,8,2:1:0:0:
182,301,62231,1,0,1:2:0:0:
270,327,62351,5,0,1:2:0:0:
319,384,62471,2,0,B|421:372|371:347|472:337,1,159.999995231628,8|4,2:1|1:2,0:0:0:0:
350,91,62951,5,0,1:2:0:0:
439,122,63071,1,8,2:1:0:0:
368,184,63191,2,0,B|328:184|289:199|289:199|281:164|262:124,1,159.999995231628,4|0,1:1|0:0,0:0:0:0:
276,32,63551,1,8,2:1:0:0:
112,76,63671,2,0,P|151:68|190:64,1,79.9999976158142,0|0,1:2|0:0,0:0:0:0:
28,172,63911,2,0,P|21:132|12:93,1,79.9999976158142,8|4,2:1|2:3,0:0:0:0:
176,156,64151,6,0,P|160:234|153:314,1,159.999995231628,0|4,1:2|1:3,0:0:0:0:
232,376,64511,1,8,2:1:0:0:
68,356,64631,2,0,P|59:315|50:277,1,79.9999976158142,0|0,1:2|0:0,0:0:0:0:
168,168,64871,2,0,P|207:164|246:156,1,79.9999976158142,4|8,1:3|2:1,0:0:0:0:
316,308,65111,6,0,P|276:299|237:296,1,79.9999976158142,0|0,1:2|0:0,0:0:0:0:
404,211,65351,2,0,P|443:202|482:199,1,79.9999976158142,8|0,2:1|0:0,0:0:0:0:
315,216,65591,2,0,P|311:176|304:136,1,79.9999976158142,0|0,1:2|0:0,0:0:0:0:
411,296,65830,2,0,P|404:336|400:376,1,79.9999976158142,8|0,2:1|0:0,0:0:0:0:
484,330,66071,5,0,1:2:0:0:
497,300,66191,1,8,2:1:0:0:
329,253,66311,5,4,1:3:0:0:
330,287,66431,1,0,0:0:0:0:
412,282,66551,5,8,2:1:0:0:
419,269,66671,2,0,P|447:195|433:117,1,159.999995231628,0|8,1:2|2:1,0:0:0:0:
488,60,67031,6,0,B|407:118|418:31|340:88,1,159.999995231628,4|4,1:2|2:3,0:0:0:0:
392,168,67391,1,8,2:1:0:0:
248,60,67511,2,0,P|255:99|259:138,1,79.9999976158142,0|0,1:2|0:0,0:0:0:0:
396,260,67751,2,0,P|433:247|473:243,1,79.9999976158142,8|0,2:1|0:0,0:0:0:0:
302,240,67991,5,2,1:2:0:0:
302,240,68111,2,0,P|252:255|220:274,2,79.9999976158142,8|4|0,2:1|1:3|0:0,0:0:0:0:
252,80,68471,2,0,L|235:1,2,79.9999976158142,8|0|4,2:1|0:0|1:3,0:0:0:0:
236,172,68831,1,8,2:1:0:0:
152,212,68951,6,0,P|114:199|74:195,1,79.9999976158142,0|0,1:2|0:0,0:0:0:0:
248,340,69191,2,0,P|285:352|325:356,1,79.9999976158142,10|0,2:1|0:0,0:0:0:0:
240,184,69431,2,0,L|222:261,1,79.9999976158142,0|0,1:2|0:0,0:0:0:0:
113,114,69671,1,0,1:2:0:0:
126,97,69791,1,8,2:1:0:0:
163,108,69911,6,0,P|156:68|146:30,1,79.9999976158142,0|0,0:0|1:2,0:0:0:0:
304,256,70151,2,0,P|311:216|321:178,1,79.9999976158142,8|8,2:1|2:1,0:0:0:0:
80,208,70391,1,4,1:2:0:0:
388,328,70631,1,0,1:2:0:0:
24,148,70871,6,0,B|-20:116|-20:116|0:220,1,159.999995231628,4|0,1:1|0:0,0:0:0:0:
104,128,71231,1,8,2:1:0:0:
48,280,71351,2,0,P|85:267|125:267,1,79.9999976158142,0|0,1:2|0:0,0:0:0:0:
256,176,71591,2,0,P|218:163|178:163,1,79.9999976158142,8|0,2:1|0:0,0:0:0:0:
288,360,71831,5,0,1:2:0:0:
283,346,71951,1,8,2:1:0:0:
287,334,72071,2,0,P|291:295|308:258,1,79.9999976158142,4|0,1:3|0:0,0:0:0:0:
512,128,72311,1,8,2:1:0:0:
504,140,72431,2,0,P|433:175|354:173,1,159.999995231628,0|8,1:2|2:1,0:0:0:0:
303,91,72791,6,0,P|299:52|288:13,1,79.9999976158142,0|0,1:2|0:0,0:0:0:0:
168,168,73031,2,0,P|172:207|183:246,1,79.9999976158142,8|0,2:1|0:0,0:0:0:0:
360,184,73271,2,0,L|280:172,1,79.9999976158142,0|0,1:2|0:0,0:0:0:0:
95,90,73511,2,0,L|175:78,1,79.9999976158142,8|0,2:1|0:0,0:0:0:0:
279,194,73751,5,0,1:2:0:0:
270,216,73871,1,8,2:1:0:0:
176,207,73991,5,4,1:3:0:0:
172,184,74111,1,0,0:0:0:0:
228,132,74231,5,8,2:1:0:0:
236,120,74351,2,0,L|216:278,1,159.999995231628,0|8,1:2|2:1,0:0:0:0:
147,344,74711,6,0,P|71:345|26:283,1,159.999995231628,4|4,1:2|2:3,0:0:0:0:
112,260,75071,1,8,2:1:0:0:
236,364,75191,2,0,P|238:324|245:284,1,79.9999976158142,0|0,1:2|0:0,0:0:0:0:
430,304,75431,2,0,P|369:322|325:339,1,79.9999976158142,8|0,2:1|0:0,0:0:0:0:
328,240,75671,5,0,0:0:0:0:
320,228,75791,2,0,P|364:165|441:167,1,159.999995231628,8|0,2:1|1:2,0:0:0:0:
504,56,76151,2,0,P|467:72|427:76,1,79.9999976158142,12|0,1:1|0:0,0:0:0:0:
248,132,76391,2,0,P|242:92|232:53,1,79.9999976158142,8|0,2:1|0:0,0:0:0:0:
356,20,76631,5,0,1:2:0:0:
352,32,76751,2,0,P|339:111|332:190,1,159.999995231628,0|0,1:2|0:0,0:0:0:0:
232,312,77111,2,0,P|237:272|247:233,1,79.9999976158142,4|8,1:2|2:1,0:0:0:0:
444,176,77351,1,0,0:0:0:0:
452,164,77471,2,0,P|446:124|436:85,1,79.9999976158142,8|4,2:1|1:1,0:0:0:0:
348,44,77711,5,8,2:1:0:0:
352,60,77831,1,8,2:1:0:0:
288,108,77951,1,8,2:1:0:0:
360,136,78071,1,4,1:3:0:0:
356,152,78191,1,0,0:0:0:0:
352,168,78311,1,0,1:2:0:0:
348,184,78431,1,8,2:1:0:0:
360,216,78551,6,0,P|457:233|532:254,1,159.999995231628,4|0,1:1|0:0,0:0:0:0:
378,365,78911,1,8,2:1:0:0:
372,375,79031,2,0,P|358:329|339:296,1,79.9999976158142,0|0,1:2|0:0,0:0:0:0:
265,188,79271,2,0,P|231:230|247:269,1,79.9999976158142,10|0,2:1|0:0,0:0:0:0:
109,363,79511,5,0,1:0:0:0:
97,365,79631,1,0,0:0:0:0:
85,363,79751,1,2,1:1:0:0:
75,355,79871,1,8,2:1:0:0:
115,282,79991,6,0,P|125:237|142:196,1,79.9999976158142,0|0,1:2|0:0,0:0:0:0:
35,24,80231,2,0,P|7:63|18:102,1,79.9999976158142,2|8,1:1|2:1,0:0:0:0:
70,142,80471,6,0,B|156:158|122:183|217:200,1,159.999995231628,0|2,1:2|1:1,0:0:0:0:
376,276,80831,1,0,0:0:0:0:
376,276,80951,2,0,P|355:207|334:101,1,159.999995231628,8|2,2:1|2:1,0:0:0:0:
388,35,81311,1,8,2:1:0:0:
460,69,81431,5,0,1:2:0:0:
458,80,81551,1,0,0:0:0:0:
456,91,81671,1,2,1:1:0:0:
454,102,81791,1,8,2:1:0:0:
480,175,81911,6,0,P|408:127|302:130,1,159.999995231628,0|2,1:2|1:1,0:0:0:0:
246,169,82271,1,8,2:1:0:0:
246,169,82391,6,0,P|261:73|267:-10,1,159.999995231628,4|2,1:2|2:1,0:0:0:0:
173,54,82751,2,0,P|113:77|96:84,2,79.9999976158142,8|0|0,2:1|0:0|0:0,0:0:0:0:
96,171,83111,2,0,P|41:155|13:146,1,79.9999976158142,10|0,2:1|0:0,0:0:0:0:
86,383,83351,5,0,1:2:0:0:
97,380,83471,1,0,0:0:0:0:
107,373,83591,1,2,1:1:0:0:
114,363,83711,1,8,2:1:0:0:
49,320,83831,6,0,P|43:280|37:240,1,79.9999976158142,0|0,1:2|0:0,0:0:0:0:
176,136,84071,2,0,P|214:167|205:211,1,79.9999976158142,2|8,1:1|2:1,0:0:0:0:
273,256,84311,6,0,B|360:265|332:296|423:304,1,159.999995231628,0|0,1:2|1:2,0:0:0:0:
444,291,84671,1,8,2:1:0:0:
492,205,84791,5,4,1:2:0:0:
494,212,85031,2,0,P|439:202|401:192,1,79.9999976158142,0|8,1:1|2:1,0:0:0:0:
286,69,85271,5,8,3:3:0:0:
231,73,85391,1,8,3:3:0:0:
175,129,85511,5,0,3:2:0:0:
144,126,85631,1,0,1:2:0:0:
80,58,85751,6,0,P|111:138|127:233,1,159.999995231628,0|0,1:2|1:2,0:0:0:0:
177,269,86111,1,8,2:1:0:0:
120,370,86231,5,4,1:1:0:0:
456,132,100631,6,0,P|458:116|461:100,3,31.9999980697633,2|0|0|2,0:0|0:0|0:0|2:1,0:0:0:0:
308,348,101111,1,8,2:1:0:0:
299,329,101231,2,0,P|284:267|291:204,1,127.999996185303,0|0,1:2|1:2,0:0:0:0:
268,128,101591,5,4,1:1:0:0:
448,212,101951,1,0,0:0:0:0:
286,326,102311,1,8,2:1:0:0:
106,242,102791,5,0,1:2:0:0:
216,356,103031,1,8,2:1:0:0:
202,358,103151,2,0,L|76:381,1,127.999996185303,0|0,1:2|0:0,0:0:0:0:
12,340,103511,5,0,1:2:0:0:
212,192,103751,1,0,0:0:0:0:
208,212,103871,1,8,2:1:0:0:
0,112,104231,1,8,2:1:0:0:
136,316,104711,5,2,1:2:0:0:
20,212,104951,1,8,2:1:0:0:
16,196,105071,2,0,P|37:138|97:129,1,127.999996185303,0|2,1:2|0:0,0:0:0:0:
168,96,105431,5,0,1:2:0:0:
412,20,105671,1,2,0:0:0:0:
408,40,105791,1,0,1:2:0:0:
356,270,106031,1,2,0:0:0:0:
352,250,106151,1,8,2:1:0:0:
248,368,106631,5,0,1:2:0:0:
500,332,106871,1,8,2:1:0:0:
504,315,106991,2,0,B|524:256|524:256|492:200,1,127.999996185303,0|2,1:2|0:0,0:0:0:0:
432,148,107351,6,0,L|306:171,1,127.999996185303,0|0,1:2|0:0,0:0:0:0:
240,136,107711,2,0,P|225:75|261:25,2,127.999996185303,0|0|2,0:0|0:0|0:0,0:0:0:0:
232,148,108431,2,0,P|247:175|255:206,1,63.9999980926514
192,360,108791,1,8,2:1:0:0:
185,345,108911,2,0,L|310:367,1,127.999996185303
444,332,109271,6,0,B|471:268|470:263|419:225,1,127.999996185303,4|0,1:2|0:0,0:0:0:0:
424,212,109631,2,0,B|387:152|382:150|322:170,1,127.999996185303,0|0,1:2|0:0,0:0:0:0:
316,160,109991,2,0,B|246:155|241:158|223:219,1,127.999996185303,8|0,2:1|0:0,0:0:0:0:
180,328,110471,1,0,1:2:0:0:
364,384,110711,1,8,2:1:0:0:
368,368,110831,1,0,1:2:0:0:
488,152,111191,6,0,B|450:104|450:104|446:103|446:103|391:133,1,127.999996185303,0|0,1:2|1:2,0:0:0:0:
328,92,111551,2,0,B|267:84|267:84|263:87|263:87|247:147,1,127.999996185303,8|2,2:1|0:0,0:0:0:0:
172,162,111911,2,0,B|123:200|123:200|122:204|122:204|153:258,1,127.999996185303,8|2,2:1|0:0,0:0:0:0:
200,348,112391,1,2,1:2:0:0:
373,352,112631,1,8,2:1:0:0:
464,44,112871,1,0,0:0:0:0:
464,44,112991,1,8,2:1:0:0:
463,43,113111,6,0,P|403:27|348:56,1,127.999996185303,0|0,1:2|0:0,0:0:0:0:
344,68,113471,2,0,P|314:79|282:81,1,63.9999980926514,0|0,1:2|0:0,0:0:0:0:
48,144,113831,2,0,P|108:127|163:156,1,127.999996185303,8|0,2:1|0:0,0:0:0:0:
100,204,114191,1,0,0:0:0:0:
172,235,114311,1,2,1:2:0:0:
464,336,114551,1,8,2:1:0:0:
456,320,114671,2,0,P|395:303|340:332,1,127.999996185303,0|0,1:2|0:0,0:0:0:0:
260,384,115031,5,2,1:2:0:0:
460,220,115271,2,0,P|474:202|454:214,1,63.9999980926514,2|0,2:1|0:0,0:0:0:0:
466,208,115511,1,0,1:2:0:0:
352,92,115751,2,0,P|351:69|344:90,1,63.9999980926514,2|0,2:1|0:0,0:0:0:0:
350,80,115991,1,0,1:2:0:0:
186,63,116231,2,0,P|171:45|179:66,1,63.9999980926514,2|0,2:3|0:0,0:0:0:0:
178,56,116471,1,0,1:2:0:0:
40,147,116711,2,0,P|17:143|37:154,1,63.9999980926514,2|0,2:3|0:0,0:0:0:0:
248,204,116951,6,0,L|260:108,1,95.9999942092898,8|8,1:3|2:1,0:0:0:0:
296,16,117311,6,0,P|339:-2|386:4,1,95.9999942092898,0|0,1:2|0:0,0:0:0:0:
176,80,117551,2,0,P|132:98|85:91,1,95.9999942092898,8|0,2:1|0:0,0:0:0:0:
268,104,117791,6,0,L|283:182,1,79.9999976158142,0|0,1:2|0:0,0:0:0:0:
440,304,118031,1,8,3:3:0:0:
442,291,118151,1,0,3:2:0:0:
444,278,118271,1,0,1:2:0:0:
446,267,118391,6,0,L|375:282,1,71.9999956569673,4|0,1:2|0:0,0:0:0:0:
318,335,118871,6,0,B|229:340|256:369|163:374,1,159.999995231628,4|2,1:1|2:1,0:0:0:0:
97,251,119231,1,8,2:1:0:0:
184,212,119351,2,0,P|173:264|170:322,1,79.9999976158142,0|0,1:2|0:0,0:0:0:0:
81,380,119591,2,0,P|39:348|53:300,1,79.9999976158142,10|0,2:1|0:0,0:0:0:0:
196,226,119831,6,0,P|97:196|9:160,1,159.999995231628,0|2,0:0|1:1,0:0:0:0:
128,44,120191,1,0,1:2:0:0:
163,26,120311,2,0,P|142:83|137:128,1,79.9999976158142,8|0,2:1|0:0,0:0:0:0:
27,183,120551,2,0,P|11:132|56:102,1,79.9999976158142,2|8,1:1|2:1,0:0:0:0:
149,111,120791,6,0,P|209:100|258:87,1,79.9999976158142,0|0,1:2|0:0,0:0:0:0:
308,145,121031,2,0,P|302:206|304:246,1,79.9999976158142,10|0,2:1|0:0,0:0:0:0:
159,119,121271,6,0,P|219:108|268:95,1,79.9999976158142,0|0,1:2|0:0,0:0:0:0:
318,153,121511,2,0,P|312:214|314:254,1,79.9999976158142,10|0,2:1|0:0,0:0:0:0:
270,305,121751,6,0,P|364:263|430:277,1,159.999995231628,0|2,1:2|1:1,0:0:0:0:
189,330,122111,1,0,0:0:0:0:
203,346,122231,2,0,B|114:348|136:383|49:384,1,159.999995231628,8|2,2:1|0:0,0:0:0:0:
150,218,122591,1,8,2:1:0:0:
150,218,122711,6,0,P|68:237|74:311,1,159.999995231628,4|2,1:2|2:1,0:0:0:0:
229,238,123071,1,8,2:1:0:0:
244,232,123191,2,0,P|234:184|238:129,1,79.9999976158142,0|0,1:2|0:0,0:0:0:0:
67,15,123431,2,0,P|34:50|44:101,1,79.9999976158142,10|0,2:1|0:0,0:0:0:0:
102,117,123671,6,0,B|198:105|160:77|254:67,1,159.999995231628,0|2,1:2|1:1,0:0:0:0:
423,111,124031,2,0,P|478:130|526:138,2,79.9999976158142,8|0|0,2:1|0:0|0:0,0:0:0:0:
347,47,124391,2,0,P|336:104|331:156,1,79.9999976158142,2|8,1:1|2:1,0:0:0:0:
422,321,124631,6,0,P|458:293|453:243,1,79.9999976158142,0|0,1:2|0:0,0:0:0:0:
243,156,124871,2,0,P|237:211|279:232,1,79.9999976158142,10|0,2:1|0:0,0:0:0:0:
351,243,125111,2,0,B|258:253|294:283|202:296,1,159.999995231628,0|2,1:2|1:1,0:0:0:0:
80,330,125471,5,8,2:1:0:0:
43,302,125591,1,0,0:0:0:0:
55,276,125711,1,0,1:2:0:0:
133,252,125831,5,10,2:1:0:0:
236,160,125951,1,8,2:1:0:0:
165,121,126071,2,0,P|87:140|9:156,1,159.999995231628,4|2,1:2|0:0,0:0:0:0:
242,71,126431,1,8,2:1:0:0:
242,71,126551,6,0,P|320:52|398:36,1,159.999995231628,4|2,1:1|2:1,0:0:0:0:
498,154,126911,1,8,2:1:0:0:
498,154,127031,2,0,P|431:138|417:134,1,79.9999976158142,0|0,1:2|0:0,0:0:0:0:
343,324,127271,2,0,P|301:283|321:242,1,79.9999976158142,10|0,2:1|0:0,0:0:0:0:
290,173,127511,6,0,B|379:187|342:216|437:230,1,159.999995231628,0|2,0:0|1:1,0:0:0:0:
491,348,127871,1,0,1:2:0:0:
491,348,127991,2,0,P|438:365|415:380,1,79.9999976158142,0|0,1:2|0:0,0:0:0:0:
269,286,128231,2,0,P|322:303|345:318,1,79.9999976158142,2|8,1:1|2:1,0:0:0:0:
206,373,128471,6,0,P|153:347|168:300,1,79.9999976158142,0|0,1:2|0:0,0:0:0:0:
84,251,128711,2,0,P|144:240|184:222,1,79.9999976158142,10|0,2:1|0:0,0:0:0:0:
308,160,128951,6,0,P|282:107|235:122,1,79.9999976158142,0|0,1:2|0:0,0:0:0:0:
186,40,129191,2,0,P|175:100|157:140,1,79.9999976158142,10|0,2:1|0:0,0:0:0:0:
62,151,129431,5,0,1:2:0:0:
40,168,129551,1,0,0:0:0:0:
20,43,129671,5,2,1:1:0:0:
92,77,129791,1,0,0:0:0:0:
62,151,129911,6,0,P|41:229|24:335,1,159.999995231628,8|2,2:1|1:2,0:0:0:0:
171,358,130271,1,8,2:1:0:0:
113,305,130391,6,0,B|201:316|175:339|265:349,1,159.999995231628,4|2,1:2|2:1,0:0:0:0:
357,281,130751,1,8,2:1:0:0:
417,211,130871,2,0,P|368:202|335:191,1,79.9999976158142,0|0,0:0|0:0,1:2:0:0:
239,80,131111,2,0,P|192:113|202:161,1,79.9999976158142,10|0,2:1|0:0,0:0:0:0:
142,224,131351,6,0,P|216:156|272:171,1,159.999995231628,0|2,1:2|2:1,0:0:0:0:
334,113,131711,1,8,2:1:0:0:
314,19,131831,2,0,P|350:34|390:42,1,79.9999976158142,0|0,1:2|0:0,0:0:0:0:
489,179,132071,2,0,P|501:226|462:266,1,79.9999976158142,0|8,0:0|2:1,0:0:0:0:
322,357,132311,5,0,1:2:0:0:
293,333,132431,1,8,2:1:0:0:
323,283,132551,1,8,2:1:0:0:
464,330,132671,5,0,1:2:0:0:
472,342,132791,2,0,P|414:327|370:323,1,79.9999976158142,12|8,2:1|3:3,0:0:0:0:
361,204,133031,5,0,3:2:0:0:
395,211,133151,1,8,2:1:0:0:
447,110,133271,5,8,3:3:0:0:
371,123,133391,1,0,3:2:0:0:
296,139,133511,1,8,2:1:0:0:
51,243,133751,5,0,1:2:0:0:
174,358,133991,5,0,1:2:0:0:
223,300,134111,1,8,2:1:0:0:
131,209,134231,2,0,B|128:148|116:96|116:96|128:120|140:136,1,159.999995231628,4|4,1:1|2:3,0:0:0:0:
220,208,134591,1,8,2:1:0:0:
196,72,134711,2,0,P|231:89|271:95,1,79.9999976158142,0|0,1:2|0:0,0:0:0:0:
424,56,134951,2,0,P|459:38|499:33,1,79.9999976158142,4|0,2:3|0:0,0:0:0:0:
308,12,135191,6,0,P|351:77|339:154,1,159.999995231628,0|4,0:0|1:3,0:0:0:0:
304,244,135551,1,0,0:0:0:0:
384,316,135671,2,0,P|387:276|394:236,1,79.9999976158142,8|0,2:1|1:2,0:0:0:0:
296,256,135911,2,0,P|257:252|219:240,1,79.9999976158142,0|8,0:0|2:1,0:0:0:0:
20,128,136151,6,0,P|59:124|97:112,1,79.9999976158142,0|0,1:2|0:0,0:0:0:0:
184,156,136391,2,0,P|187:116|194:76,1,79.9999976158142,8|0,2:1|0:0,0:0:0:0:
268,264,136631,2,0,P|229:251|190:247,1,79.9999976158142,0|0,1:2|0:0,0:0:0:0:
104,204,136871,2,0,P|111:243|115:283,1,79.9999976158142,8|0,2:1|0:0,0:0:0:0:
231,308,137111,5,0,1:2:0:0:
262,303,137231,1,8,2:1:0:0:
220,145,137351,5,4,1:3:0:0:
193,158,137471,1,0,0:0:0:0:
240,228,137591,5,8,2:1:0:0:
252,220,137711,2,0,P|329:206|403:234,1,159.999995231628,0|8,1:2|2:1,0:0:0:0:
464,292,138071,6,0,P|440:215|439:135,1,159.999995231628,4|4,1:2|2:3,0:0:0:0:
472,44,138431,1,8,2:1:0:0:
432,128,138551,2,0,P|393:139|354:144,1,79.9999976158142,0|0,1:2|0:0,0:0:0:0:
236,176,138791,2,0,P|233:102|160:90,1,159.999995231628,4|0,2:3|1:2,0:0:0:0:
80,40,139151,5,8,2:1:0:0:
68,52,139271,2,0,P|79:90|86:129,1,79.9999976158142,4|0,1:3|0:0,0:0:0:0:
160,172,139511,1,8,2:1:0:0:
88,216,139631,2,0,P|59:290|55:369,1,159.999995231628,0|8,1:2|2:1,0:0:0:0:
160,256,139991,6,0,P|148:293|144:333,1,79.9999976158142,0|0,1:2|0:0,0:0:0:0:
304,224,140231,2,0,P|300:184|288:146,1,79.9999976158142,4|0,2:3|0:0,0:0:0:0:
248,308,140471,2,0,L|327:300,1,79.9999976158142,0|0,1:2|0:0,0:0:0:0:
430,96,140711,1,8,2:1:0:0:
413,89,140831,1,8,2:1:0:0:
376,92,140951,6,0,P|369:131|365:171,1,79.9999976158142,0|8,0:0|2:1,0:0:0:0:
128,8,141191,2,0,P|134:47|138:87,1,79.9999976158142,8|0,2:1|1:2,0:0:0:0:
280,172,141431,1,4,1:2:0:0:
284,156,141551,1,0,0:0:0:0:
36,288,141791,1,8,2:1:0:0:
31,271,141911,6,0,P|41:172|123:230,1,239.999992847443,4|8,1:1|2:1,0:0:0:0:
184,352,142391,2,0,P|146:337|108:325,1,79.9999976158142,0|0,1:2|0:0,0:0:0:0:
252,256,142631,2,0,P|289:241|327:229,1,79.9999976158142,8|0,2:1|0:0,0:0:0:0:
424,256,142871,2,0,B|444:292|456:324|456:324|468:244|492:164,1,239.999992847443
480,68,143351,2,0,P|440:60|402:48,1,79.9999976158142,8|0,2:1|1:2,0:0:0:0:
272,144,143591,2,0,P|232:151|194:163,1,79.9999976158142,0|8,0:0|2:1,0:0:0:0:
36,200,143831,6,0,P|28:160|19:121,1,79.9999976158142,0|0,1:2|0:0,0:0:0:0:
68,40,144071,2,0,P|107:33|146:23,1,79.9999976158142,8|0,2:1|0:0,0:0:0:0:
224,312,144311,2,0,P|231:272|240:233,1,79.9999976158142,0|0,1:2|0:0,0:0:0:0:
192,152,144551,2,0,P|152:145|113:135,1,79.9999976158142,8|0,2:1|0:0,0:0:0:0:
30,264,144791,5,0,1:2:0:0:
24,296,144911,1,8,2:1:0:0:
168,353,145031,5,4,1:3:0:0:
186,328,145151,1,0,0:0:0:0:
108,292,145271,2,0,B|95:311|79:327|79:327|191:303,1,159.999995231628,4|0,1:2|0:0,0:0:0:0:
280,348,145631,1,0,0:0:0:0:
276,252,145751,6,0,B|373:231|291:171|381:151,1,159.999995231628,4|8,1:1|3:3,0:0:0:0:
408,228,146111,1,8,3:3:0:0:
464,167,146231,2,0,P|467:128|475:88,1,79.9999976158142,0|0,3:2|3:2,0:0:0:0:
384,64,146471,2,0,P|380:103|372:143,1,79.9999976158142,0|0,1:2|1:2,0:0:0:0:
252,172,146711,5,0,3:2:0:0:
224,128,146831,1,8,3:3:0:0:
222,83,146951,1,8,0:0:0:0:
241,37,147071,1,8,0:0:0:0:
132,80,147191,5,0,1:2:0:0:
125,104,147311,1,0,0:0:0:0:
127,129,147431,1,8,2:1:0:0:
136,152,147551,1,0,0:0:0:0:
78,207,147671,5,4,1:3:0:0:
141,346,147911,2,0,P|173:354|197:362,1,47.9999971046449,0|2,0:0|0:0,0:0:0:0:
193,366,148871,2,0,P|170:358|146:353,2,47.9999971046449,0|2|0,0:0|0:0|0:0,0:0:0:0:
283,326,149618,6,0,P|287:305|297:272,1,47.9999971046449,4|0,2:1|0:0,0:0:0:0:
246,216,150098,2,0,P|225:212|192:202,1,47.9999971046449,2|0,0:0|0:0,0:0:0:0:
187,208,150818,2,0,P|210:215|234:220,1,47.9999971046449,0|2,0:0|0:0,0:0:0:0:
466,29,151538,5,0,0:0:0:0:
392,125,151778,2,0,P|363:113|341:109,1,47.9999971046449,0|2,0:0|0:0,0:0:0:0:
336,111,152738,2,0,P|360:117|382:127,2,47.9999971046449,0|2|0,0:0|0:0|0:0,0:0:0:0:
146,35,153458,6,0,P|138:61|129:88,1,47.9999971046449
154,156,153938,2,0,P|180:164|207:173,1,47.9999971046449,0|2,0:0|0:0,0:0:0:0:
235,241,154418,5,0,0:0:0:0:
309,47,154658,1,0,0:0:0:0:
319,55,155138,1,2,0:0:0:0:
272,121,155378,5,0,0:0:0:0:
153,223,155618,2,0,P|148:188|144:165,2,47.9999971046449,0|2|0,0:0|0:0|0:0,0:0:0:0:
157,218,156578,2,0,P|153:195|149:171,2,47.9999971046449,0|2|0,0:0|0:0|0:0,0:0:0:0:
276,324,157298,6,0,P|305:316|331:313,1,47.9999971046449
358,245,157778,2,0,P|350:216|347:190,1,47.9999971046449,2|0,0:0|0:0,0:0:0:0:
353,191,158498,2,0,P|356:214|363:237,1,47.9999971046449,0|2,0:0|0:0,0:0:0:0:
160,351,159218,5,0,0:0:0:0:
47,249,159458,2,0,P|57:209|59:195,1,47.9999971046449,0|2,0:0|0:0,0:0:0:0:
67,198,160418,2,0,P|62:221|55:244,2,47.9999971046449,0|2|0,0:0|0:0|0:0,0:0:0:0:
129,142,161138,5,0,0:0:0:0:
365,202,161618,1,0,0:0:0:0:
401,128,161858,5,2,0:0:0:0:
286,192,162098,1,0,0:0:0:0:
410,282,162338,2,0,P|437:258|478:252,1,71.9999956569673
482,255,162818,2,0,L|485:236,3,11.9999992761612,2|2|2|2,0:0|0:0|0:0|0:0,0:0:0:0:
505,235,163053,5,4,0:1:0:0:
312,108,163533,6,0,P|308:76|301:44,2,63.9999980926514,2|2|2,0:0|0:0|0:0,0:0:0:0:
448,196,164493,2,0,P|451:164|458:132,2,63.9999980926514,2|2|2,0:0|0:0|0:0,0:0:0:0:
312,280,165453,2,0,P|308:248|301:216,2,63.9999980926514,2|2|2,0:0|0:0|0:0,0:0:0:0:
444,368,166413,2,0,P|389:336|329:351,1,127.999996185303,2|0,0:0|0:0,0:0:0:0:
120,324,167373,6,0,P|81:333|41:340,2,79.9999976158142,2|2|2,0:0|0:0|0:0,0:0:0:0:
244,224,168333,2,0,P|282:233|322:240,2,79.9999976158142,2|2|2,0:0|0:0|0:0,0:0:0:0:
140,104,169293,2,0,P|101:113|61:120,2,79.9999976158142,2|2|2,0:0|0:0|0:0,0:0:0:0:
264,4,170253,2,0,P|217:66|233:142,1,159.999995231628,2|0,0:0|0:0,0:0:0:0:
452,136,171213,6,0,P|459:88|471:42,2,95.9999942092898,2|2|2,0:0|0:0|0:0,0:0:0:0:
300,252,172173,2,0,P|308:299|313:346,2,95.9999942092898,2|2|2,0:0|0:0|0:0,0:0:0:0:
144,132,173133,2,0,P|157:86|167:39,2,95.9999942092898,2|2|2,0:0|0:0|0:0,0:0:0:0:
8,268,174093,2,0,P|65:226|135:230,1,143.999991313935,2|0,0:0|0:0,0:0:0:0:
147,243,174573,6,0,L|236:260,1,63.9999980926514
270,205,175053,2,0,L|282:142,1,63.9999980926514,0|2,0:0|0:0,0:0:0:0:
298,135,176013,2,0,L|387:152,1,63.9999980926514,2|2,0:0|0:0,0:0:0:0:
426,109,176493,5,4,1:2:0:0:
256,192,176613,12,4,178413,1:1:0:0:
271,235,195675,5,2,2:1:0:0:
451,331,195915,1,8,2:1:0:0:
288,372,196155,5,0,1:2:0:0:
346,323,196275,2,0,B|440:320|409:290|501:289,1,159.999995231628,8|0,2:1|1:2,0:0:0:0:
414,147,196635,6,0,P|366:160|304:170,1,79.9999976158142,0|8,1:2|2:1,0:0:0:0:
283,247,196875,2,0,P|243:254|205:265,1,79.9999976158142,8|0,2:1|1:2,0:0:0:0:
10,229,197115,5,4,1:2:0:0:
0,204,197195,5,2,0:0:0:0:
16,155,197275,5,2,0:0:0:0:
88,124,197355,6,0,B|178:139|132:159|230:174,1,143.999991313935,2|0,0:0|0:0,0:0:0:0:
221,172,197595,6,0,P|245:78|293:-4,1,159.999995231628,4|2,1:1|2:1,0:0:0:0:
414,114,197955,1,8,2:1:0:0:
418,97,198075,2,0,P|361:109|315:115,1,79.9999976158142,0|0,1:2|0:0,0:0:0:0:
401,253,198315,2,0,P|443:204|431:160,1,79.9999976158142,10|0,2:1|0:0,0:0:0:0:
312,263,198555,6,0,B|216:278|257:304|163:317,1,159.999995231628,0|2,0:0|1:1,0:0:0:0:
59,281,198915,1,0,0:0:0:0:
78,266,199035,2,0,P|67:314|63:345,1,79.9999976158142,8|0,2:1|0:0,0:0:0:0:
160,220,199275,2,0,P|128:176|85:184,1,79.9999976158142,2|8,2:1|2:1,0:0:0:0:
40,72,199515,6,0,P|84:68|131:57,1,79.9999976158142,0|0,1:2|0:0,0:0:0:0:
189,103,199755,2,0,P|227:64|217:28,1,79.9999976158142,10|0,2:1|0:0,0:0:0:0:
33,66,199995,6,0,P|77:62|124:51,1,79.9999976158142,0|0,1:2|0:0,0:0:0:0:
195,117,200235,2,0,P|233:78|223:42,1,79.9999976158142,10|0,2:1|0:0,0:0:0:0:
324,22,200475,6,0,P|413:32|427:114,1,159.999995231628,0|10,1:2|2:1,0:0:0:0:
425,219,200835,1,0,0:0:0:0:
489,167,200955,2,0,B|391:175|433:204|337:212,1,159.999995231628,8|0,2:1|0:0,0:0:0:0:
273,362,201435,6,0,P|245:298|258:201,1,159.999995231628,4|2,1:2|2:1,0:0:0:0:
337,212,201795,1,8,2:1:0:0:
293,140,201915,2,0,P|248:123|216:108,1,79.9999976158142,0|0,1:2|0:0,0:0:0:0:
186,25,202155,2,0,P|133:56|149:98,1,79.9999976158142,10|0,2:1|0:0,0:0:0:0:
94,174,202395,6,0,P|143:112|243:123,1,159.999995231628,0|0,1:2|0:0,0:0:0:0:
112,269,202755,2,0,P|63:254|24:246,2,79.9999976158142,0|8|0,1:2|2:1|0:0,0:0:0:0:
186,302,203115,2,0,P|201:338|186:374,1,79.9999976158142,2|8,1:1|2:1,0:0:0:0:
109,370,203355,6,0,P|52:377|17:387,1,79.9999976158142,0|0,1:2|0:0,0:0:0:0:
276,298,203595,2,0,P|333:305|368:315,1,79.9999976158142,10|0,2:1|0:0,0:0:0:0:
183,206,203835,2,0,P|109:174|30:167,1,159.999995231628,0|10,1:2|2:1,0:0:0:0:
44,47,204195,5,8,2:1:0:0:
67,20,204315,1,0,1:2:0:0:
136,53,204435,1,0,1:2:0:0:
188,110,204555,5,10,2:1:0:0:
286,59,204675,1,8,2:1:0:0:
302,80,204795,2,0,B|393:89|364:115|455:123,1,159.999995231628,4|0,1:2|1:2,0:0:0:0:
512,75,205155,1,0,1:2:0:0:
447,35,205275,6,0,P|478:131|487:217,1,159.999995231628,4|2,1:1|2:1,0:0:0:0:
402,289,205635,1,8,2:1:0:0:
418,303,205755,2,0,P|473:292|514:288,1,79.9999976158142,0|0,1:2|0:0,0:0:0:0:
332,170,205995,2,0,P|301:207|322:252,1,79.9999976158142,10|0,2:1|0:0,0:0:0:0:
287,346,206235,6,0,P|212:289|133:284,1,159.999995231628,0|2,0:0|1:1,0:0:0:0:
78,158,206595,1,0,0:0:0:0:
97,150,206715,2,0,P|79:199|79:239,1,79.9999976158142,8|0,2:1|0:0,0:0:0:0:
70,378,206955,2,0,P|39:348|55:314,1,79.9999976158142,2|8,2:1|2:1,0:0:0:0:
174,194,207195,6,0,P|232:185|261:174,1,79.9999976158142,0|0,1:2|0:0,0:0:0:0:
343,193,207435,2,0,P|360:146|354:108,1,79.9999976158142,10|0,2:1|0:0,0:0:0:0:
169,206,207675,6,0,P|227:197|256:186,1,79.9999976158142,0|0,1:2|0:0,0:0:0:0:
349,210,207915,2,0,P|366:163|360:125,1,79.9999976158142,10|0,2:1|0:0,0:0:0:0:
374,18,208155,5,0,1:2:0:0:
348,21,208275,1,8,2:1:0:0:
294,81,208395,5,2,1:1:0:0:
206,48,208515,1,0,0:0:0:0:
218,38,208635,6,0,B|138:44|151:71|63:75,1,159.999995231628,8|2,2:1|1:2,0:0:0:0:
9,18,208995,1,8,2:1:0:0:
143,88,209115,6,0,P|110:161|103:246,1,159.999995231628,4|2,1:2|2:1,0:0:0:0:
159,292,209475,1,8,2:1:0:0:
97,370,209595,2,0,P|54:353|13:350,1,79.9999976158142,0|0,1:2|0:0,0:0:0:0:
228,242,209835,2,0,P|247:283|226:324,1,79.9999976158142,10|0,2:1|0:0,0:0:0:0:
298,360,210075,6,0,P|400:375|474:389,1,159.999995231628,0|2,1:2|2:1,0:0:0:0:
361,234,210435,1,8,2:1:0:0:
422,283,210555,2,0,P|460:271|507:268,1,79.9999976158142,0|0,0:0|0:0,1:2:0:0:
451,111,210795,2,0,P|422:140|433:188,1,79.9999976158142,10|0,2:1|0:0,0:0:0:0:
509,274,211035,5,0,1:2:0:0:
505,285,211275,5,10,0:0:0:0:
492,312,211395,1,0,1:2:0:0:
422,283,211515,2,0,P|357:296|318:310,1,79.9999976158142,4|0,1:2|0:0,0:0:0:0:
275,357,211755,5,8,0:0:0:0:
262,336,211875,1,8,2:1:0:0:
201,317,211995,1,0,0:0:0:0:
128,345,212115,1,0,1:2:0:0:
51,314,212235,6,0,P|63:265|74:209,1,79.9999976158142,8|8,0:0|2:1,0:0:0:0:
0,81,212475,5,0,1:2:0:0:
23,87,212595,1,8,2:1:0:0:
63,153,212715,5,8,2:1:0:0:
138,138,212835,1,8,2:1:0:0:
184,75,212955,6,0,P|256:80|258:153,1,159.999995231628,4|4,1:1|2:3,0:0:0:0:
224,244,213315,1,8,2:1:0:0:
308,316,213435,2,0,P|311:276|319:236,1,79.9999976158142,0|0,1:2|0:0,0:0:0:0:
244,152,213675,2,0,P|240:191|232:231,1,79.9999976158142,4|0,2:3|0:0,0:0:0:0:
456,212,213915,6,0,P|383:216|381:289,1,159.999995231628,0|4,0:0|1:3,0:0:0:0:
476,300,214275,1,0,0:0:0:0:
512,108,214395,2,0,P|472:115|433:119,1,79.9999976158142,8|0,2:1|0:0,0:0:0:0:
296,36,214635,2,0,P|335:43|374:47,1,79.9999976158142,0|8,0:0|2:1,0:0:0:0:
376,196,214875,6,0,P|372:235|365:275,1,79.9999976158142,0|0,1:2|0:0,0:0:0:0:
280,376,215115,2,0,P|273:336|269:296,1,79.9999976158142,4|0,2:3|0:0,0:0:0:0:
200,152,215355,2,0,P|195:112|188:72,1,79.9999976158142,0|0,1:2|0:0,0:0:0:0:
88,152,215595,2,0,P|92:191|99:231,1,79.9999976158142,8|0,2:1|0:0,0:0:0:0:
172,345,215835,5,0,1:2:0:0:
180,312,215955,1,8,2:1:0:0:
18,263,216075,5,4,1:3:0:0:
20,286,216195,1,0,0:0:0:0:
96,324,216315,5,8,2:1:0:0:
100,307,216435,2,0,P|111:229|104:149,1,159.999995231628,0|8,0:0|2:1,0:0:0:0:
24,92,216795,6,0,B|68:90|84:50|84:50|128:45|156:80,1,159.999995231628,4|4,1:2|2:3,0:0:0:0:
192,160,217155,1,8,2:1:0:0:
248,88,217275,2,0,P|243:48|241:8,1,79.9999976158142,0|0,1:2|0:0,0:0:0:0:
404,52,217515,2,0,P|365:47|325:45,1,79.9999976158142,4|0,2:3|0:0,0:0:0:0:
280,172,217755,6,0,P|228:116|151:123,1,159.999995231628,0|4,0:0|1:3,0:0:0:0:
196,204,218115,1,0,1:2:0:0:
356,240,218235,2,0,P|361:201|365:161,1,79.9999976158142,8|0,2:1|0:0,0:0:0:0:
480,328,218475,2,0,P|441:323|401:319,1,79.9999976158142,4|8,2:3|2:1,0:0:0:0:
248,360,218715,6,0,L|169:375,1,79.9999976158142,0|0,1:2|0:0,0:0:0:0:
4,280,218955,2,0,L|83:295,1,79.9999976158142,8|0,2:1|0:0,0:0:0:0:
192,136,219195,2,0,P|199:96|203:57,1,79.9999976158142,0|0,1:2|0:0,0:0:0:0:
100,32,219435,1,8,2:1:0:0:
104,48,219555,1,8,2:1:0:0:
16,156,219675,6,0,P|54:144|93:139,1,79.9999976158142,0|8,1:2|0:0,0:0:0:0:
264,268,219915,2,0,P|225:256|186:251,1,79.9999976158142,8|8,2:1|2:1,0:0:0:0:
32,356,220155,1,0,1:2:0:0:
320,336,220395,1,0,0:0:0:0:
320,336,220515,1,8,2:1:0:0:
320,335,220635,6,0,P|347:263|311:195,1,159.999995231628,4|4,1:1|2:3,0:0:0:0:
252,260,220995,1,8,2:1:0:0:
376,144,221115,2,0,P|383:104|392:65,1,79.9999976158142,0|0,1:2|0:0,0:0:0:0:
304,20,221355,2,0,P|296:59|287:98,1,79.9999976158142,4|0,2:3|0:0,0:0:0:0:
192,188,221595,5,0,0:0:0:0:
184,200,221715,2,0,P|105:199|46:250,1,159.999995231628,8|0,2:1|0:0,0:0:0:0:
8,164,222075,2,0,B|7:111|-17:55|-17:55|3:71|22:81,1,159.999995231628,8|4,2:1|2:3,0:0:0:0:
48,8,222435,1,8,2:1:0:0:
32,92,222555,6,0,P|70:80|109:78,1,79.9999976158142,0|0,1:2|0:0,0:0:0:0:
184,108,222795,2,0,P|188:68|196:29,1,79.9999976158142,8|0,2:1|0:0,0:0:0:0:
244,184,223035,2,0,P|282:195|321:197,1,79.9999976158142,0|0,1:2|0:0,0:0:0:0:
396,172,223275,2,0,P|400:211|408:250,1,79.9999976158142,8|0,2:1|0:0,0:0:0:0:
471,335,223515,5,0,1:2:0:0:
489,307,223635,1,8,2:1:0:0:
325,275,223755,5,0,1:2:0:0:
329,299,223875,1,0,0:0:0:0:
412,264,223995,5,4,1:2:0:0:
416,276,224115,2,0,P|427:196|448:119,1,159.999995231628,0|0,1:2|1:2,0:0:0:0:
503,60,224475,6,0,P|428:86|349:89,1,159.999995231628,4|4,1:1|2:3,0:0:0:0:
300,172,224835,1,8,2:1:0:0:
252,87,224955,2,0,P|248:48|237:9,1,79.9999976158142,0|0,1:2|0:0,0:0:0:0:
164,72,225195,1,4,2:3:0:0:
152,76,225315,1,0,0:0:0:0:
60,88,225435,1,0,1:2:0:0:
51,79,225555,6,0,P|102:30|142:88,1,159.999995231628,8|0,2:1|0:0,0:0:0:0:
84,168,225915,2,0,P|91:207|97:246,1,79.9999976158142,8|0,2:1|0:0,0:0:0:0:
172,356,226155,2,0,P|178:316|185:277,1,79.9999976158142,8|8,3:3|3:3,0:0:0:0:
168,180,226395,5,0,3:2:0:0:
260,212,226515,2,0,P|337:193|416:180,1,159.999995231628,0|0,3:2|1:2,0:0:0:0:
452,276,226875,2,0,L|372:264,1,79.9999976158142,8|8,0:0|0:0,0:0:0:0:
180,188,227115,1,8,2:1:0:0:
168,196,227235,2,0,L|88:184,1,79.9999976158142,8|0,2:1|1:2,0:0:0:0:
240,80,227475,5,8,2:1:0:0:
252,96,227595,1,8,2:1:0:0:
248,116,227715,1,8,2:1:0:0:
212,208,227835,1,0,1:2:0:0:
204,228,227955,1,0,0:0:0:0:
204,252,228075,1,8,0:0:0:0:
212,272,228195,1,8,2:1:0:0:
280,320,228315,6,0,B|377:331|339:359|431:366,1,159.999995231628,4|2,1:1|2:1,0:0:0:0:
366,221,228675,1,0,0:0:0:0:
453,206,228795,2,0,P|436:254|427:313,1,79.9999976158142,8|0,2:1|0:0,0:0:0:0:
300,153,229035,2,0,P|291:191|277:229,1,79.9999976158142,2|0,2:1|0:0,0:0:0:0:
178,356,229275,6,0,P|95:337|96:267,1,159.999995231628,0|2,1:2|2:1,0:0:0:0:
204,159,229635,2,0,P|189:96|183:54,2,79.9999976158142,0|8|0,0:0|2:1|0:0,0:0:0:0:
277,229,229995,1,2,0:0:0:0:
269,249,230115,1,8,2:1:0:0:
188,245,230235,6,0,P|80:215|8:184,1,159.999995231628,0|2,1:2|2:1,0:0:0:0:
63,41,230595,1,0,0:0:0:0:
63,41,230715,2,0,P|78:95|91:128,1,79.9999976158142,8|0,2:1|0:0,0:0:0:0:
259,49,230955,2,0,P|231:6|177:16,1,79.9999976158142,2|0,2:1|0:0,0:0:0:0:
204,159,231195,6,0,P|312:189|384:220,1,159.999995231628,0|2,1:2|2:1,0:0:0:0:
452,19,231555,1,0,0:0:0:0:
488,88,231675,2,0,P|470:139|461:187,1,79.9999976158142,8|0,2:1|0:0,0:0:0:0:
381,46,231915,2,0,P|371:84|357:122,1,79.9999976158142,2|8,1:2|2:1,0:0:0:0:
356,206,232155,6,0,P|443:224|449:287,1,159.999995231628,0|2,1:2|2:1,0:0:0:0:
297,376,232515,2,0,P|269:329|292:298,1,79.9999976158142,0|8,0:0|2:1,0:0:0:0:
460,371,232755,1,0,0:0:0:0:
460,371,232875,2,0,P|419:356|360:344,1,79.9999976158142,2|0,2:1|0:0,0:0:0:0:
286,304,233115,6,0,P|181:325|103:341,1,159.999995231628,0|2,1:2|2:1,0:0:0:0:
20,211,233475,2,0,P|66:221|128:236,2,79.9999976158142,0|8|0,0:0|2:1|0:0,0:0:0:0:
73,384,233835,2,0,P|44:342|65:304,1,79.9999976158142,2|8,0:0|2:1,0:0:0:0:
177,240,234075,6,0,P|236:185|210:97,1,159.999995231628,0|2,1:2|2:1,0:0:0:0:
98,22,234435,1,0,0:0:0:0:
181,23,234555,5,8,2:1:0:0:
176,52,234675,1,0,0:0:0:0:
110,104,234795,5,2,2:1:0:0:
128,183,234915,1,0,0:0:0:0:
112,200,235035,6,0,B|196:212|171:240|263:249,1,159.999995231628,0|2,1:2|2:1,0:0:0:0:
326,298,235395,1,0,0:0:0:0:
429,239,235515,1,8,2:1:0:0:
437,243,235755,5,2,0:0:0:0:
486,303,235875,1,8,2:1:0:0:
468,332,235995,6,0,B|375:342|417:369|316:379,1,159.999995231628,4|2,1:2|2:1,0:0:0:0:
237,374,236355,1,0,0:0:0:0:
237,374,236475,2,0,P|222:327|201:292,1,79.9999976158142,8|0,2:1|0:0,0:0:0:0:
299,121,236715,2,0,P|337:134|351:190,1,79.9999976158142,2|0,2:1|0:0,0:0:0:0:
137,184,236955,6,0,B|230:194|188:221|289:231,2,159.999995231628,0|2|8,1:2|2:1|2:1,0:0:0:0:
47,233,237555,1,0,0:0:0:0:
47,233,237675,2,0,P|37:174|19:120,1,79.9999976158142,2|8,0:0|2:1,0:0:0:0:
18,30,237915,6,0,P|109:32|111:101,1,159.999995231628,0|2,1:2|2:1,0:0:0:0:
279,45,238275,1,0,0:0:0:0:
279,45,238395,2,0,P|223:35|170:19,1,79.9999976158142,8|0,2:1|0:0,0:0:0:0:
131,186,238635,2,0,P|187:196|240:212,1,79.9999976158142,2|0,2:1|0:0,0:0:0:0:
327,216,238875,6,0,P|339:272|344:306,1,79.9999976158142,0|0,1:2|0:0,0:0:0:0:
445,185,239115,2,0,P|451:224|460:263,1,79.9999976158142,2|0,2:1|0:0,0:0:0:0:
394,384,239355,2,0,P|324:325|240:335,1,159.999995231628,8|2,2:1|0:0,0:0:0:0:
38,366,239715,1,8,2:1:0:0:
28,384,239835,6,0,B|126:375|91:348|181:342,1,159.999995231628,0|2,1:2|2:1,0:0:0:0:
101,198,240195,1,0,0:0:0:0:
101,198,240315,2,0,P|85:266|74:297,1,79.9999976158142,8|0,2:1|0:0,0:0:0:0:
247,164,240555,2,0,P|179:148|148:137,1,79.9999976158142,2|0,2:1|0:0,0:0:0:0:
259,326,240795,6,0,P|344:286|325:206,1,159.999995231628,0|2,1:2|2:1,0:0:0:0:
242,38,241155,1,0,0:0:0:0:
242,38,241275,2,0,P|157:78|176:158,1,159.999995231628,8|2,2:1|0:0,0:0:0:0:
403,161,241635,1,0,0:0:0:0:
403,161,241755,6,0,P|304:138|230:110,1,159.999995231628,0|2,1:2|2:1,0:0:0:0:
109,209,242115,1,0,0:0:0:0:
109,209,242235,2,0,P|208:232|282:260,1,159.999995231628,8|2,2:1|2:1,0:0:0:0:
452,265,242595,5,8,2:1:0:0:
476,281,242715,1,0,1:2:0:0:
463,320,242835,1,8,2:1:0:0:
401,375,242955,5,0,1:2:0:0:
359,346,243075,1,0,1:2:0:0:
371,332,243195,2,0,B|280:333|309:366|216:364,1,159.999995231628,8|2,2:1|0:0,0:0:0:0:
200,377,243555,1,8,2:1:0:0:
144,325,243675,1,4,1:1:0:0:
131,315,243915,6,0,P|84:326|33:344,1,79.9999976158142,2|0,2:1|0:0,0:0:0:0:
163,160,244155,2,0,P|174:207|192:258,1,79.9999976158142,8|0,2:1|0:0,0:0:0:0:
8,128,244395,2,0,P|55:117|106:99,1,79.9999976158142,2|0,2:1|0:0,0:0:0:0:
154,47,244635,6,0,P|257:71|344:84,2,159.999995231628,0|2|8,1:2|2:1|2:1,0:0:0:0:
58,32,245235,1,0,0:0:0:0:
58,32,245355,2,0,P|80:86|87:120,1,79.9999976158142,2|8,0:0|2:1,0:0:0:0:
8,128,245595,6,0,P|90:130|147:196,1,159.999995231628,0|2,1:2|2:1,0:0:0:0:
200,371,245955,1,0,0:0:0:0:
200,371,246075,2,0,P|137:352|97:349,1,79.9999976158142,8|0,2:1|0:0,0:0:0:0:
61,293,246315,2,0,P|40:247|61:214,1,79.9999976158142,2|0,2:1|0:0,0:0:0:0:
152,190,246555,6,0,P|209:185|253:173,1,79.9999976158142,0|0,1:2|0:0,0:0:0:0:
308,212,246795,2,0,P|342:186|340:144,1,79.9999976158142,2|0,2:1|0:0,0:0:0:0:
248,40,247035,6,0,P|268:98|275:131,1,79.9999976158142,8|0,2:1|0:0,0:0:0:0:
326,221,247275,2,0,P|306:279|299:312,1,79.9999976158142,2|8,0:0|2:1,0:0:0:0:
224,320,247515,6,0,B|315:327|284:352|385:361,1,159.999995231628,0|2,1:2|2:1,0:0:0:0:
448,317,247875,1,0,0:0:0:0:
448,317,247995,2,0,P|463:258|504:143,1,159.999995231628,8|2,2:1|2:1,0:0:0:0:
386,76,248355,1,0,0:0:0:0:
403,59,248475,6,0,B|312:52|343:27|249:18,1,159.999995231628,0|2,1:2|2:1,0:0:0:0:
179,62,248836,1,0,0:0:0:0:
179,62,248955,2,0,P|158:139|129:221,1,159.999995231628,8|2,2:1|0:0,0:0:0:0:
123,355,249315,1,8,0:1:0:0:
123,355,249435,6,0,P|48:330|63:246,1,159.999995231628,0|2,1:2|2:1,0:0:0:0:
229,206,249795,1,0,0:0:0:0:
243,221,249915,2,0,P|230:267|224:319,1,79.9999976158142,8|0,2:1|0:0,0:0:0:0:
46,155,250155,2,0,P|110:134|150:114,1,79.9999976158142,10|8,0:0|3:3,0:0:0:0:
292,101,250395,5,0,3:2:0:0:
302,96,250515,2,0,L|314:36,2,39.9999988079071,0|0|8,1:2|1:2|2:1,0:0:0:0:
334,167,250755,1,0,1:2:0:0:
346,179,250875,2,0,B|443:194|403:217|494:234,1,159.999995231628,4|0,1:2|1:2,0:0:0:0:
508,256,251235,1,8,2:1:0:0:
466,358,251355,5,4,1:1:0:0:
472,363,251595,2,0,P|418:374|380:386,1,79.9999976158142,2|0,2:1|0:0,0:0:0:0:
274,275,251835,2,0,P|253:228|286:189,1,79.9999976158142,8|0,2:1|0:0,0:0:0:0:
382,148,252075,2,0,P|355:210|346:252,1,79.9999976158142,2|0,2:1|0:0,0:0:0:0:
284,364,252315,6,0,P|227:348|185:340,1,79.9999976158142,0|0,1:2|0:0,0:0:0:0:
58,286,252555,1,2,2:1:0:0:
67,364,252675,2,0,P|34:331|43:293,1,79.9999976158142,0|8,0:0|2:1,0:0:0:0:
127,129,252915,1,0,0:0:0:0:
151,221,253035,2,0,P|106:209|59:203,1,79.9999976158142,2|8,0:0|2:1,0:0:0:0:
76,64,253275,6,0,B|168:72|131:102|225:115,1,159.999995231628,0|2,1:2|2:1,0:0:0:0:
384,88,253635,1,0,0:0:0:0:
322,24,253755,2,0,P|309:75|298:114,1,79.9999976158142,8|0,2:1|0:0,0:0:0:0:
434,225,253995,2,0,P|456:181|438:142,1,79.9999976158142,2|0,2:1|0:0,0:0:0:0:
360,173,254235,6,0,P|300:194|280:205,1,79.9999976158142,0|0,1:2|0:0,0:0:0:0:
438,236,254475,2,0,P|498:257|518:268,1,79.9999976158142,2|0,2:1|0:0,0:0:0:0:
318,367,254715,2,0,P|274:338|276:297,1,79.9999976158142,8|0,2:1|0:0,0:0:0:0:
206,239,254955,2,0,P|266:218|286:207,1,79.9999976158142,2|8,0:0|2:1,0:0:0:0:
398,92,255195,6,0,P|389:36|287:37,1,159.999995231628,0|2,1:2|2:1,0:0:0:0:
155,83,255555,1,0,0:0:0:0:
140,69,255675,2,0,P|185:62|238:43,1,79.9999976158142,8|0,2:1|0:0,0:0:0:0:
183,245,255915,2,0,P|133:218|138:176,1,79.9999976158142,2|0,2:1|0:0,0:0:0:0:
68,133,256155,6,0,P|12:147|-23:154,1,79.9999976158142,0|0,1:2|0:0,0:0:0:0:
178,253,256395,2,0,P|234:267|269:274,1,79.9999976158142,2|0,2:1|0:0,0:0:0:0:
67,384,256635,1,8,2:1:0:0:
25,316,256755,1,0,0:0:0:0:
32,306,256875,2,0,P|44:243|48:202,1,79.9999976158142,2|0,0:0|0:0,0:0:0:0:
134,59,257115,6,0,P|99:28|52:33,1,79.9999976158142,0|0,1:2|0:0,0:0:0:0:
128,207,257355,2,0,P|171:177|174:123,1,79.9999976158142,2|0,2:1|0:0,0:0:0:0:
220,23,257595,2,0,B|309:37|270:65|367:80,1,159.999995231628,8|2,2:1|0:0,0:0:0:0:
451,124,257955,5,8,2:1:0:0:
424,146,258075,1,0,1:2:0:0:
433,173,258195,1,8,2:1:0:0:
496,221,258315,5,8,2:1:0:0:
443,280,258435,1,0,1:2:0:0:
370,261,258555,1,8,2:1:0:0:
379,247,258795,5,0,1:2:0:0:
326,188,258915,1,8,2:1:0:0:
253,207,259035,1,4,1:2:0:0:
245,218,259275,6,0,P|191:231|146:236,1,79.9999976158142,2|0,2:1|0:0,0:0:0:0:
70,103,259515,2,0,P|124:90|169:85,1,79.9999976158142,8|0,2:1|0:0,0:0:0:0:
209,12,259755,2,0,P|251:42|243:80,1,79.9999976158142,2|0,2:1|0:0,0:0:0:0:
175,241,259995,6,0,P|88:216|9:201,2,159.999995231628,0|2|8,1:2|2:1|2:1,0:0:0:0:
262,234,260595,1,0,0:0:0:0:
262,234,260715,2,0,P|242:294|235:318,1,79.9999976158142,2|8,0:0|2:1,0:0:0:0:
400,349,260955,6,0,P|476:304|460:232,1,159.999995231628,0|2,0:0|2:1,0:0:0:0:
378,150,261315,1,0,0:0:0:0:
393,160,261435,2,0,P|440:153|482:136,1,79.9999976158142,8|0,2:1|0:0,0:0:0:0:
293,28,261675,2,0,P|253:41|247:89,1,79.9999976158142,2|0,2:1|0:0,0:0:0:0:
169,254,261915,6,0,P|129:241|123:193,1,79.9999976158142,0|0,1:2|0:0,0:0:0:0:
51,125,262155,2,0,P|108:112|138:99,1,79.9999976158142,2|0,2:1|0:0,0:0:0:0:
176,14,262395,2,0,P|225:92|227:162,1,159.999995231628,8|2,2:1|0:0,0:0:0:0:
410,194,262755,1,8,2:1:0:0:
415,180,262875,6,0,P|333:176|304:256,1,159.999995231628,4|2,1:1|2:1,0:0:0:0:
404,361,263235,1,0,0:0:0:0:
428,367,263355,2,0,P|439:319|452:280,1,79.9999976158142,8|0,2:1|0:0,0:0:0:0:
326,313,263595,2,0,P|266:331|241:343,1,79.9999976158142,2|0,2:1|0:0,0:0:0:0:
113,360,263835,6,0,P|72:338|70:288,1,79.9999976158142,0|0,1:2|0:0,0:0:0:0:
110,175,264075,1,2,2:1:0:0:
105,189,264195,1,8,2:1:0:0:
28,187,264315,2,0,B|114:192|88:232|178:239,1,159.999995231628,4|8,1:2|2:1,0:0:0:0:
299,84,264675,1,8,0:0:0:0:
246,25,264795,6,0,P|199:36|161:40,1,79.9999976158142,0|0,0:0|1:2,0:0:0:0:
331,174,265035,2,0,P|320:127|316:89,1,79.9999976158142,8|0,3:3|3:2,0:0:0:0:
182,259,265275,2,0,P|229:248|267:244,1,79.9999976158142,8|0,2:1|0:0,0:0:0:0:
95,130,265515,5,0,0:0:0:0:
100,152,265635,1,8,2:1:0:0:
57,212,265755,5,8,0:0:0:0:
81,167,265875,1,8,0:0:0:0:
119,160,265995,1,8,3:3:0:0:
138,167,266115,1,8,3:3:0:0:
190,235,266235,5,0,3:2:0:0:
199,253,266355,1,0,3:2:0:0:
231,273,266475,1,0,1:2:0:0:
279,257,266595,1,0,1:2:0:0:
344,210,266715,6,0,P|452:243|522:262,2,159.999995231628,4|2|8,1:1|0:0|2:1,0:0:0:0:
262,106,267315,1,0,0:0:0:0:
304,36,267435,2,0,P|285:96|283:146,1,79.9999976158142,4|0,1:3|0:0,0:0:0:0:
181,238,267675,6,0,P|137:203|154:164,1,79.9999976158142
82,105,267915,2,0,P|134:94|174:78,1,79.9999976158142,4|0,1:3|0:0,0:0:0:0:
198,307,268155,2,0,P|151:273|39:264,1,159.999995231628,8|4,2:1|2:3,0:0:0:0:
51,260,268515,1,8,2:1:0:0:
138,185,268635,6,0,P|124:282|117:352,1,159.999995231628,0|4,1:2|2:3,0:0:0:0:
294,201,268995,1,8,2:1:0:0:
297,185,269115,2,0,P|238:207|189:216,1,79.9999976158142,8|0,2:1|0:0,0:0:0:0:
329,369,269355,2,0,P|360:326|349:295,1,79.9999976158142,4|0,1:3|0:0,0:0:0:0:
425,123,269595,5,0,0:0:0:0:
477,201,269715,1,0,0:0:0:0:
460,222,269835,2,0,P|409:212|367:208,1,79.9999976158142,2|0,1:2|0:0,0:0:0:0:
284,73,270075,6,0,P|193:95|124:108,1,159.999995231628,12|0,1:2|0:0,0:0:0:0:
58,63,270435,1,8,2:1:0:0:
124,24,270555,6,0,P|85:85|81:191,1,159.999995231628,4|4,1:1|2:3,0:0:0:0:
189,279,270915,1,0,0:0:0:0:
189,279,271035,2,0,P|208:215|224:186,1,79.9999976158142,8|0,2:1|0:0,0:0:0:0:
26,286,271275,2,0,P|90:305|119:321,1,79.9999976158142,4|0,2:3|0:0,0:0:0:0:
254,365,271515,6,0,P|284:339|284:293,1,79.9999976158142,0|0,1:2|0:0,0:0:0:0:
205,120,271755,2,0,P|220:177|230:223,1,79.9999976158142,4|0,1:3|0:0,0:0:0:0:
224,197,271995,2,0,B|308:205|282:241|372:252,1,159.999995231628,8|4,2:1|2:3,0:0:0:0:
484,104,272355,5,10,2:3:0:0:
498,96,272475,2,0,P|474:155|472:191,1,79.9999976158142,0|8,1:2|2:1,0:0:0:0:
350,57,272715,2,0,P|387:19|435:28,1,79.9999976158142,4|8,2:3|0:0,0:0:0:0:
363,147,272955,2,0,B|279:139|305:103|214:92,1,159.999995231628,8|4,2:1|2:3,0:0:0:0:
0,223,273315,5,2,2:3:0:0:
18,251,273435,1,0,1:2:0:0:
67,237,273555,1,2,2:3:0:0:
99,165,273675,5,2,1:2:0:0:
188,208,273795,1,0,0:0:0:0:
159,243,273915,2,0,B|252:252|214:279|311:287,1,159.999995231628,4|4,1:2|2:3,0:0:0:0:
367,334,274275,1,8,2:1:0:0:
462,246,274395,1,4,1:1:0:0:
472,238,274635,6,0,P|483:168|494:131,1,79.9999976158142,2|0,0:0|0:0,0:0:0:0:
349,10,274875,2,0,P|319:52|321:98,1,79.9999976158142,8|0,2:1|0:0,0:0:0:0:
487,65,275115,2,0,P|436:76|392:82,1,79.9999976158142,4|0,2:3|0:0,0:0:0:0:
325,186,275355,5,0,1:2:0:0:
311,194,275475,2,0,B|225:181|257:145|164:133,1,159.999995231628,8|0,2:1|0:0,0:0:0:0:
113,58,275835,2,0,P|76:91|82:134,1,79.9999976158142,8|0,2:1|0:0,0:0:0:0:
152,272,276075,1,4,2:3:0:0:
168,260,276195,1,2,2:3:0:0:
188,347,276315,6,0,P|208:260|236:177,1,159.999995231628,0|4,1:2|2:3,0:0:0:0:
279,82,276675,1,0,0:0:0:0:
231,23,276795,2,0,P|181:31|171:63,1,79.9999976158142,8|0,2:1|0:0,0:0:0:0:
309,153,277035,2,0,P|321:97|285:78,1,79.9999976158142,4|0,2:3|0:0,0:0:0:0:
168,260,277275,5,0,1:2:0:0:
163,277,277395,1,8,2:1:0:0:
141,305,277515,1,4,2:3:0:0:
90,328,277635,1,0,1:2:0:0:
17,297,277755,1,4,1:2:0:0:
26,290,277995,6,0,P|35:238|39:185,1,79.9999976158142,2|0,0:0|0:0,0:0:0:0:
104,25,278235,6,0,P|24:39|32:117,1,159.999995231628,4|4,1:1|2:3,0:0:0:0:
150,135,278595,1,0,0:0:0:0:
155,147,278715,2,0,P|169:96|188:53,1,79.9999976158142,8|0,2:1|0:0,0:0:0:0:
333,14,278955,2,0,P|372:38|374:83,1,79.9999976158142,4|0,2:3|0:0,0:0:0:0:
431,180,279195,6,0,P|392:162|350:151,1,79.9999976158142,4|0,1:2|0:0,0:0:0:0:
166,285,279435,2,0,P|205:267|247:256,1,79.9999976158142,4|0,1:2|0:0,0:0:0:0:
424,297,279675,5,8,2:1:0:0:
480,348,279795,2,0,P|404:324|315:313,1,159.999995231628,4|8,1:1|2:1,0:0:0:0:
243,247,280155,2,0,P|208:202|220:163,1,79.9999976158142,4|0,1:2|0:0,0:0:0:0:
179,68,280395,5,4,1:2:0:0:
160,75,280515,1,0,1:2:0:0:
132,53,280635,5,4,2:3:0:0:
204,78,280755,1,4,1:1:0:0:
112,147,280875,2,0,P|64:134|20:126,1,79.9999976158142,8|8,2:1|2:1,0:0:0:0:
204,192,281115,5,10,2:1:0:0:
259,254,281235,2,0,B|348:267|313:297|407:307,1,159.999995231628,0|8,1:2|2:1,0:0:0:0:
361,117,281595,2,0,P|409:103|452:85,1,79.9999976158142,0|0,1:2|0:0,0:0:0:0:
473,171,281835,5,8,2:1:0:0:
405,228,281955,1,8,2:1:0:0:
287,163,282075,1,4,1:1:0:0:
