osu file format v14

[General]
AudioFilename: audio.mp3
AudioLeadIn: 0
PreviewTime: 46766
Countdown: 0
SampleSet: Soft
StackLeniency: 0.3
Mode: 0
LetterboxInBreaks: 0
WidescreenStoryboard: 1

[Editor]
DistanceSpacing: 2.2
BeatDivisor: 8
GridSize: 8
TimelineZoom: 5.399997

[Metadata]
Title:Memento
TitleUnicode:Memento
Artist:nonoc
ArtistUnicode:nonoc
Creator:619
Version:Re:Start
Source:Re:ゼロから始める異世界生活
Tags:re:zero kara hajimeru isekai seikatsu rezero starting life in another world different from zero season two 2nd season anime ending ed japanese pop rock j-pop j-rock jpop jrock full version emilia rem ram subaru satella white fox
BeatmapID:2666376
BeatmapSetID:1251745

[Difficulty]
HPDrainRate:5
CircleSize:3.9
OverallDifficulty:8
ApproachRate:9.2
SliderMultiplier:2.79999990463257
SliderTickRate:1

[Events]
//Background and Video events
0,0,"w.png",0,0
//Break Periods
2,182246,193196
//Storyboard Layer 0 (Background)
//Storyboard Layer 1 (Fail)
//Storyboard Layer 2 (Pass)
//Storyboard Layer 3 (Foreground)
//Storyboard Layer 4 (Overlay)
//Storyboard Sound Samples

[TimingPoints]
806,480,4,2,1,55,1,0
806,-166.666666666667,4,2,1,55,0,0
1766,480,4,2,1,55,1,0
1766,-125,4,2,1,55,0,0
3086,-125,4,2,1,5,0,0
3206,-125,4,2,1,55,0,0
5006,-125,4,2,1,5,0,0
5126,-125,4,2,1,55,0,0
5486,-125,4,2,1,5,0,0
5606,-125,4,2,1,55,0,0
8006,-200,4,2,1,55,0,0
8366,-200,4,2,1,5,0,0
8486,-100,4,2,1,55,0,0
9326,-100,4,2,1,5,0,0
9446,-111.111111111111,4,2,1,65,0,0
17126,-125,4,2,1,60,0,0
30566,-111.111111111111,4,2,1,60,0,0
32486,-200,4,2,2,45,0,0
40166,-153.846153846154,4,2,2,55,0,0
44006,-142.857142857143,4,2,2,60,0,0
45926,-285.714285714286,4,2,2,60,0,0
46406,-285.714285714286,4,2,2,5,0,0
46886,-285.714285714286,4,2,2,60,0,0
47606,-125,4,2,2,60,0,0
47786,-153.846153846154,4,2,2,5,0,0
47846,-83.3333333333333,4,2,2,75,0,1
47906,-83.3333333333333,4,2,1,75,0,1
63206,-90.9090909090909,4,2,2,80,0,1
63266,-90.9090909090909,4,2,1,80,0,1
70886,-90.9090909090909,4,2,1,80,0,1
78566,-100,4,2,1,65,0,0
84806,-90.9090909090909,4,2,1,65,0,0
86246,-125,4,2,1,50,0,0
101606,-125,4,2,1,60,0,0
115046,-111.111111111111,4,2,1,70,0,0
118406,-166.666666666667,4,2,1,70,0,0
118766,-153.846153846153,4,2,1,5,0,0
118886,-83.3333333333333,4,2,2,75,0,1
118946,-83.3333333333333,4,2,1,75,0,1
134246,-90.9090909090909,4,2,2,80,0,1
134306,-90.9090909090909,4,2,1,80,0,1
147686,-166.666666666667,4,2,1,40,0,0
163046,-133.333333333333,4,2,1,50,0,0
193766,-125,4,2,1,40,0,0
194486,-200,4,2,1,5,0,0
194726,-100,4,2,1,60,0,0
195686,-100,4,2,2,60,0,0
195746,-100,4,2,1,60,0,0
195926,-66.6666666666667,4,2,1,75,0,0
197126,-100,4,2,1,75,0,0
197606,-83.3333333333333,4,2,2,75,0,1
197666,-83.3333333333333,4,2,1,75,0,1
212966,-90.9090909090909,4,2,2,80,0,1
213026,-90.9090909090909,4,2,1,80,0,1
228326,-100,4,2,1,65,0,0
236006,-90.9090909090909,4,2,1,70,0,0
243206,-133.333333333333,4,2,1,70,0,0
243686,-100,4,2,1,70,0,0
259046,-111.111111111111,4,2,1,70,0,0
266726,-90.9090909090908,4,2,2,75,0,0
266786,-90.9090909090908,4,2,1,75,0,0
274406,-90.9090909090908,4,2,2,80,0,0
274466,-90.9090909090908,4,2,1,80,0,0
278246,-90.9090909090908,4,2,1,70,0,0
279206,-90.9090909090908,4,2,1,65,0,0
280166,-90.9090909090908,4,2,1,60,0,0
281126,-90.9090909090908,4,2,1,55,0,0
281606,-90.9090909090908,4,2,1,50,0,0
282086,-500,4,2,2,45,0,0
282146,-500,4,2,1,45,0,0
283046,-500,4,2,1,40,0,0
284006,-500,4,2,1,35,0,0
284966,-500,4,2,1,30,0,0
285926,-500,4,2,1,25,0,0
286886,-500,4,2,1,20,0,0
287846,-500,4,2,1,15,0,0
288806,-500,4,2,1,10,0,0
289766,-500,4,2,1,5,0,0

[Colours]
Combo1 : 231,156,181
Combo2 : 255,229,200
Combo3 : 192,192,192
Combo4 : 226,100,244

[HitObjects]
69,253,806,6,0,P|110:260|151:253,1,83.9999945755007,2|4,0:0|0:3,0:0:0:0:
152,168,1286,2,0,P|102:161|59:173,1,83.9999945755007,2|4,0:0|0:3,0:0:0:0:
151,252,1766,6,0,B|192:255|221:228|239:203|237:163|237:163|240:209|285:237,1,223.999992370606,2|2,0:0|0:0,0:0:0:0:
331,154,2486,1,4,0:3:0:0:
456,247,2726,2,0,P|379:275|288:234,1,167.999994277954,2|0,0:0|0:0,0:0:0:0:
278,232,3206,1,2,0:0:0:0:
331,154,3446,1,4,0:3:0:0:
213,40,3686,5,2,0:0:0:0:
126,144,3926,1,0,0:0:0:0:
228,141,4166,1,2,0:0:0:0:
124,54,4406,1,4,0:3:0:0:
308,30,4646,2,0,B|424:48|424:48|394:67|384:100,1,167.999994277954,2|0,0:0|0:0,0:0:0:0:
382,112,5126,2,0,B|387:176|387:176|412:199|412:199|419:282,1,167.999994277954,2|0,0:0|0:0,0:0:0:0:
423,296,5606,6,0,B|395:338|318:338|292:278|292:278|273:318|215:309|215:309|246:294|262:274|271:233,1,335.999988555908,2|4,0:0|0:3,0:0:0:0:
253,156,6566,2,0,P|203:120|200:231,1,223.999992370606,2|2,0:0|0:0,0:0:0:0:
267,245,7286,1,4,0:3:0:0:
135,329,7526,6,0,B|55:314|55:314|92:285,1,111.999996185303,2|0,0:0|0:0,0:0:0:0:
253,156,8006,6,0,P|299:160|349:207,1,104.999996423721,2|0,0:0|0:0,0:0:0:0:
355,216,8486,6,0,B|359:255|391:283|426:281|426:281|466:260|468:218|458:185|458:185|482:197|482:197|475:165|478:124|514:99|514:99|491:45|442:26|375:57,1,489.9999833107,4|0,3:0|0:0,0:0:0:0:
311,70,9446,6,0,P|253:84|174:62,1,125.999991863251,6|2,3:2|0:3,0:0:0:0:
104,44,9806,1,4,0:3:0:0:
39,104,9926,2,0,P|34:134|43:176,1,62.9999959316255,10|0,3:2|0:0,0:0:0:0:
162,263,10166,2,0,P|167:232|162:201,1,62.9999959316255,2|0,0:0|0:0,0:0:0:0:
123,354,10406,5,2,3:2:0:0:
145,364,10526,1,4,0:3:0:0:
169,367,10646,1,2,0:3:0:0:
193,362,10766,1,4,0:3:0:0:
215,350,10886,2,0,B|262:345|262:345|288:325|288:325|333:321,1,125.999991863251,10|2,3:2|0:0,0:0:0:0:
489,296,11246,1,4,0:3:0:0:
498,287,11366,6,0,B|451:282|451:282|425:262|425:262|356:256,1,125.999991863251,2|2,3:2|0:3,0:0:0:0:
298,222,11726,1,4,0:3:0:0:
377,184,11846,2,0,L|458:179,1,62.9999959316255,10|0,3:2|0:0,0:0:0:0:
375,36,12086,2,0,L|294:31,1,62.9999959316255,2|0,0:0|0:0,0:0:0:0:
155,43,12326,5,2,3:2:0:0:
115,63,12446,1,4,0:3:0:0:
99,103,12566,1,2,0:3:0:0:
114,144,12686,1,4,0:3:0:0:
148,171,12806,5,10,3:2:0:0:
156,188,12926,1,0,0:0:0:0:
159,206,13046,1,2,3:1:0:0:
157,224,13166,1,2,0:1:0:0:
155,242,13286,6,0,B|73:248|73:248|26:213,1,125.999991863251,2|2,3:2|0:3,0:0:0:0:
8,138,13646,1,4,0:3:0:0:
53,63,13766,2,0,P|84:58|132:70,1,62.9999959316255,10|0,3:2|0:0,0:0:0:0:
264,114,14006,2,0,P|233:119|185:107,1,62.9999959316255,2|0,0:0|0:0,0:0:0:0:
334,28,14246,5,2,3:2:0:0:
374,54,14366,1,4,0:3:0:0:
395,98,14486,1,2,0:3:0:0:
389,146,14606,1,4,0:3:0:0:
359,184,14726,2,0,L|439:194,1,62.9999959316255,10|0,3:2|0:0,0:0:0:0:
320,314,14966,2,0,L|240:324,1,62.9999959316255,2|0,0:0|0:0,0:0:0:0:
99,339,15206,6,0,P|50:308|98:245,1,125.999991863251,2|2,3:2|0:3,0:0:0:0:
141,199,15566,1,4,0:3:0:0:
95,123,15686,2,0,L|24:134,1,62.9999959316255,10|0,3:2|0:0,0:0:0:0:
215,137,15926,1,2,3:2:0:0:
227,122,16046,1,4,3:0:0:0:
213,47,16166,5,2,3:2:0:0:
202,31,16286,1,4,0:3:0:0:
186,19,16406,1,2,0:3:0:0:
170,8,16526,1,4,0:3:0:0:
152,1,16646,1,10,3:3:0:0:
32,132,16886,1,4,0:3:0:0:
324,245,17126,6,0,B|368:241|368:241|385:224|385:224|444:219,1,111.999996185303,6|0,3:2|0:0,0:0:0:0:
510,222,17486,1,2,0:1:0:0:
510,222,17606,1,4,0:3:0:0:
429,356,17846,2,0,B|385:352|385:352|368:335|368:335|309:330,1,111.999996185303,8|0,3:0|0:0,0:0:0:0:
243,333,18206,1,2,0:1:0:0:
243,333,18326,1,4,0:3:0:0:
126,236,18566,1,8,3:0:0:0:
126,236,18686,2,0,P|110:183|133:124,1,111.999996185303,2|0,0:1|0:0,0:0:0:0:
228,97,19046,6,0,B|285:103|285:103|331:135|331:135|397:140,1,167.999994277954,2|2,3:2|0:1,0:0:0:0:
464,145,19526,1,4,0:3:0:0:
256,12,19766,2,0,B|198:18|198:18|152:50|152:50|86:55,1,167.999994277954,8|2,3:0|0:1,0:0:0:0:
20,60,20246,1,4,0:3:0:0:
77,206,20486,2,0,L|70:147,2,55.9999980926514,8|2|4,3:0|0:1|0:3,0:0:0:0:
116,358,20966,6,0,L|230:345,1,111.999996185303,2|0,3:2|0:0,0:0:0:0:
308,340,21326,1,2,0:1:0:0:
308,340,21446,1,4,0:3:0:0:
446,267,21686,2,0,L|332:254,1,111.999996185303,8|0,3:0|0:0,0:0:0:0:
260,246,22046,1,2,0:1:0:0:
260,246,22166,1,4,0:3:0:0:
298,92,22406,2,0,P|326:88|366:97,1,55.9999980926514,8|2,3:0|0:1,0:0:0:0:
242,159,22646,2,0,P|214:163|174:154,1,55.9999980926514,4|0,0:3|0:0,0:0:0:0:
76,115,22886,6,0,P|12:127|60:196,1,167.999994277954,2|2,3:2|0:1,0:0:0:0:
125,214,23366,1,4,0:3:0:0:
365,268,23606,2,0,P|429:256|381:187,1,167.999994277954,8|2,3:0|0:1,0:0:0:0:
316,169,24086,1,4,0:3:0:0:
229,44,24326,1,8,3:0:0:0:
229,44,24446,1,2,0:1:0:0:
390,42,24686,1,2,0:1:0:0:
390,42,24806,6,0,P|444:42|500:76,2,111.999996185303,6|0|4,3:2|0:0|0:3,0:0:0:0:
496,158,25526,2,0,P|447:185|391:185,1,111.999996185303,8|0,3:0|0:0,0:0:0:0:
358,120,25886,1,2,0:1:0:0:
358,120,26006,1,4,0:3:0:0:
202,158,26246,1,8,3:0:0:0:
202,158,26366,2,0,L|202:298,1,111.999996185303,2|0,0:1|0:0,0:0:0:0:
155,357,26726,6,0,B|72:342|72:342|57:238,1,167.999994277954,2|2,3:2|0:1,0:0:0:0:
75,181,27206,2,0,P|102:191|125:212,1,55.9999980926514,4|2,0:3|0:1,0:0:0:0:
245,357,27446,2,0,B|328:342|328:342|343:238,1,167.999994277954,8|2,3:0|0:1,0:0:0:0:
332,180,27926,1,4,0:3:0:0:
222,67,28166,2,0,L|155:75,2,55.9999980926514,8|2|4,3:0|0:1|0:3,0:0:0:0:
375,97,28646,6,0,P|415:135|423:204,1,111.999996185303,2|0,3:2|0:0,0:0:0:0:
424,270,29006,1,2,0:1:0:0:
424,270,29126,1,4,0:3:0:0:
250,226,29366,2,0,P|262:172|318:130,1,111.999996185303,8|0,3:0|0:0,0:0:0:0:
375,97,29726,1,2,0:1:0:0:
375,97,29846,1,4,0:3:0:0:
424,270,30086,1,8,3:0:0:0:
424,270,30206,2,0,P|371:285|307:258,1,111.999996185303,2|0,0:1|0:0,0:0:0:0:
166,186,30566,6,0,P|83:185|99:281,1,188.999987794877,2|2,3:2|0:1,0:0:0:0:
154,330,31046,1,4,0:3:0:0:
318,267,31286,2,0,P|324:236|310:186,1,62.9999959316255,8|0,3:0|0:0,0:0:0:0:
326,71,31526,1,2,3:1:0:0:
326,71,31646,2,0,B|421:82|421:82|386:116,1,125.999991863251,10|0,0:3|0:0,0:0:0:0:
221,99,32006,2,0,P|216:68|222:37,3,62.9999959316255,2|4|10|2,3:2|0:3|3:1|0:1,0:0:0:0:
231,13,32486,6,0,L|146:21,1,69.9999976158143,6|0,3:2|0:0,0:0:0:0:
32,91,32966,2,0,L|117:99,1,69.9999976158143,8|0,0:0|0:0,0:0:0:0:
170,260,33446,2,0,P|101:295|101:188,1,209.999992847443,2|0,0:0|0:0,0:0:0:0:
221,99,34406,5,2,0:3:0:0:
291,128,34646,1,0,0:0:0:0:
269,201,34886,1,8,0:0:0:0:
197,173,35126,1,0,0:0:0:0:
287,42,35366,2,0,P|322:47|368:89,1,69.9999976158143,2|0,0:0|0:0,0:0:0:0:
457,194,35846,2,0,P|459:206|455:236,3,34.9999988079071,8|4|0|4,0:0|0:3|0:0|0:3,0:0:0:0:
451,248,36326,6,0,L|445:330,1,69.9999976158143,2|0,0:3|0:0,0:0:0:0:
304,318,36806,2,0,L|298:248,1,69.9999976158143,8|0,0:0|0:0,0:0:0:0:
230,89,37286,2,0,B|157:95|157:95|117:131|117:131|27:139,1,209.999992847443,2|0,0:0|0:0,0:0:0:0:
34,316,38246,2,0,B|106:322|106:322|146:358|146:358|236:366,1,209.999992847443,2|0,0:3|0:0,0:0:0:0:
384,300,39206,2,0,P|392:266|369:213,1,69.9999976158143,2|0,0:0|0:0,0:0:0:0:
202,210,39686,2,0,B|186:174|186:174|202:136,1,78.749997317791,8|2,0:0|0:3,0:0:0:0:
215,33,40166,6,0,L|332:38,1,90.9999927349095,6|0,3:2|0:0,0:0:0:0:
401,43,40526,1,0,0:0:0:0:
401,43,40646,1,8,0:0:0:0:
276,175,40886,1,0,0:0:0:0:
435,188,41126,2,0,P|462:152|462:98,1,90.9999927349095,2|0,0:0|0:0,0:0:0:0:
367,236,41606,2,0,P|384:277|431:304,1,90.9999927349095,8|0,0:0|0:0,0:0:0:0:
360,161,41966,1,0,0:0:0:0:
360,161,42086,6,0,P|315:155|268:182,1,90.9999927349095,2|0,0:3|0:0,0:0:0:0:
127,281,42566,2,0,P|103:277|74:258,1,45.4999963674547,8|0,0:0|0:0,0:0:0:0:
15,203,42806,2,0,P|30:184|61:168,1,45.4999963674547
138,146,43046,2,0,P|146:168|144:203,1,45.4999963674547,2|0,0:0|0:0,0:0:0:0:
127,281,43286,1,2,0:0:0:0:
132,294,43406,1,4,0:3:0:0:
139,306,43526,1,8,0:0:0:0:
246,357,43766,1,2,0:0:0:0:
259,341,43886,1,4,0:3:0:0:
271,326,44006,6,0,L|264:223,1,97.9999936714175,2|0,0:3|0:0,0:0:0:0:
244,144,44366,1,0,0:0:0:0:
235,139,44486,2,0,L|137:146,1,97.9999936714175,8|4,0:0|0:3,0:0:0:0:
263,67,44846,1,4,0:3:0:0:
270,61,44966,2,0,P|318:61|374:89,1,97.9999936714175,6|0,0:3|0:0,0:0:0:0:
402,175,45326,1,0,0:0:0:0:
393,171,45446,2,0,P|369:129|365:66,1,97.9999936714175,8|4,0:0|0:3,0:0:0:0:
426,0,45806,1,4,0:3:0:0:
427,9,45926,6,0,P|402:50|350:85,1,97.9999936714175,14|0,0:0|0:0,0:0:0:0:
362,79,46886,5,2,0:0:0:0:
265,95,47126,1,0,0:0:0:0:
328,171,47366,1,2,0:0:0:0:
236,224,47606,2,0,P|197:234|150:221,1,83.9999971389771,2|0,0:3|0:0,0:0:0:0:
138,210,47846,6,0,P|63:215|66:295,1,167.999989151001,6|4,3:2|0:3,0:0:0:0:
131,343,48206,1,0,0:0:0:0:
296,371,48326,2,0,B|234:365|234:365|190:334|190:334|138:330,1,167.999989151001,8|4,3:2|0:3,0:0:0:0:
63,292,48686,1,0,0:0:0:0:
144,115,48806,2,0,P|182:106|241:125,1,83.9999945755007,2|0,3:2|0:0,0:0:0:0:
377,189,49046,2,0,P|339:198|280:179,1,83.9999945755007,4|0,0:3|0:0,0:0:0:0:
437,97,49286,2,0,P|486:173|465:258,1,167.999989151001,8|6,3:2|0:3,0:0:0:0:
423,314,49646,1,4,0:3:0:0:
224,297,49766,6,0,P|231:360|311:320,1,167.999989151001,2|4,3:2|0:3,0:0:0:0:
342,258,50126,1,0,0:0:0:0:
225,115,50246,2,0,P|184:105|144:115,1,83.9999945755007,8|0,3:2|0:0,0:0:0:0:
18,226,50486,2,0,P|58:235|99:226,1,83.9999945755007,4|0,0:3|0:0,0:0:0:0:
43,64,50726,2,0,B|18:109|18:109|18:239,1,167.999989151001,2|4,3:2|0:3,0:0:0:0:
39,306,51086,1,0,0:0:0:0:
224,297,51206,2,0,P|238:234|94:254,1,251.999983726502,8|4,3:2|0:3,0:0:0:0:
18,225,51686,6,0,B|18:109|18:109|43:64,1,167.999989151001,2|4,3:2|0:3,0:0:0:0:
112,15,52046,1,0,0:0:0:0:
273,110,52166,2,0,P|235:118|176:102,1,83.9999945755007,8|0,3:2|0:0,0:0:0:0:
333,20,52406,2,0,P|371:12|430:28,1,83.9999945755007,4|0,0:3|0:0,0:0:0:0:
440,184,52646,2,0,P|356:170|385:109,1,167.999989151001,2|4,3:2|0:3,0:0:0:0:
458,100,53006,1,0,0:0:0:0:
454,267,53126,2,0,P|365:273|290:213,1,167.999989151001,8|6,3:2|0:3,0:0:0:0:
238,176,53486,1,4,0:3:0:0:
32,169,53606,6,0,B|88:164|88:164|119:126|119:126|181:120,1,167.999989151001,2|4,3:2|0:3,0:0:0:0:
234,54,53966,1,0,0:0:0:0:
52,12,54086,2,0,P|42:53|52:95,1,83.9999945755007,8|0,3:2|0:0,0:0:0:0:
169,213,54326,1,4,3:0:0:0:
178,245,54446,1,2,0:1:0:0:
167,277,54566,6,0,P|123:282|75:261,1,83.9999945755007,2|0,3:2|0:0,0:0:0:0:
298,360,54806,2,0,L|390:376,1,83.9999945755007,6|0,3:0|0:0,0:0:0:0:
214,360,55046,2,0,L|122:376,1,83.9999945755007,10|0,3:0|0:0,0:0:0:0:
345,277,55286,2,0,P|389:282|437:261,1,83.9999945755007,6|2,3:0|0:1,0:0:0:0:
255,129,55526,6,0,B|255:206|255:206|250:213|250:213|259:213|259:213|255:221|255:221|255:325,1,167.999989151001,6|4,3:2|0:3,0:0:0:0:
214,360,55886,1,0,0:0:0:0:
30,350,56006,2,0,B|-14:338|-26:292|-26:292|-11:237|45:227,1,167.999989151001,8|4,3:2|0:3,0:0:0:0:
109,213,56366,1,0,0:0:0:0:
97,28,56486,2,0,P|55:21|-5:36,1,83.9999945755007,2|0,3:2|0:0,0:0:0:0:
172,128,56726,2,0,P|214:135|274:120,1,83.9999945755007,4|0,0:3|0:0,0:0:0:0:
435,85,56966,2,0,P|422:11|346:37,1,167.999989151001,8|6,3:2|0:3,0:0:0:0:
333,112,57326,1,4,0:3:0:0:
355,295,57446,6,0,P|428:337|497:270,1,167.999989151001,2|4,3:2|0:3,0:0:0:0:
491,210,57806,1,0,0:0:0:0:
333,112,57926,2,0,L|325:208,1,83.9999945755007,8|0,3:2|0:0,0:0:0:0:
258,369,58166,2,0,L|251:285,1,83.9999945755007,4|0,0:3|0:0,0:0:0:0:
260,68,58406,2,0,B|294:22|337:18|377:31|401:62|401:62|415:26|385:1|347:4,1,251.999983726502,2|0,3:2|0:0,0:0:0:0:
174,27,58886,2,0,P|164:65|177:115,1,83.9999945755007,8|0,3:2|0:0,0:0:0:0:
251,285,59126,1,4,3:0:0:0:
246,301,59246,1,4,0:3:0:0:
237,315,59366,6,0,P|165:350|77:293,1,167.999989151001,2|4,3:2|0:3,0:0:0:0:
51,240,59726,1,0,0:0:0:0:
223,174,59846,2,0,P|268:174|313:196,1,83.9999945755007,8|0,3:2|0:0,0:0:0:0:
430,59,60086,2,0,P|385:59|340:81,1,83.9999945755007,4|0,0:3|0:0,0:0:0:0:
344,290,60326,2,0,P|438:276|384:152,1,251.999983726502,2|0,3:2|0:0,0:0:0:0:
254,47,60806,2,0,B|233:32|221:6|221:6|166:34|166:76|198:115,1,167.999989151001,8|6,3:2|0:3,0:0:0:0:
223,174,61166,1,4,0:3:0:0:
81,294,61286,6,0,P|41:294|-8:268,1,83.9999945755007,2|0,3:2|0:0,0:0:0:0:
222,270,61526,2,0,P|241:304|243:360,1,83.9999945755007,2|0,3:1|0:0,0:0:0:0:
132,160,61766,2,0,P|151:125|199:95,1,83.9999945755007,10|0,3:0|0:0,0:0:0:0:
370,32,62006,1,6,3:0:0:0:
383,42,62126,1,2,0:1:0:0:
420,112,62246,5,10,3:0:0:0:
378,180,62366,1,2,0:1:0:0:
429,241,62486,2,0,B|461:243|461:243|472:250|472:250|510:253,1,83.9999945755007,2|0,3:1|0:0,0:0:0:0:
370,32,62726,2,0,B|338:34|338:34|327:41|327:41|289:44,1,83.9999945755007,6|0,3:0|0:0,0:0:0:0:
105,128,62966,1,6,3:0:0:0:
107,135,63086,1,6,0:3:0:0:
110,141,63206,6,0,P|182:201|292:135,1,230.999999181748,6|4,3:2|0:3,0:0:0:0:
115,45,63686,2,0,P|82:49|33:85,1,76.9999997272492,8|0,3:0|0:0,0:0:0:0:
289,45,63926,2,0,P|322:49|371:85,1,76.9999997272492,6|2,3:0|0:1,0:0:0:0:
290,286,64166,1,2,3:1:0:0:
290,286,64286,2,0,P|267:213|306:121,1,153.999999454498,12|2,0:3|0:1,0:0:0:0:
435,256,64646,2,0,B|369:261|369:261|351:280|351:280|267:287,1,153.999999454498,8|6,3:0|3:0,0:0:0:0:
91,297,65006,1,6,0:3:0:0:
91,297,65126,6,0,P|83:338|94:379,1,76.9999997272492,2|0,3:2|0:0,0:0:0:0:
80,201,65366,2,0,P|39:193|-2:204,1,76.9999997272492,4|4,0:3|0:3,0:0:0:0:
175,194,65606,2,0,P|182:152|171:111,1,76.9999997272492,8|0,3:0|0:0,0:0:0:0:
187,287,65846,2,0,P|228:294|269:283,1,76.9999997272492,6|2,3:0|0:1,0:0:0:0:
435,256,66086,1,2,3:1:0:0:
435,256,66206,2,0,P|463:190|389:187,1,153.999999454498,12|2,0:3|0:1,0:0:0:0:
187,287,66566,1,8,3:0:0:0:
161,269,66686,1,2,0:1:0:0:
144,243,66806,1,6,3:0:0:0:
149,212,66926,1,6,0:3:0:0:
175,194,67046,6,0,B|242:188|242:188|257:169|257:169|334:162,1,153.999999454498,2|4,3:2|0:3,0:0:0:0:
474,90,67406,1,4,0:3:0:0:
474,90,67526,2,0,P|439:76|388:76,1,76.9999997272492,8|0,3:0|0:0,0:0:0:0:
400,244,67766,2,0,P|438:242|473:227,1,76.9999997272492,6|2,3:0|0:1,0:0:0:0:
319,163,68006,1,2,3:1:0:0:
319,163,68126,2,0,B|257:169|257:169|242:188|242:188|175:194,1,153.999999454498,12|2,0:3|0:1,0:0:0:0:
89,45,68486,2,0,P|164:35|182:98,1,153.999999454498,8|6,3:0|3:0,0:0:0:0:
87,239,68846,1,6,0:3:0:0:
87,239,68966,6,0,B|39:249|3:233|-4:190|-4:190|26:170|68:174,1,153.999999454498,2|4,3:2|0:3,0:0:0:0:
182,97,69326,1,4,0:3:0:0:
182,97,69446,2,0,L|279:97,1,76.9999997272492,8|0,3:0|0:0,0:0:0:0:
428,111,69686,1,6,3:0:0:0:
435,102,69806,1,2,0:1:0:0:
442,93,69926,6,0,B|453:58|453:58|438:4,1,76.9999997272492,2|0,3:2|0:0,0:0:0:0:
259,97,70166,2,0,B|248:132|248:132|263:186,1,76.9999997272492,4|0,3:0|0:0,0:0:0:0:
453,93,70406,2,0,B|464:58|464:58|449:4,1,76.9999997272492,8|0,3:0|0:0,0:0:0:0:
247,95,70646,2,0,B|236:130|236:130|251:184,1,76.9999997272492,6|6,3:0|3:0,0:0:0:0:
400,284,70886,6,0,B|459:268|458:195|458:195|390:149|333:220,1,230.999999181748,6|4,3:2|0:3,0:0:0:0:
239,327,71366,2,0,B|202:337|202:337|154:325,1,76.9999997272492,8|0,3:0|0:0,0:0:0:0:
67,196,71606,2,0,B|104:186|104:186|152:198,1,76.9999997272492,6|2,3:0|0:1,0:0:0:0:
28,337,71846,1,2,3:1:0:0:
28,337,71966,2,0,B|33:290|33:290|61:263|61:263|68:179,1,153.999999454498,12|2,0:3|0:1,0:0:0:0:
74,26,72326,2,0,P|36:19|-19:35,1,76.9999997272492,8|0,3:0|0:0,0:0:0:0:
153,96,72566,2,0,P|191:103|246:87,1,76.9999997272492,6|6,3:0|0:3,0:0:0:0:
416,55,72806,6,0,B|408:33|374:27|374:27|332:51|332:91|369:139,1,153.999999454498,2|4,3:2|0:3,0:0:0:0:
436,266,73166,1,4,0:3:0:0:
436,266,73286,2,0,P|469:275|516:264,1,76.9999997272492,8|0,3:0|0:0,0:0:0:0:
358,345,73526,2,0,P|325:354|278:343,1,76.9999997272492,6|2,3:0|0:1,0:0:0:0:
115,329,73766,1,2,3:1:0:0:
115,329,73886,2,0,P|86:255|128:180,1,153.999999454498,8|2,3:0|0:1,0:0:0:0:
246,82,74246,1,8,3:0:0:0:
214,59,74366,1,2,0:1:0:0:
189,88,74486,1,6,3:0:0:0:
207,121,74606,1,6,0:3:0:0:
245,124,74726,6,0,B|300:116|300:116|328:86|328:86|387:78,1,153.999999454498,2|4,3:2|0:3,0:0:0:0:
459,231,75086,1,4,0:3:0:0:
385,252,75206,2,0,B|329:244|329:244|301:214|301:214|242:206,1,153.999999454498,8|6,3:0|3:0,0:0:0:0:
76,197,75566,1,4,0:3:0:0:
62,190,75686,1,2,3:1:0:0:
20,125,75806,2,0,P|12:87|20:50,1,76.9999997272492,8|0,3:0|0:0,0:0:0:0:
184,2,76046,1,2,0:1:0:0:
245,49,76166,2,0,P|253:86|239:135,1,76.9999997272492,8|0,3:0|0:0,0:0:0:0:
137,353,76406,1,6,3:0:0:0:
127,342,76526,1,6,3:0:0:0:
106,267,76646,5,6,3:2:0:0:
152,205,76766,2,0,P|188:197|241:213,1,76.9999997272492,8|2,3:0|0:1,0:0:0:0:
390,281,77006,1,6,3:0:0:0:
344,343,77126,2,0,P|308:351|255:335,1,76.9999997272492,12|2,3:0|0:1,0:0:0:0:
106,267,77366,1,14,3:0:0:0:
152,205,77486,1,2,0:1:0:0:
226,205,77606,1,12,0:3:0:0:
270,267,77726,2,0,P|277:302|262:356,2,76.9999997272492,2|6|2,0:1|0:3|0:1,0:0:0:0:
64,127,78086,5,8,3:0:0:0:
6,189,78206,1,2,0:1:0:0:
12,274,78326,1,10,3:1:0:0:
64,341,78446,1,2,0:1:0:0:
140,377,78566,6,0,B|191:372|191:372|215:346|215:346|288:340,1,139.999995231629,6|2,3:2|0:3,0:0:0:0:
407,308,78926,1,0,0:0:0:0:
407,308,79046,2,0,P|414:342|402:386,1,69.9999976158143,10|0,3:2|0:0,0:0:0:0:
327,259,79286,2,0,P|321:225|328:191,1,69.9999976158143,2|0,0:0|0:0,0:0:0:0:
410,70,79526,5,2,3:2:0:0:
450,82,79646,1,4,0:3:0:0:
477,114,79766,1,2,0:3:0:0:
481,157,79886,1,4,0:3:0:0:
461,191,80006,2,0,P|401:208|321:186,1,139.999995231629,10|4,3:2|0:3,0:0:0:0:
173,101,80366,1,4,0:3:0:0:
161,94,80486,6,0,P|112:103|121:185,1,139.999995231629,2|2,3:2|0:3,0:0:0:0:
146,320,80846,1,4,0:3:0:0:
146,320,80966,2,0,P|113:326|65:315,1,69.9999976158143,10|0,3:2|0:0,0:0:0:0:
185,229,81206,2,0,P|218:223|266:234,1,69.9999976158143,2|0,0:0|0:0,0:0:0:0:
380,290,81446,5,2,3:2:0:0:
421,264,81566,1,4,0:3:0:0:
441,219,81686,1,2,0:3:0:0:
435,170,81806,1,4,0:3:0:0:
406,129,81926,5,10,3:2:0:0:
394,111,82046,1,0,0:0:0:0:
382,93,82166,1,2,3:1:0:0:
373,73,82286,1,2,0:1:0:0:
370,52,82406,6,0,B|318:56|318:56|287:76|287:76|236:80,1,139.999995231629,2|2,3:2|0:3,0:0:0:0:
99,85,82766,1,4,0:3:0:0:
99,85,82886,2,0,P|91:51|98:17,1,69.9999976158143,10|0,3:2|0:0,0:0:0:0:
176,133,83126,2,0,P|182:167|174:200,1,69.9999976158143,2|0,0:0|0:0,0:0:0:0:
102,321,83366,5,2,3:2:0:0:
126,307,83486,1,4,0:3:0:0:
153,309,83606,1,2,0:3:0:0:
177,322,83726,1,4,0:3:0:0:
196,341,83846,2,0,P|225:350|285:328,1,69.9999976158143,10|0,3:2|0:0,0:0:0:0:
377,259,84086,2,0,P|348:250|288:272,1,69.9999976158143,2|0,0:0|0:0,0:0:0:0:
419,344,84326,6,0,P|468:282|457:210,1,139.999995231629,2|2,3:2|0:3,0:0:0:0:
325,117,84686,1,4,0:3:0:0:
332,108,84806,6,0,B|393:102|393:102|418:82|418:82|478:77,1,153.999999454498,12|4,3:2|0:3,0:0:0:0:
177,18,85286,1,2,3:2:0:0:
148,53,85406,1,4,0:3:0:0:
136,97,85526,1,2,0:3:0:0:
147,141,85646,1,4,0:3:0:0:
171,180,85766,1,14,3:0:0:0:
302,261,86006,1,2,0:1:0:0:
437,225,86246,5,6,3:2:0:0:
443,209,86486,1,0,0:0:0:0:
448,193,86726,1,2,0:0:0:0:
453,177,86966,1,0,0:0:0:0:
302,261,87206,5,2,0:0:0:0:
307,277,87446,1,0,0:0:0:0:
312,293,87686,1,2,0:0:0:0:
318,309,87926,1,0,0:0:0:0:
453,177,88166,5,2,0:0:0:0:
318,309,88406,1,0,0:0:0:0:
477,257,88646,1,2,0:0:0:0:
396,335,88886,1,0,0:0:0:0:
370,149,89126,5,2,0:0:0:0:
286,223,89366,1,4,0:3:0:0:
453,177,89606,1,2,0:0:0:0:
318,309,89846,1,4,0:3:0:0:
143,294,90086,5,2,3:2:0:0:
74,256,90326,1,0,0:0:0:0:
74,177,90566,1,2,0:0:0:0:
143,138,90806,1,0,0:0:0:0:
236,196,91046,5,2,0:0:0:0:
305,158,91286,1,0,0:0:0:0:
305,79,91526,1,2,0:0:0:0:
236,40,91766,1,0,0:0:0:0:
74,177,92006,5,2,0:0:0:0:
143,294,92246,5,4,0:3:0:0:
151,302,92366,1,4,0:3:0:0:
159,311,92486,1,2,0:0:0:0:
369,294,92726,5,4,0:3:0:0:
361,302,92846,1,4,0:3:0:0:
353,311,92966,1,2,0:0:0:0:
256,123,93206,5,6,0:3:0:0:
257,135,93326,1,4,0:3:0:0:
257,147,93446,1,2,0:0:0:0:
159,311,93686,1,4,0:3:0:0:
58,97,93926,5,2,3:2:0:0:
23,167,94166,1,0,0:0:0:0:
87,214,94406,1,2,0:0:0:0:
121,144,94646,1,0,0:0:0:0:
227,32,94886,5,2,0:0:0:0:
262,102,95126,1,0,0:0:0:0:
198,149,95366,1,2,0:0:0:0:
164,79,95606,1,0,0:0:0:0:
349,45,95846,5,2,0:0:0:0:
442,143,96086,1,0,0:0:0:0:
442,50,96326,1,2,0:0:0:0:
344,142,96566,1,0,0:0:0:0:
490,212,96806,5,2,0:0:0:0:
349,45,97046,1,4,0:3:0:0:
340,39,97166,1,4,0:3:0:0:
332,33,97286,1,2,0:0:0:0:
257,123,97526,1,4,0:3:0:0:
307,317,97766,5,2,3:2:0:0:
335,334,98006,1,0,0:0:0:0:
368,334,98246,1,2,0:0:0:0:
395,314,98486,1,4,0:3:0:0:
257,123,98726,5,2,0:0:0:0:
229,106,98966,1,0,0:0:0:0:
196,106,99206,1,2,0:0:0:0:
169,126,99446,1,4,0:3:0:0:
307,317,99686,5,2,0:0:0:0:
256,192,99806,12,4,101366,0:3:0:0:
352,53,101606,6,0,B|308:56|308:56|293:74|293:74|232:79,1,111.999996185303,6|0,3:2|0:0,0:0:0:0:
173,83,101966,1,2,0:1:0:0:
173,83,102086,1,4,0:3:0:0:
26,139,102326,2,0,B|69:142|69:142|84:160|84:160|145:165,1,111.999996185303,8|0,3:0|0:0,0:0:0:0:
211,170,102686,1,2,0:1:0:0:
211,170,102806,1,4,0:3:0:0:
354,109,103046,1,8,3:0:0:0:
361,119,103166,2,0,P|373:171|359:231,1,111.999996185303,2|0,0:1|0:0,0:0:0:0:
273,291,103526,6,0,B|214:285|214:285|185:253|185:253|104:246,1,167.999994277954,2|2,3:2|0:1,0:0:0:0:
40,243,104006,1,4,0:3:0:0:
255,376,104246,2,0,B|313:370|313:370|342:338|342:338|423:331,1,167.999994277954,8|2,3:0|0:1,0:0:0:0:
487,327,104726,1,4,0:3:0:0:
435,178,104966,2,0,P|431:206|438:240,2,55.9999980926514,8|2|4,3:0|0:1|0:3,0:0:0:0:
404,34,105326,1,2,0:1:0:0:
396,26,105446,6,0,P|341:15|282:29,1,111.999996185303,2|0,3:2|0:0,0:0:0:0:
204,44,105806,1,2,0:1:0:0:
204,44,105926,1,4,0:3:0:0:
74,132,106166,2,0,P|129:143|188:129,1,111.999996185303,8|0,3:0|0:0,0:0:0:0:
266,114,106526,1,2,0:1:0:0:
266,114,106646,1,4,0:3:0:0:
251,270,106886,2,0,P|223:274|183:265,1,55.9999980926514,8|2,3:0|0:1,0:0:0:0:
307,203,107126,2,0,P|335:199|375:208,1,55.9999980926514,4|0,0:3|0:0,0:0:0:0:
479,214,107366,6,0,P|525:175|460:94,1,167.999994277954,2|2,3:2|0:1,0:0:0:0:
395,62,107846,1,12,0:3:0:0:
223,80,108086,1,2,0:1:0:0:
223,80,108206,1,2,0:1:0:0:
223,80,108326,2,0,P|203:128|231:190,1,111.999996185303,6|4,0:3|0:3,0:0:0:0:
340,318,108806,1,8,3:0:0:0:
334,328,108926,2,0,B|290:331|290:331|276:350|276:350|228:355,1,111.999996185303,2|2,0:1|0:1,0:0:0:0:
114,358,109286,6,0,B|60:358|60:358|3:325,2,111.999996185303,6|0|4,3:2|0:0|0:3,0:0:0:0:
11,238,110006,2,0,B|61:208|61:208|115:208,1,111.999996185303,8|0,3:0|0:0,0:0:0:0:
148,285,110366,1,2,0:1:0:0:
148,285,110486,1,4,0:3:0:0:
298,238,110726,1,8,3:0:0:0:
306,230,110846,2,0,L|306:90,1,111.999996185303,2|0,0:1|0:0,0:0:0:0:
353,31,111206,6,0,P|430:46|446:129,1,167.999994277954,2|2,3:2|0:1,0:0:0:0:
435,202,111686,2,0,P|408:192|384:170,1,55.9999980926514,4|2,0:3|0:1,0:0:0:0:
263,32,111926,2,0,P|186:47|170:130,1,167.999994277954,8|2,3:0|0:1,0:0:0:0:
180,204,112406,1,4,0:3:0:0:
297,307,112646,2,0,P|326:311|363:304,2,55.9999980926514,8|2|4,3:0|0:1|0:3,0:0:0:0:
147,292,113006,1,2,0:1:0:0:
137,287,113126,6,0,P|97:249|89:180,1,111.999996185303,2|0,3:2|0:0,0:0:0:0:
88,114,113486,1,2,0:1:0:0:
88,114,113606,1,4,0:3:0:0:
262,158,113846,2,0,P|250:212|194:254,1,111.999996185303,8|0,3:0|0:0,0:0:0:0:
137,287,114206,1,2,0:1:0:0:
137,287,114326,1,4,0:3:0:0:
80,122,114566,1,8,3:0:0:0:
88,114,114686,2,0,P|141:99|205:126,1,111.999996185303,2|0,0:1|0:0,0:0:0:0:
346,218,115046,6,0,B|396:213|396:213|420:196|420:196|479:191,1,125.999991863251,2|4,3:2|0:3,0:0:0:0:
464,111,115406,1,2,0:1:0:0:
459,103,115526,2,0,B|408:98|408:98|384:81|384:81|325:76,1,125.999991863251,2|4,3:2|0:3,0:0:0:0:
199,109,115886,1,2,0:1:0:0:
193,116,116006,6,0,P|187:144|197:186,1,62.9999959316255,2|0,3:2|0:0,0:0:0:0:
268,311,116246,2,0,P|274:283|264:241,1,62.9999959316255,4|4,0:3|0:3,0:0:0:0:
129,280,116486,2,0,L|204:280,1,62.9999959316255,2|0,3:2|0:0,0:0:0:0:
335,146,116726,2,0,L|260:146,1,62.9999959316255,4|4,0:3|0:3,0:0:0:0:
47,125,116966,6,0,P|77:118|108:124,1,62.9999959316255,2|0,3:2|0:0,0:0:0:0:
129,280,117206,1,8,3:0:0:0:
127,300,117326,1,6,0:3:0:0:
118,317,117446,1,2,3:0:0:0:
107,332,117566,2,0,P|81:337|42:331,2,62.9999959316255,2|4|2,0:1|0:3|0:1,0:0:0:0:
325,287,117926,6,0,P|330:261|322:217,1,62.9999959316255,2|0,3:2|0:0,0:0:0:0:
140,60,118166,2,0,P|135:86|143:130,1,62.9999959316255,2|0,0:1|0:0,0:0:0:0:
209,287,118406,6,0,P|265:308|334:277,1,125.999991863251,14|0,3:2|0:0,0:0:0:0:
448,227,118886,6,0,P|489:162|441:87,1,167.999989151001,6|4,3:2|0:3,0:0:0:0:
382,35,119246,1,4,0:3:0:0:
215,48,119366,2,0,P|291:24|385:55,1,167.999989151001,8|4,3:2|3:3,0:0:0:0:
447,90,119726,1,4,0:3:0:0:
368,269,119846,2,0,B|327:279|327:279|269:266,1,83.9999945755007,2|0,3:2|0:0,0:0:0:0:
135,195,120086,2,0,B|176:185|176:185|234:198,1,83.9999945755007,4|0,0:3|0:0,0:0:0:0:
75,287,120326,2,0,P|26:211|47:126,1,167.999989151001,8|6,3:2|3:0,0:0:0:0:
89,70,120686,1,6,0:3:0:0:
274,94,120806,6,0,B|306:80|313:41|306:23|306:23|283:15|240:37|225:74,1,167.999989151001,2|4,3:2|0:3,0:0:0:0:
178,119,121166,1,4,0:3:0:0:
286,269,121286,2,0,B|327:279|327:279|368:269,1,83.9999945755007,8|0,3:2|0:0,0:0:0:0:
493,157,121526,2,0,B|452:147|452:147|394:160,1,83.9999945755007,4|0,3:0|0:0,0:0:0:0:
492,316,121766,2,0,P|515:235|475:133,1,167.999989151001,2|4,3:2|0:3,0:0:0:0:
471,75,122126,1,4,0:3:0:0:
306,52,122246,2,0,B|269:66|265:112|265:112|297:184|369:184|411:156,1,251.999983726502,8|4,3:2|0:3,0:0:0:0:
492,156,122726,6,0,P|515:236|492:316,1,167.999989151001,2|4,3:2|0:3,0:0:0:0:
419,356,123086,1,4,0:3:0:0:
255,272,123206,2,0,B|296:262|296:262|354:275,1,83.9999945755007,8|0,3:2|0:0,0:0:0:0:
178,364,123446,2,0,B|137:374|137:374|79:361,1,83.9999945755007,4|0,3:0|0:0,0:0:0:0:
84,199,123686,2,0,B|116:170|162:195|162:195|169:246|135:269,1,167.999989151001,2|4,3:2|0:3,0:0:0:0:
50,279,124046,1,4,0:3:0:0:
54,111,124166,2,0,P|139:96|219:125,1,167.999989151001,8|6,3:2|3:0,0:0:0:0:
269,187,124526,1,6,0:3:0:0:
480,215,124646,6,0,B|424:220|424:220|393:258|393:258|331:264,1,167.999989151001,2|4,3:2|0:3,0:0:0:0:
278,330,125006,1,0,0:0:0:0:
460,372,125126,2,0,P|470:331|460:289,1,83.9999945755007,8|0,3:2|0:0,0:0:0:0:
343,171,125366,1,4,3:0:0:0:
337,137,125486,1,2,0:1:0:0:
360,112,125606,6,0,P|401:104|457:119,1,83.9999945755007,2|0,3:2|0:0,0:0:0:0:
214,15,125846,2,0,B|173:1|173:1|132:1,1,83.9999945755007,6|0,3:0|0:0,0:0:0:0:
298,15,126086,2,0,B|338:1|338:1|379:1,1,83.9999945755007,10|0,3:0|0:0,0:0:0:0:
152,112,126326,2,0,P|111:104|55:119,1,83.9999945755007,6|2,3:0|0:1,0:0:0:0:
255,237,126566,6,0,B|255:160|255:160|262:153|262:153|248:153|248:153|255:145|255:145|255:61,1,167.999989151001,6|4,3:2|0:3,0:0:0:0:
298,15,126926,1,4,0:3:0:0:
482,18,127046,2,0,P|528:84|462:150,1,167.999989151001,8|4,3:2|3:0,0:0:0:0:
400,162,127406,1,4,0:3:0:0:
408,346,127526,2,0,B|447:357|447:357|511:342,1,83.9999945755007,2|0,3:2|0:0,0:0:0:0:
336,238,127766,2,0,B|297:227|297:227|233:242,1,83.9999945755007,4|0,0:3|0:0,0:0:0:0:
75,288,128006,2,0,P|88:362|164:336,1,167.999989151001,8|6,3:2|3:0,0:0:0:0:
177,261,128366,1,4,0:3:0:0:
155,78,128486,6,0,P|82:36|13:103,1,167.999989151001,2|4,3:2|0:3,0:0:0:0:
19,163,128846,1,4,0:3:0:0:
177,261,128966,2,0,P|184:219|175:171,1,83.9999945755007,8|0,3:2|0:0,0:0:0:0:
258,10,129206,2,0,P|251:51|258:92,1,83.9999945755007,4|0,3:0|0:0,0:0:0:0:
250,305,129446,2,0,B|217:353|171:357|131:341|109:311|109:311|95:347|125:372|163:369,1,251.999983726502,2|0,3:2|0:0,0:0:0:0:
336,346,129926,2,0,P|346:308|333:258,1,83.9999945755007,8|0,3:2|0:0,0:0:0:0:
258,92,130166,1,4,3:0:0:0:
264,76,130286,1,4,0:3:0:0:
272,61,130406,6,0,B|293:23|339:15|339:15|390:25|418:79,1,167.999989151001,2|4,3:2|0:3,0:0:0:0:
452,131,130766,1,4,0:3:0:0:
283,206,130886,2,0,P|238:206|193:184,1,83.9999945755007,8|0,3:2|0:0,0:0:0:0:
78,328,131126,2,0,P|123:328|168:306,1,83.9999945755007,4|4,3:0|0:3,0:0:0:0:
164,97,131366,2,0,P|70:111|124:235,1,251.999983726502,2|0,3:2|0:0,0:0:0:0:
250,346,131846,2,0,P|319:357|310:268,1,167.999989151001,8|6,3:2|3:0,0:0:0:0:
283,206,132206,1,4,0:3:0:0:
406,57,132326,6,0,B|448:57|448:57|494:84,1,83.9999945755007,2|0,3:2|0:0,0:0:0:0:
252,116,132566,2,0,B|230:79|230:79|231:26,1,83.9999945755007,2|0,3:1|0:0,0:0:0:0:
383,221,132806,2,0,B|362:257|362:257|315:283,1,83.9999945755007,10|0,3:0|0:0,0:0:0:0:
140,357,133046,1,6,3:0:0:0:
122,338,133166,1,2,0:1:0:0:
80,254,133286,5,10,3:0:0:0:
152,194,133406,1,2,0:1:0:0:
123,104,133526,2,0,P|84:94|37:108,1,83.9999945755007,10|2,3:1|0:1,0:0:0:0:
41,338,133766,2,0,P|80:348|127:334,1,83.9999945755007,6|0,3:0|0:0,0:0:0:0:
385,260,134006,1,6,3:0:0:0:
394,251,134126,1,6,0:3:0:0:
402,243,134246,6,0,B|394:218|360:185|318:172|318:172|265:184|238:213|222:262,1,230.999999181748,6|4,3:2|0:3,0:0:0:0:
397,339,134726,2,0,P|430:335|479:299,1,76.9999997272492,8|0,3:0|0:0,0:0:0:0:
233,339,134966,2,0,P|200:335|151:299,1,76.9999997272492,6|2,3:0|0:1,0:0:0:0:
220,90,135206,1,2,3:1:0:0:
228,97,135326,2,0,P|251:170|212:262,1,153.999999454498,12|2,0:3|0:1,0:0:0:0:
83,127,135686,2,0,B|125:97|125:97|245:97,1,153.999999454498,8|6,3:0|3:0,0:0:0:0:
408,87,136046,1,6,0:3:0:0:
418,81,136166,6,0,B|426:44|426:44|417:-1,1,76.9999997272492,2|0,3:2|0:0,0:0:0:0:
419,175,136406,2,0,B|456:183|456:183|501:174,1,76.9999997272492,4|4,0:3|0:3,0:0:0:0:
324,189,136646,2,0,B|316:226|316:226|325:271,1,76.9999997272492,8|0,3:0|0:0,0:0:0:0:
323,94,136886,2,0,B|285:86|285:86|241:95,1,76.9999997272492,6|2,3:0|0:1,0:0:0:0:
91,118,137126,1,2,3:1:0:0:
83,127,137246,2,0,B|45:145|52:192|52:192|93:225|145:193,1,153.999999454498,12|2,0:3|0:1,0:0:0:0:
323,94,137606,1,8,3:0:0:0:
348,110,137726,1,2,0:1:0:0:
357,140,137846,1,6,3:0:0:0:
344,167,137966,1,6,0:3:0:0:
324,189,138086,6,0,B|286:195|286:195|230:248|230:248|192:255,1,153.999999454498,2|4,3:2|0:3,0:0:0:0:
32,316,138446,1,4,0:3:0:0:
39,325,138566,2,0,B|75:340|75:340|121:340,1,76.9999997272492,8|0,3:0|0:0,0:0:0:0:
114,163,138806,2,0,B|76:163|76:163|40:178,1,76.9999997272492,6|2,3:0|0:1,0:0:0:0:
186,265,139046,1,2,3:1:0:0:
192,255,139166,2,0,B|230:248|230:248|286:195|286:195|324:189,1,153.999999454498,12|2,0:3|0:1,0:0:0:0:
423,325,139526,2,0,P|348:340|330:272,1,153.999999454498,8|6,3:0|3:0,0:0:0:0:
414,135,139886,1,6,0:3:0:0:
424,130,140006,6,0,B|523:152|523:152|461:199,1,153.999999454498,2|4,3:2|0:3,0:0:0:0:
335,271,140366,1,4,0:3:0:0:
327,279,140486,2,0,P|291:286|233:272,1,76.9999997272492,8|0,3:0|0:0,0:0:0:0:
80,274,140726,1,6,3:0:0:0:
70,285,140846,1,2,0:1:0:0:
61,297,140966,6,0,P|54:328|67:385,1,76.9999997272492,2|0,3:2|0:0,0:0:0:0:
251,280,141206,2,0,P|259:243|251:205,1,76.9999997272492,6|0,3:0|0:0,0:0:0:0:
51,298,141446,2,0,P|44:329|57:386,1,76.9999997272492,8|0,3:0|0:0,0:0:0:0:
261,279,141686,2,0,P|269:242|261:204,1,76.9999997272492,6|6,3:0|3:0,0:0:0:0:
115,77,141926,6,0,P|59:111|158:185,1,230.999999181748,6|4,3:2|0:3,0:0:0:0:
266,71,142406,2,0,P|304:63|358:78,1,76.9999997272492,8|0,3:0|0:0,0:0:0:0:
445,203,142646,2,0,P|407:211|353:196,1,76.9999997272492,6|2,3:0|0:1,0:0:0:0:
477,51,142886,1,2,3:1:0:0:
483,61,143006,2,0,B|478:108|478:108|450:135|450:135|443:219,1,153.999999454498,12|2,0:3|0:1,0:0:0:0:
433,372,143366,2,0,L|530:359,1,76.9999997272492,8|0,3:0|0:0,0:0:0:0:
346,310,143606,2,0,L|249:297,1,76.9999997272492,6|6,3:0|0:3,0:0:0:0:
78,276,143846,6,0,P|149:269|127:203,1,153.999999454498,2|4,3:2|0:3,0:0:0:0:
82,44,144206,1,4,0:3:0:0:
75,35,144326,2,0,L|-1:43,1,76.9999997272492,8|0,3:0|0:0,0:0:0:0:
153,112,144566,2,0,L|229:120,1,76.9999997272492,6|2,3:0|0:1,0:0:0:0:
393,142,144806,5,2,3:2:0:0:
428,166,144926,1,2,0:1:0:0:
448,203,145046,1,4,0:3:0:0:
451,244,145166,1,2,0:1:0:0:
437,284,145286,2,0,P|479:284|521:259,1,76.9999997272492,8|0,3:0|0:0,0:0:0:0:
336,233,145526,1,6,3:0:0:0:
330,247,145646,1,6,0:3:0:0:
350,331,145766,6,0,P|308:331|266:306,1,76.9999997272492,2|0,3:2|0:0,0:0:0:0:
89,278,146006,1,2,3:1:0:0:
101,298,146126,1,2,0:1:0:0:
118,314,146246,2,0,P|183:293|138:222,1,153.999999454498,8|6,3:0|0:3,0:0:0:0:
32,86,146606,1,2,0:1:0:0:
25,95,146726,2,0,B|15:131|15:131|30:178,1,76.9999997272492,2|0,3:2|0:0,0:0:0:0:
208,43,146966,2,0,B|181:16|181:16|133:5,1,76.9999997272492,6|4,3:0|0:3,0:0:0:0:
160,226,147206,2,0,B|196:216|196:216|229:180,1,76.9999997272492,8|0,3:0|0:0,0:0:0:0:
415,56,147446,1,6,3:0:0:0:
432,71,147566,1,6,3:0:0:0:
472,146,147686,5,2,3:2:0:0:
435,221,147926,1,0,0:0:0:0:
487,286,148166,1,2,0:0:0:0:
435,221,148406,1,4,0:3:0:0:
435,221,148886,1,4,0:3:0:0:
372,276,149126,1,2,0:0:0:0:
315,215,149366,1,0,0:0:0:0:
229,72,149606,5,2,3:2:0:0:
137,83,149846,1,0,0:0:0:0:
115,172,150086,1,2,0:0:0:0:
237,247,150326,1,4,0:3:0:0:
237,247,150806,1,0,0:0:0:0:
115,172,151046,1,2,0:0:0:0:
115,172,151526,5,2,3:2:0:0:
229,72,151766,1,0,0:0:0:0:
315,215,152006,1,2,0:0:0:0:
315,215,152726,1,4,0:3:0:0:
237,247,152966,1,2,0:0:0:0:
197,173,153206,1,4,0:3:0:0:
197,173,153926,1,2,0:0:0:0:
125,330,154166,5,4,0:3:0:0:
74,262,154406,1,2,0:0:0:0:
27,191,154646,1,4,0:3:0:0:
27,191,155126,1,4,0:3:0:0:
168,57,155366,5,2,3:2:0:0:
188,69,155606,1,0,0:0:0:0:
208,82,155846,1,2,0:0:0:0:
292,62,156086,1,4,0:3:0:0:
292,62,156566,1,4,0:3:0:0:
374,79,156806,1,2,0:0:0:0:
397,159,157046,1,4,0:3:0:0:
292,62,157286,5,2,0:0:0:0:
208,82,157526,1,0,0:0:0:0:
208,166,157766,1,2,0:0:0:0:
292,62,158006,1,4,0:3:0:0:
292,62,158486,1,4,0:3:0:0:
298,145,158726,1,2,0:0:0:0:
298,145,159206,5,2,3:2:0:0:
353,238,159446,1,0,0:0:0:0:
461,229,159686,1,2,0:0:0:0:
461,229,160406,1,4,0:3:0:0:
298,145,160646,1,2,0:0:0:0:
406,128,160886,1,4,0:3:0:0:
406,128,161606,1,2,0:0:0:0:
272,237,161846,5,4,0:3:0:0:
233,252,162086,1,2,0:0:0:0:
193,237,162326,1,6,0:3:0:0:
76,194,162806,6,0,L|71:167,2,27.9999981918336,6|0|0,2:3|0:0|0:0,0:0:0:0:
69,140,163046,5,2,3:2:0:0:
78,121,163286,1,0,0:0:0:0:
87,102,163526,1,2,0:0:0:0:
97,83,163766,1,4,0:3:0:0:
97,83,164246,1,0,0:0:0:0:
111,67,164486,1,2,0:0:0:0:
125,51,164726,1,4,0:3:0:0:
286,55,164966,5,2,0:0:0:0:
358,97,165206,1,0,0:0:0:0:
343,179,165446,1,2,0:0:0:0:
266,214,165686,1,4,0:3:0:0:
343,179,165926,1,2,0:0:0:0:
343,179,166406,1,2,0:0:0:0:
272,133,166646,1,4,0:3:0:0:
328,283,166886,5,2,3:2:0:0:
431,263,167126,1,0,0:0:0:0:
463,163,167366,1,2,0:0:0:0:
463,163,168086,1,4,0:3:0:0:
431,263,168326,1,2,0:0:0:0:
328,283,168566,1,0,0:0:0:0:
343,179,168806,1,2,0:0:0:0:
343,179,169286,5,2,0:0:0:0:
326,152,169526,1,4,0:3:0:0:
308,125,169766,1,2,0:0:0:0:
256,33,170006,1,4,0:3:0:0:
256,33,170486,1,4,0:3:0:0:
128,80,170726,5,2,3:2:0:0:
78,147,170966,1,0,0:0:0:0:
144,198,171206,1,2,0:0:0:0:
194,131,171446,1,4,0:3:0:0:
194,131,171926,1,0,0:0:0:0:
260,182,172166,1,2,0:0:0:0:
323,236,172406,1,4,0:3:0:0:
225,328,172646,5,2,0:0:0:0:
154,374,172886,1,0,0:0:0:0:
147,289,173126,1,2,0:0:0:0:
67,260,173366,1,4,0:3:0:0:
81,342,173606,1,2,0:0:0:0:
147,289,173846,1,4,0:3:0:0:
147,289,174326,1,4,0:3:0:0:
47,188,174566,5,2,3:2:0:0:
135,57,174806,1,0,0:0:0:0:
267,106,175046,5,2,0:0:0:0:
303,180,175526,1,2,0:0:0:0:
267,254,176006,1,2,0:0:0:0:
147,289,176246,1,6,0:3:0:0:
47,188,176486,5,6,3:2:0:0:
256,192,176606,12,2,178406,0:0:0:0:
250,276,193766,6,0,B|234:370|90:370|80:275|80:275|100:305|121:319|155:324,1,335.999988555908,4|0,0:3|0:0,0:0:0:0:
227,188,194726,6,0,B|306:202|306:202|329:247|329:247|406:261,2,209.999992847443,2|4|2,0:0|0:3|0:3,0:0:0:0:
85,189,195686,6,0,P|53:197|9:184,1,69.9999976158143,6|0,0:0|0:0,0:0:0:0:
158,23,195926,6,0,P|209:13|267:24,1,105.000000429154,14|0,3:0|0:1,0:0:0:0:
454,76,196166,1,8,3:0:0:0:
480,108,196286,1,2,0:1:0:0:
495,146,196406,1,10,3:1:0:0:
481,185,196526,1,2,0:1:0:0:
455,218,196646,5,14,3:0:0:0:
455,218,196886,2,0,B|418:214|418:214|395:198|395:198|344:194,1,105.000000429154,10|0,0:3|0:0,0:0:0:0:
202,165,197126,6,0,L|134:159,2,46.6666650772095,6|0|0,3:0|0:0|0:0,0:0:0:0:
258,89,197366,2,0,L|326:83,2,46.6666650772095,6|0|0,3:0|0:0|0:0,0:0:0:0:
92,113,197606,6,0,B|66:131|33:132|33:132|16:170|16:209|53:251,1,167.999989151001,6|6,3:2|0:3,0:0:0:0:
89,299,197966,1,4,0:3:0:0:
271,267,198086,2,0,P|260:324|157:325,1,167.999989151001,8|6,3:2|3:0,0:0:0:0:
89,299,198446,1,4,0:3:0:0:
92,113,198566,2,0,P|130:104|190:118,1,83.9999945755007,2|0,3:2|0:0,0:0:0:0:
356,82,198806,2,0,P|318:73|258:87,1,83.9999945755007,6|0,0:3|0:0,0:0:0:0:
389,226,199046,2,0,P|444:205|425:103,1,167.999989151001,8|6,3:2|3:0,0:0:0:0:
356,82,199406,1,6,0:3:0:0:
276,248,199526,6,0,P|287:287|317:320,1,83.9999945755007,2|0,3:2|0:0,0:0:0:0:
260,141,199766,2,0,L|146:151,1,83.9999945755007,6|0,0:3|0:0,0:0:0:0:
22,43,200006,2,0,L|189:57,1,167.999989151001,8|6,3:2|3:0,0:0:0:0:
273,65,200366,1,4,0:3:0:0:
195,232,200486,2,0,P|116:208|93:128,1,167.999989151001,2|6,3:2|0:3,0:0:0:0:
176,148,200846,1,4,0:3:0:0:
170,315,200966,2,0,P|65:272|10:146,1,251.999983726502,8|4,3:2|0:3,0:0:0:0:
22,43,201446,6,0,L|189:57,1,167.999989151001,2|6,3:2|0:3,0:0:0:0:
273,65,201806,1,4,0:3:0:0:
457,81,201926,2,0,P|466:40|458:0,1,83.9999945755007,8|0,3:2|0:0,0:0:0:0:
333,136,202166,2,0,P|324:176|333:217,1,83.9999945755007,6|0,3:0|0:0,0:0:0:0:
439,370,202406,2,0,B|481:367|487:325|487:325|460:289|421:289|377:316,1,167.999989151001,2|6,3:2|0:3,0:0:0:0:
320,327,202766,1,4,0:3:0:0:
159,235,202886,2,0,B|132:202|132:147|166:110|166:110|206:157,1,167.999989151001,8|6,3:2|3:0,0:0:0:0:
253,186,203246,1,6,0:3:0:0:
189,359,203366,6,0,B|159:371|111:364|86:343|86:343|64:368|26:374,2,167.999989151001,2|6|8,3:2|0:3|3:2,0:0:0:0:
445,97,204086,1,6,3:0:0:0:
431,67,204206,1,2,0:1:0:0:
404,48,204326,6,0,P|367:32|306:32,1,83.9999945755007,2|0,3:2|0:0,0:0:0:0:
108,48,204566,2,0,P|145:32|206:32,1,83.9999945755007,6|0,3:0|0:0,0:0:0:0:
178,198,204806,2,0,P|136:195|97:178,1,83.9999945755007,10|0,3:0|0:0,0:0:0:0:
334,198,205046,2,0,P|375:195|414:178,1,83.9999945755007,6|2,3:0|0:1,0:0:0:0:
256,75,205286,6,0,B|256:139|256:139|250:148|250:148|261:148|261:148|256:154|256:154|256:231,1,167.999989151001,6|6,3:2|0:3,0:0:0:0:
272,311,205646,1,4,0:3:0:0:
438,353,205766,2,0,P|500:315|467:233,1,167.999989151001,8|6,3:2|3:0,0:0:0:0:
413,178,206126,1,4,0:3:0:0:
256,75,206246,2,0,P|295:67|347:78,1,83.9999945755007,2|0,3:2|0:0,0:0:0:0:
256,228,206486,2,0,P|217:236|165:225,1,83.9999945755007,6|0,0:3|0:0,0:0:0:0:
30,137,206726,2,0,P|40:70|135:88,1,167.999989151001,8|6,3:2|3:0,0:0:0:0:
188,129,207086,1,6,0:3:0:0:
50,216,207206,6,0,P|33:181|33:120,1,83.9999945755007,2|0,3:2|0:0,0:0:0:0:
153,308,207446,2,0,P|170:270|173:228,1,83.9999945755007,6|0,0:3|0:0,0:0:0:0:
113,26,207686,2,0,L|21:41,1,83.9999945755007,8|0,3:2|0:0,0:0:0:0:
188,129,207926,2,0,L|280:144,1,83.9999945755007,6|0,3:0|0:0,0:0:0:0:
452,185,208166,2,0,B|488:155|488:81|451:38|451:38|415:29|379:59|375:97,1,251.999983726502,2|4,3:2|0:3,0:0:0:0:
385,266,208646,2,0,P|423:286|469:289,1,83.9999945755007,8|0,3:2|0:0,0:0:0:0:
261,224,208886,2,0,P|299:204|345:201,1,83.9999945755007,6|6,3:0|0:3,0:0:0:0:
234,333,209126,6,0,P|165:283|155:189,1,167.999989151001,2|6,3:2|0:3,0:0:0:0:
188,129,209486,1,4,0:3:0:0:
357,103,209606,2,0,B|289:108|289:108|266:128|266:128|197:135,1,167.999989151001,8|6,3:2|3:0,0:0:0:0:
150,205,209966,1,4,0:3:0:0:
359,295,210086,2,0,P|422:228|353:101,1,251.999983726502,2|4,3:2|0:3,0:0:0:0:
148,46,210566,2,0,L|56:57,1,83.9999945755007,8|0,3:2|0:0,0:0:0:0:
240,189,210806,2,0,L|332:200,1,83.9999945755007,6|6,3:0|0:3,0:0:0:0:
507,219,211046,5,2,3:2:0:0:
134,377,211286,1,6,3:0:0:0:
121,367,211406,1,2,0:1:0:0:
159,297,211526,5,14,3:0:0:0:
93,251,211646,1,2,0:1:0:0:
63,177,211766,1,10,3:1:0:0:
91,102,211886,1,2,0:1:0:0:
148,46,212006,6,0,P|188:36|237:48,1,83.9999945755007,6|0,3:2|0:0,0:0:0:0:
279,222,212246,2,0,P|250:192|236:143,1,83.9999945755007,2|0,3:0|0:0,0:0:0:0:
368,23,212486,2,0,P|356:62|321:99,1,83.9999945755007,8|4,3:0|0:3,0:0:0:0:
169,281,212726,1,6,3:0:0:0:
165,290,212846,1,4,0:3:0:0:
159,297,212966,6,0,B|113:323|59:323|20:272|20:272|17:243|51:217|83:218,1,230.999999181748,6|4,3:2|0:3,0:0:0:0:
279,222,213446,2,0,P|297:257|299:305,1,76.9999997272492,8|0,3:0|0:0,0:0:0:0:
168,136,213686,2,0,P|150:171|148:219,1,76.9999997272492,6|2,3:0|0:1,0:0:0:0:
314,106,213926,1,2,3:1:0:0:
304,94,214046,2,0,B|243:83|243:83|221:58|221:58|151:45,1,153.999999454498,12|2,0:3|0:1,0:0:0:0:
279,222,214406,2,0,L|365:202,1,76.9999997272492,8|0,3:0|0:0,0:0:0:0:
495,53,214646,1,6,3:0:0:0:
485,42,214766,1,6,0:3:0:0:
474,32,214886,6,0,P|436:24|387:37,1,76.9999997272492,2|0,3:2|0:0,0:0:0:0:
353,204,215126,2,0,P|391:212|440:199,1,76.9999997272492,6|4,0:3|0:3,0:0:0:0:
472,19,215366,2,0,P|434:11|385:24,1,76.9999997272492,8|0,3:0|0:0,0:0:0:0:
354,217,215606,2,0,P|392:225|441:212,1,76.9999997272492,6|2,3:0|0:1,0:0:0:0:
314,106,215846,1,2,3:1:0:0:
304,94,215966,2,0,B|246:104|246:104|224:129|224:129|163:140,1,153.999999454498,12|2,0:3|0:1,0:0:0:0:
26,226,216326,1,8,3:0:0:0:
12,207,216446,1,2,0:1:0:0:
6,184,216566,1,6,3:0:0:0:
8,161,216686,1,6,0:3:0:0:
20,141,216806,6,0,P|85:115|172:148,1,153.999999454498,2|6,3:2|0:3,0:0:0:0:
132,309,217166,1,4,0:3:0:0:
132,309,217286,2,0,P|101:319|52:306,1,76.9999997272492,8|0,3:0|0:0,0:0:0:0:
205,223,217526,2,0,P|236:213|285:226,1,76.9999997272492,6|2,3:0|0:1,0:0:0:0:
461,265,217766,1,2,3:1:0:0:
470,252,217886,2,0,B|474:133|474:133|430:150,1,153.999999454498,12|2,0:3|0:1,0:0:0:0:
377,303,218246,2,0,P|440:352|515:348,1,153.999999454498,8|6,3:0|3:0,0:0:0:0:
284,97,218726,6,0,B|210:73|210:73|125:100,1,153.999999454498,2|6,3:2|0:3,0:0:0:0:
275,194,219086,1,4,0:3:0:0:
275,194,219206,2,0,P|316:189|349:168,1,76.9999997272492,8|0,3:0|0:0,0:0:0:0:
137,96,219446,1,6,3:0:0:0:
118,108,219566,1,6,0:3:0:0:
104,127,219686,6,0,L|110:203,1,76.9999997272492,2|0,3:2|0:0,0:0:0:0:
21,342,219926,2,0,L|27:265,1,76.9999997272492,6|0,3:0|0:0,0:0:0:0:
235,283,220166,2,0,P|169:318|97:265,1,153.999999454498,8|6,3:0|3:0,0:0:0:0:
177,60,220526,1,6,3:0:0:0:
190,49,220646,6,0,P|274:104|199:171,1,230.999999181748,6|4,3:2|0:3,0:0:0:0:
18,155,221126,2,0,P|6:119|8:81,1,76.9999997272492,8|0,3:0|0:0,0:0:0:0:
105,282,221366,2,0,P|116:245|115:207,1,76.9999997272492,6|2,3:0|0:1,0:0:0:0:
177,60,221606,1,2,3:1:0:0:
190,49,221726,2,0,B|254:59|254:59|274:81|274:81|345:94,1,153.999999454498,12|2,0:3|0:1,0:0:0:0:
503,98,222086,2,0,B|497:64|462:57|462:57|439:78|439:125|470:164,1,153.999999454498,8|6,3:0|3:0,0:0:0:0:
494,335,222446,1,6,0:3:0:0:
494,335,222566,6,0,P|504:295|482:241,1,76.9999997272492,2|0,3:2|0:0,0:0:0:0:
344,337,222806,2,0,P|373:365|431:373,1,76.9999997272492,6|4,0:3|0:3,0:0:0:0:
417,206,223046,2,0,P|377:217|341:263,1,76.9999997272492,8|0,3:0|0:0,0:0:0:0:
185,206,223286,2,0,P|221:215|250:241,1,76.9999997272492,6|2,3:0|0:1,0:0:0:0:
80,263,223526,1,2,3:1:0:0:
75,249,223646,2,0,P|72:179|125:108,1,153.999999454498,8|2,3:0|0:1,0:0:0:0:
283,75,224006,1,8,3:0:0:0:
247,45,224126,1,2,0:1:0:0:
212,76,224246,1,6,3:0:0:0:
228,119,224366,1,6,0:3:0:0:
274,120,224486,6,0,B|336:111|336:111|353:87|353:87|417:78,1,153.999999454498,2|6,3:2|3:0,0:0:0:0:
488,233,224846,1,4,0:3:0:0:
416,260,224966,2,0,B|353:251|353:251|336:227|336:227|272:218,1,153.999999454498,8|6,3:0|0:3,0:0:0:0:
105,197,225326,1,4,0:3:0:0:
91,190,225446,1,2,3:1:0:0:
45,127,225566,2,0,B|36:90|36:90|46:52,1,76.9999997272492,8|0,3:0|0:0,0:0:0:0:
208,3,225806,1,2,0:1:0:0:
272,45,225926,2,0,B|281:83|281:83|272:122,1,76.9999997272492,8|0,3:0|0:0,0:0:0:0:
162,354,226166,1,6,3:0:0:0:
152,343,226286,1,6,3:0:0:0:
131,268,226406,5,6,3:2:0:0:
196,202,226526,2,0,B|233:192|233:192|273:201,1,76.9999997272492,8|0,3:0|0:0,0:0:0:0:
413,291,226766,1,6,3:0:0:0:
348,357,226886,2,0,B|311:367|311:367|271:358,1,76.9999997272492,12|0,3:0|0:0,0:0:0:0:
131,268,227126,1,10,3:0:0:0:
109,178,227246,1,2,3:1:0:0:
157,99,227366,5,14,3:0:0:0:
136,88,227486,1,2,0:1:0:0:
112,85,227606,1,6,3:0:0:0:
89,88,227726,1,2,0:1:0:0:
67,99,227846,5,14,3:0:0:0:
1,158,227966,1,2,3:1:0:0:
5,246,228086,1,10,3:1:0:0:
60,315,228206,1,2,3:1:0:0:
139,358,228326,6,0,P|206:375|291:346,1,139.999995231629,6|0,3:2|0:0,0:0:0:0:
312,278,228686,1,2,0:1:0:0:
312,278,228806,2,0,L|312:133,1,139.999995231629,8|4,3:2|0:3,0:0:0:0:
346,56,229166,1,2,0:1:0:0:
346,56,229286,2,0,P|311:48|256:70,2,69.9999976158143,2|0|0,3:2|0:0|0:0,0:0:0:0:
441,74,229646,1,2,0:1:0:0:
441,74,229766,2,0,L|448:144,1,69.9999976158143,8|4,3:2|0:3,0:0:0:0:
482,228,230006,1,4,0:3:0:0:
475,240,230126,1,2,0:1:0:0:
441,310,230246,6,0,B|384:305|384:305|359:281|359:281|310:277,1,139.999995231629,2|4,3:2|0:3,0:0:0:0:
229,253,230606,1,2,0:1:0:0:
229,253,230726,2,0,B|261:230|261:230|268:344,1,139.999995231629,8|0,3:2|0:0,0:0:0:0:
186,368,231086,1,2,0:1:0:0:
186,368,231206,2,0,P|117:362|80:295,2,139.999995231629,2|4|8,3:2|0:3|3:2,0:0:0:0:
322,244,231926,1,4,0:3:0:0:
184,124,232166,6,0,L|35:124,1,139.999995231629,2|4,3:2|0:3,0:0:0:0:
33,121,232526,1,2,0:1:0:0:
22,118,232646,2,0,P|-1:181|34:257,1,139.999995231629,8|4,3:2|0:3,0:0:0:0:
172,350,233126,2,0,B|225:345|225:345|248:322|248:322|307:316,1,139.999995231629,2|4,3:2|0:3,0:0:0:0:
312,315,233486,1,2,0:1:0:0:
322,312,233606,2,0,P|327:278|312:221,1,69.9999976158143,8|0,3:2|0:0,0:0:0:0:
299,154,233846,2,0,P|293:119|299:84,1,69.9999976158143,4|4,0:3|0:3,0:0:0:0:
365,23,234086,6,0,P|432:60|432:121,2,139.999995231629,2|4|8,3:2|0:3|3:2,0:0:0:0:
181,31,234806,1,4,0:3:0:0:
168,37,234926,1,2,0:1:0:0:
122,93,235046,2,0,P|104:155|127:235,1,139.999995231629,2|4,3:2|0:3,0:0:0:0:
128,321,235406,1,2,0:1:0:0:
128,321,235526,2,0,L|52:330,1,69.9999976158143,8|0,3:0|0:0,0:0:0:0:
121,226,235766,2,0,L|197:235,1,69.9999976158143,6|4,3:0|0:3,0:0:0:0:
289,290,236006,6,0,B|311:258|311:211|287:173|287:173|311:178|328:203,1,153.999999454498,6|4,3:2|0:3,0:0:0:0:
451,290,236486,2,0,B|429:258|429:211|453:173|453:173|429:178|412:203,1,153.999999454498,8|4,3:2|0:3,0:0:0:0:
298,301,236966,2,0,B|371:327|371:327|470:294,2,153.999999454498,2|4|8,3:2|0:3|3:2,0:0:0:0:
45,183,237686,1,4,0:3:0:0:
52,188,237806,1,2,0:1:0:0:
59,192,237926,6,0,P|101:219|23:238,1,153.999999454498,2|4,3:2|0:3,0:0:0:0:
190,180,238406,2,0,P|148:207|226:226,1,153.999999454498,8|4,3:2|0:3,0:0:0:0:
183,92,238886,2,0,B|136:95|136:95|110:110|110:110|82:100|82:100|31:105,2,153.999999454498,2|4|8,3:2|0:3|3:2,0:0:0:0:
459,57,239606,1,4,0:3:0:0:
459,57,239846,6,0,B|488:164|488:164|435:222,1,153.999999454498,2|4,3:2|0:3,0:0:0:0:
316,57,240326,2,0,B|287:164|287:164|340:222,1,153.999999454498,8|4,3:2|0:3,0:0:0:0:
459,57,240806,1,2,3:2:0:0:
316,57,241046,1,4,0:3:0:0:
309,66,241166,1,2,0:1:0:0:
300,74,241286,1,8,3:2:0:0:
197,247,241526,1,4,0:3:0:0:
64,59,241766,5,2,3:2:0:0:
29,230,242006,1,4,0:3:0:0:
31,241,242126,1,2,0:1:0:0:
36,251,242246,2,0,P|117:318|196:247,1,230.999999181748,8|2,3:2|0:1,0:0:0:0:
200,134,242726,2,0,P|200:101|183:49,1,76.9999997272492,2|0,3:2|0:0,0:0:0:0:
64,59,242966,2,0,P|52:95|52:134,1,76.9999997272492,4|4,0:3|0:3,0:0:0:0:
196,246,243206,6,0,P|244:261|305:238,1,105.000000429154,8|6,3:0|3:0,0:0:0:0:
303,242,243566,1,2,0:1:0:0:
311,237,243686,6,0,P|269:284|312:335,1,139.999995231629,6|4,3:2|0:3,0:0:0:0:
458,237,244166,2,0,P|500:284|457:335,1,139.999995231629,8|4,3:2|0:3,0:0:0:0:
319,228,244646,2,0,P|385:208|467:239,2,139.999995231629,2|4|8,3:2|0:3|3:2,0:0:0:0:
73,283,245366,1,4,0:3:0:0:
66,285,245486,1,2,0:1:0:0:
59,288,245606,6,0,B|26:281|0:258|-11:229|-11:229|6:208|37:209,1,139.999995231629,2|4,3:2|0:3,0:0:0:0:
180,289,246086,2,0,B|213:282|239:259|250:230|250:230|233:209|202:210,1,139.999995231629,8|4,3:2|0:3,0:0:0:0:
60,298,246566,2,0,B|120:334|120:334|184:296,2,139.999995231629,2|4|8,3:2|0:3|3:2,0:0:0:0:
201,88,247286,1,4,0:3:0:0:
201,88,247526,6,0,P|260:53|315:94,1,139.999995231629,2|4,3:2|0:3,0:0:0:0:
320,95,247886,1,2,0:1:0:0:
436,141,248006,2,0,B|436:191|436:191|450:217|450:217|450:282,1,139.999995231629,8|4,3:2|0:3,0:0:0:0:
445,286,248366,1,2,0:1:0:0:
298,245,248486,2,0,B|238:250|238:250|221:268|221:268|148:275,1,139.999995231629,2|4,3:2|0:3,0:0:0:0:
157,278,248846,1,2,0:1:0:0:
46,338,248966,2,0,B|105:343|105:343|122:361|122:361|195:368,1,139.999995231629,8|4,3:2|0:3,0:0:0:0:
188,365,249326,1,2,0:1:0:0:
298,245,249446,6,0,P|310:180|239:137,1,139.999995231629,2|4,3:2|0:3,0:0:0:0:
246,139,249806,1,2,0:1:0:0:
307,36,249926,2,0,L|401:45,1,69.9999976158143,8|0,3:2|0:0,0:0:0:0:
487,110,250166,2,0,L|393:119,1,69.9999976158143,4|4,3:3|0:3,0:0:0:0:
246,139,250406,1,10,3:2:0:0:
197,147,250526,1,4,0:3:0:0:
169,187,250646,1,2,3:1:0:0:
166,235,250766,1,2,0:1:0:0:
197,272,250886,5,10,3:0:0:0:
437,321,251126,1,4,0:3:0:0:
448,312,251246,1,2,0:1:0:0:
481,246,251366,6,0,B|496:217|502:182|491:137|491:137|454:156,1,139.999995231629,6|4,3:2|0:3,0:0:0:0:
325,246,251846,2,0,B|310:217|304:182|315:137|315:137|352:156,1,139.999995231629,8|4,3:2|0:3,0:0:0:0:
470,254,252326,2,0,P|406:273|325:246,1,139.999995231629,2|4,3:2|0:3,0:0:0:0:
219,194,252686,1,2,0:1:0:0:
219,194,252806,2,0,P|183:187|125:203,1,69.9999976158143,8|0,3:2|0:0,0:0:0:0:
35,248,253046,1,4,0:3:0:0:
31,254,253166,1,2,0:1:0:0:
27,260,253286,6,0,P|44:325|106:306,1,139.999995231629,2|4,3:2|0:3,0:0:0:0:
279,260,253766,2,0,P|262:325|200:306,1,139.999995231629,8|4,3:2|0:3,0:0:0:0:
82,193,254246,2,0,P|149:180|234:200,1,139.999995231629,2|4,3:2|0:3,0:0:0:0:
469,65,254726,2,0,P|402:52|317:72,1,139.999995231629,8|4,3:2|0:3,0:0:0:0:
460,315,255206,6,0,P|488:253|442:178,1,139.999995231629,2|4,3:2|0:3,0:0:0:0:
337,316,255686,2,0,P|309:254|355:179,1,139.999995231629,8|4,3:2|0:3,0:0:0:0:
459,315,256166,1,2,3:2:0:0:
337,316,256406,1,4,0:3:0:0:
328,322,256526,1,2,0:1:0:0:
320,329,256646,1,8,3:2:0:0:
186,204,256886,1,4,0:3:0:0:
2,294,257126,5,2,3:2:0:0:
21,140,257366,1,4,0:3:0:0:
30,133,257486,1,2,0:1:0:0:
38,126,257606,2,0,B|125:69|125:69|228:134,1,209.999992847443,8|2,3:2|0:1,0:0:0:0:
336,213,258086,2,0,B|360:188|360:188|368:142,1,69.9999976158143,2|0,3:2|0:0,0:0:0:0:
277,34,258326,2,0,B|286:67|286:67|322:97,1,69.9999976158143,4|4,0:3|0:3,0:0:0:0:
461,74,258566,2,0,B|427:65|427:65|383:81,1,69.9999976158143,8|0,3:0|0:0,0:0:0:0:
266,168,258806,1,6,3:0:0:0:
256,177,258926,1,2,0:1:0:0:
191,216,259046,6,0,B|142:211|142:211|123:194|123:194|71:189,2,125.999991863251,6|4|8,3:2|0:3|3:2,0:0:0:0:
191,216,259766,1,4,0:3:0:0:
314,359,260006,2,0,B|362:354|362:354|381:337|381:337|433:332,2,125.999991863251,2|4|8,3:2|0:3|3:2,0:0:0:0:
83,313,260726,1,4,0:3:0:0:
77,309,260846,1,2,0:1:0:0:
72,305,260966,6,0,P|50:250|85:176,2,125.999991863251,2|4|8,3:2|0:3|3:2,0:0:0:0:
72,305,261686,1,4,0:3:0:0:
222,191,261926,2,0,P|244:246|209:320,2,125.999991863251,2|4|8,3:2|0:3|3:2,0:0:0:0:
27,29,262646,1,4,0:3:0:0:
27,29,262886,6,0,B|82:33|82:33|91:42|91:42|165:49,1,125.999991863251,6|4,3:2|0:3,0:0:0:0:
311,60,263366,1,8,3:2:0:0:
420,181,263606,1,4,0:3:0:0:
425,188,263726,1,2,0:1:0:0:
430,196,263846,2,0,L|499:190,1,62.9999959316255,2|0,3:2|0:0,0:0:0:0:
373,261,264086,1,4,0:3:0:0:
368,268,264206,1,2,0:1:0:0:
363,276,264326,2,0,L|294:270,1,62.9999959316255,12|0,3:2|0:0,0:0:0:0:
165,241,264566,1,4,0:3:0:0:
159,234,264686,1,2,0:1:0:0:
153,226,264806,6,0,P|147:196|155:161,1,62.9999959316255,2|0,3:2|0:0,0:0:0:0:
130,27,265046,2,0,P|159:38|182:59,1,62.9999959316255,2|4,0:3|0:3,0:0:0:0:
314,106,265286,2,0,P|289:125|259:135,1,62.9999959316255,8|0,3:2|0:0,0:0:0:0:
362,13,265526,1,4,0:3:0:0:
378,22,265646,1,2,0:1:0:0:
430,79,265766,6,0,P|449:144|428:200,1,125.999991863251,2|2,3:2|0:1,0:0:0:0:
415,332,266126,1,2,0:1:0:0:
415,332,266246,2,0,P|385:332|351:321,1,62.9999959316255,8|0,3:0|0:0,0:0:0:0:
244,246,266486,2,0,P|273:236|305:236,1,62.9999959316255,6|2,3:0|0:1,0:0:0:0:
196,346,266726,6,0,P|145:299|141:202,1,153.999999454498,6|2,3:2|0:0,0:0:0:0:
173,134,267086,1,2,0:1:0:0:
173,134,267206,2,0,L|5:142,1,153.999999454498,8|2,3:2|0:0,0:0:0:0:
16,52,267566,1,2,0:1:0:0:
16,52,267686,2,0,L|184:44,1,153.999999454498,2|2,3:2|0:0,0:0:0:0:
262,44,268046,1,2,0:1:0:0:
262,44,268166,2,0,P|271:81|256:131,1,76.9999997272492,8|0,3:0|0:0,0:0:0:0:
216,199,268406,2,0,P|207:236|222:286,1,76.9999997272492,6|2,3:0|0:1,0:0:0:0:
279,339,268646,6,0,P|350:369|426:324,1,153.999999454498,2|2,3:2|0:0,0:0:0:0:
486,277,269006,1,2,0:1:0:0:
486,277,269126,2,0,B|478:211|478:211|463:197|463:197|457:122,1,153.999999454498,8|2,3:2|0:0,0:0:0:0:
463,40,269486,1,2,0:1:0:0:
463,40,269606,2,0,L|384:56,1,76.9999997272492,2|0,3:2|0:0,0:0:0:0:
262,117,269846,2,0,L|338:133,1,76.9999997272492,2|0,0:0|0:0,0:0:0:0:
247,27,270086,2,0,P|183:69|174:144,1,153.999999454498,12|6,3:2|3:0,0:0:0:0:
242,312,270566,6,0,L|400:299,1,153.999999454498,6|2,3:2|0:0,0:0:0:0:
388,207,270926,1,2,0:1:0:0:
388,207,271046,2,0,L|230:220,1,153.999999454498,8|2,3:2|0:0,0:0:0:0:
145,222,271406,1,2,0:1:0:0:
145,222,271526,2,0,P|106:215|68:182,1,76.9999997272492,2|0,3:2|0:0,0:0:0:0:
75,100,271766,2,0,P|106:77|143:71,1,76.9999997272492,2|0,0:0|0:0,0:0:0:0:
139,231,272006,2,0,P|100:224|62:191,1,76.9999997272492,8|0,3:0|0:0,0:0:0:0:
72,91,272246,2,0,P|103:68|140:62,1,76.9999997272492,6|2,0:3|0:1,0:0:0:0:
229,35,272486,6,0,B|295:40|295:40|306:53|306:53|399:61,1,153.999999454498,2|2,3:2|0:0,0:0:0:0:
470,46,272846,1,2,0:1:0:0:
470,46,272966,2,0,P|502:116|463:188,1,153.999999454498,8|2,3:2|0:0,0:0:0:0:
398,238,273326,1,2,0:1:0:0:
398,238,273446,2,0,P|362:226|334:201,1,76.9999997272492,2|0,3:2|0:0,0:0:0:0:
193,237,273686,2,0,P|229:225|257:199,1,76.9999997272492,4|2,0:3|0:1,0:0:0:0:
121,166,273926,2,0,P|91:234|123:312,1,153.999999454498,10|6,3:0|3:0,0:0:0:0:
183,371,274286,1,2,0:1:0:0:
252,310,274406,6,0,B|311:315|311:315|334:337|334:337|411:344,1,153.999999454498,6|2,3:2|0:3,0:0:0:0:
408,344,274766,1,2,0:1:0:0:
488,317,274886,2,0,L|488:161,1,153.999999454498,8|2,3:0|0:3,0:0:0:0:
497,155,275246,1,2,0:1:0:0:
476,75,275366,2,0,P|406:53|316:78,1,153.999999454498,2|2,3:2|0:3,0:0:0:0:
317,70,275726,1,2,0:1:0:0:
237,99,275846,2,0,P|237:138|254:179,1,76.9999997272492,8|0,3:0|0:0,0:0:0:0:
318,235,276086,2,0,P|318:274|301:315,1,76.9999997272492,6|2,3:0|3:1,0:0:0:0:
220,348,276326,6,0,B|159:343|159:343|136:317|136:317|63:311,1,153.999999454498,2|2,3:2|0:3,0:0:0:0:
69,303,276686,1,2,0:1:0:0:
78,220,276806,2,0,B|138:215|138:215|161:189|161:189|234:183,1,153.999999454498,8|2,3:0|0:3,0:0:0:0:
226,174,277166,1,2,0:1:0:0:
307,159,277286,2,0,P|318:196|318:235,1,76.9999997272492,2|0,3:2|0:0,0:0:0:0:
388,354,277526,2,0,P|387:315|398:278,1,76.9999997272492,2|4,0:3|0:3,0:0:0:0:
460,149,277766,2,0,L|286:160,1,153.999999454498,12|6,3:2|3:0,0:0:0:0:
120,169,278246,6,0,B|87:98|87:98|130:9,1,153.999999454498,6|2,3:2|0:3,0:0:0:0:
128,22,278606,1,2,0:1:0:0:
212,31,278726,2,0,B|244:99|244:99|211:170,1,153.999999454498,8|2,3:0|0:3,0:0:0:0:
207,181,279086,1,2,0:1:0:0:
157,281,279206,2,0,P|120:288|77:279,1,76.9999997272492,6|0,3:2|0:0,0:0:0:0:
220,348,279446,2,0,P|257:355|300:346,1,76.9999997272492,2|4,0:3|0:3,0:0:0:0:
459,333,279686,2,0,B|448:350|408:355|408:355|375:328|375:293|417:242,1,153.999999454498,8|6,3:0|3:0,0:0:0:0:
407,261,280046,1,2,3:1:0:0:
421,150,280166,6,0,B|361:155|361:155|338:184|338:184|263:190,1,153.999999454498,6|2,3:2|0:3,0:0:0:0:
191,212,280526,2,0,P|133:194|188:131,1,153.999999454498,2|2,3:2|0:3,0:0:0:0:
198,41,280886,2,0,L|105:29,1,76.9999997272492,10|0,3:0|0:0,0:0:0:0:
277,113,281126,5,2,3:2:0:0:
303,98,281246,1,2,0:1:0:0:
320,72,281366,1,2,3:1:0:0:
323,41,281486,1,2,3:1:0:0:
312,12,281606,1,10,3:0:0:0:
35,114,281846,1,4,3:0:0:0:
22,143,281966,1,2,0:1:0:0:
38,221,282086,6,0,B|68:283|138:291|212:272|225:184|225:184|264:226|277:261|277:306|277:306|277:261|281:229|306:164|390:146|464:162|492:220|488:282|468:306|468:306|470:255|434:202|385:199,1,895.999969482422,14|0,3:2|0:0,0:0:0:0:
