osu file format v14

[General]
AudioFilename: audio.mp3
AudioLeadIn: 0
PreviewTime: 46766
Countdown: 0
SampleSet: Soft
StackLeniency: 0.4
Mode: 0
LetterboxInBreaks: 0
WidescreenStoryboard: 1

[Editor]
Bookmarks: 253286
DistanceSpacing: 2.2
BeatDivisor: 8
GridSize: 8
TimelineZoom: 3.699999

[Metadata]
Title:Memento
TitleUnicode:Memento
Artist:nonoc
ArtistUnicode:nonoc
Creator:619
Version:Hard
Source:Re:ゼロから始める異世界生活
Tags:re:zero kara hajimeru isekai seikatsu rezero starting life in another world different from zero season two 2nd season anime ending ed japanese pop rock j-pop j-rock jpop jrock full version emilia rem ram subaru satella white fox
BeatmapID:2692705
BeatmapSetID:1251745

[Difficulty]
HPDrainRate:4.5
CircleSize:3.5
OverallDifficulty:6.5
ApproachRate:8
SliderMultiplier:2.19999990463257
SliderTickRate:1

[Events]
//Background and Video events
0,0,"w.png",0,0
//Break Periods
2,182246,193016
//Storyboard Layer 0 (Background)
//Storyboard Layer 1 (Fail)
//Storyboard Layer 2 (Pass)
//Storyboard Layer 3 (Foreground)
//Storyboard Layer 4 (Overlay)
//Storyboard Sound Samples

[TimingPoints]
806,480,4,2,1,55,1,0
806,-166.666666666667,4,2,1,55,0,0
1766,480,4,2,1,55,1,0
1766,-125,4,2,1,55,0,0
3086,-125,4,2,1,5,0,0
3206,-125,4,2,1,55,0,0
5006,-125,4,2,1,5,0,0
5126,-125,4,2,1,55,0,0
5486,-125,4,2,1,5,0,0
5606,-125,4,2,1,55,0,0
8006,-200,4,2,1,55,0,0
8366,-200,4,2,1,5,0,0
8486,-111.111111111111,4,2,1,55,0,0
9326,-100,4,2,1,5,0,0
9446,-111.111111111111,4,2,1,65,0,0
17126,-125,4,2,1,60,0,0
30566,-111.111111111111,4,2,1,60,0,0
32486,-200,4,2,2,45,0,0
40166,-153.846153846154,4,2,2,55,0,0
44006,-142.857142857143,4,2,2,60,0,0
45926,-285.714285714286,4,2,2,60,0,0
46406,-285.714285714286,4,2,2,5,0,0
46886,-285.714285714286,4,2,2,60,0,0
47846,-83.3333333333333,4,2,2,75,0,1
47906,-83.3333333333333,4,2,1,75,0,1
63206,-90.9090909090909,4,2,2,80,0,1
63266,-90.9090909090909,4,2,1,80,0,1
70886,-90.9090909090909,4,2,1,80,0,1
78566,-100,4,2,1,65,0,0
86246,-142.857142857143,4,2,1,50,0,0
101606,-125,4,2,1,60,0,0
115046,-111.111111111111,4,2,1,70,0,0
118406,-166.666666666667,4,2,1,70,0,0
118886,-83.3333333333333,4,2,2,75,0,1
118946,-83.3333333333333,4,2,1,75,0,1
134246,-90.9090909090909,4,2,2,80,0,1
134306,-90.9090909090909,4,2,1,80,0,1
147686,-166.666666666667,4,2,1,40,0,0
163046,-133.333333333333,4,2,1,50,0,0
193766,-125,4,2,1,40,0,0
194486,-200,4,2,1,5,0,0
194726,-100,4,2,1,60,0,0
195686,-100,4,2,2,60,0,0
195746,-100,4,2,1,60,0,0
197126,-100,4,2,1,75,0,0
197606,-83.3333333333333,4,2,2,75,0,1
197666,-83.3333333333333,4,2,1,75,0,1
212966,-90.9090909090909,4,2,2,80,0,1
213026,-90.9090909090909,4,2,1,80,0,1
228326,-100,4,2,1,65,0,0
236006,-90.9090909090909,4,2,1,70,0,0
243686,-100,4,2,1,70,0,0
259046,-111.111111111111,4,2,1,70,0,0
266726,-90.9090909090908,4,2,2,75,0,0
266786,-90.9090909090908,4,2,1,75,0,0
274406,-90.9090909090908,4,2,2,80,0,0
274466,-90.9090909090908,4,2,1,80,0,0
278246,-90.9090909090908,4,2,1,70,0,0
279206,-90.9090909090908,4,2,1,65,0,0
280166,-90.9090909090908,4,2,1,60,0,0
281126,-90.9090909090908,4,2,1,55,0,0
281606,-90.9090909090908,4,2,1,50,0,0
282086,-500,4,2,2,45,0,0
282146,-500,4,2,1,45,0,0
283046,-500,4,2,1,40,0,0
284006,-500,4,2,1,35,0,0
284966,-500,4,2,1,30,0,0
285926,-500,4,2,1,25,0,0
286886,-500,4,2,1,20,0,0
287846,-500,4,2,1,15,0,0
288806,-500,4,2,1,10,0,0
289766,-500,4,2,1,5,0,0

[Colours]
Combo1 : 231,156,181
Combo2 : 255,229,200
Combo3 : 192,192,192
Combo4 : 226,100,244

[HitObjects]
181,317,806,6,0,L|101:324,1,65.9999951248171,2|4,0:0|0:3,0:0:0:0:
114,223,1286,2,0,L|194:230,1,65.9999951248171,2|4,0:0|0:3,0:0:0:0:
115,322,1766,6,0,P|40:288|18:202,1,175.999992370606,2|2,0:0|0:0,0:0:0:0:
20,99,2486,1,4,0:3:0:0:
100,30,2726,2,0,B|167:41|167:41|191:75|191:75|274:90,1,175.999992370606,2|2,0:0|0:0,0:0:0:0:
361,95,3446,1,4,0:3:0:0:
466,93,3686,6,0,P|474:45|459:-11,1,87.9999961853028,2|0,0:0|0:0,0:0:0:0:
360,8,4166,2,0,P|352:51|360:94,1,87.9999961853028,2|4,0:0|0:3,0:0:0:0:
370,199,4646,2,0,P|431:224|502:183,1,131.999994277954,2|0,0:0|0:0,0:0:0:0:
497,180,5126,2,0,L|497:315,1,131.999994277954,2|0,0:0|0:0,0:0:0:0:
507,333,5606,6,0,B|406:323|406:323|343:286|343:286|239:277,1,263.999988555908,2|4,0:0|0:3,0:0:0:0:
183,203,6566,2,0,P|150:271|190:362,1,175.999992370606,2|2,0:0|0:0,0:0:0:0:
255,279,7286,1,4,0:3:0:0:
274,174,7526,6,0,P|252:137|205:111,1,87.9999961853028,2|0,0:0|0:0,0:0:0:0:
124,84,8006,2,0,B|84:75|84:75|39:85,1,82.4999964237214,2|0,0:0|0:0,0:0:0:0:
31,92,8486,6,0,P|36:242|182:203,1,346.49997440529,4|0,3:0|0:0,0:0:0:0:
178,121,9446,6,0,P|165:73|188:12,1,98.9999926872256,6|2,3:2|0:3,0:0:0:0:
296,27,9926,2,0,P|308:74|295:121,1,98.9999926872256,10|2,3:2|0:0,0:0:0:0:
256,234,10406,1,2,3:2:0:0:
258,248,10526,1,4,0:3:0:0:
262,262,10646,1,2,0:3:0:0:
267,275,10766,1,4,0:3:0:0:
275,287,10886,2,0,P|325:299|382:280,1,98.9999926872256,10|2,3:2|0:0,0:0:0:0:
485,257,11366,6,0,L|485:157,1,98.9999926872256,2|2,3:2|0:3,0:0:0:0:
492,134,11726,1,4,0:3:0:0:
492,134,11846,2,0,L|387:137,1,98.9999926872256,10|2,3:2|0:0,0:0:0:0:
273,137,12326,1,2,3:2:0:0:
260,129,12446,1,4,0:3:0:0:
249,118,12566,1,2,0:3:0:0:
241,105,12686,1,4,0:3:0:0:
233,92,12806,2,0,P|229:68|239:25,3,49.4999963436128,10|0|2|2,3:2|0:0|3:1|0:1,0:0:0:0:
225,18,13286,6,0,L|330:21,1,98.9999926872256,2|2,3:2|0:3,0:0:0:0:
348,23,13646,1,4,0:3:0:0:
348,23,13766,2,0,L|351:126,1,98.9999926872256,10|2,3:2|0:0,0:0:0:0:
361,240,14246,1,2,3:2:0:0:
360,254,14366,1,4,0:3:0:0:
353,267,14486,1,2,0:3:0:0:
347,280,14606,1,4,0:3:0:0:
342,293,14726,2,0,P|296:303|243:292,1,98.9999926872256,10|2,3:2|0:0,0:0:0:0:
222,284,15086,1,0,0:0:0:0:
222,284,15206,6,0,L|222:184,1,98.9999926872256,2|2,3:2|0:3,0:0:0:0:
223,164,15566,1,4,0:3:0:0:
223,164,15686,1,10,3:2:0:0:
135,84,15926,1,2,3:2:0:0:
36,150,16166,5,2,3:2:0:0:
28,162,16286,1,4,0:3:0:0:
23,176,16406,1,2,0:3:0:0:
19,190,16526,1,4,0:3:0:0:
15,204,16646,2,0,L|16:262,3,49.4999963436128,10|0|4|0,3:3|0:0|0:3|0:0,0:0:0:0:
18,275,17126,6,0,P|83:322|158:257,1,175.999992370606,6|4,3:2|0:3,0:0:0:0:
191,175,17846,2,0,P|256:128|331:193,1,175.999992370606,8|4,3:0|0:3,0:0:0:0:
375,274,18566,1,8,3:0:0:0:
379,286,18686,2,0,P|364:331|326:356,1,87.9999961853028,2|0,0:1|0:0,0:0:0:0:
310,360,19046,6,0,B|260:355|260:355|244:334|244:334|178:328,1,131.999994277954,2|2,3:2|0:1,0:0:0:0:
167,324,19526,1,4,0:3:0:0:
188,220,19766,2,0,B|237:215|237:215|253:194|253:194|319:188,1,131.999994277954,8|2,3:0|0:1,0:0:0:0:
331,184,20246,1,4,0:3:0:0:
420,239,20486,2,0,L|420:300,2,43.9999980926514,8|2|4,3:0|0:1|0:3,0:0:0:0:
464,142,20966,6,0,P|457:61|372:21,1,175.999992370606,2|4,3:2|0:3,0:0:0:0:
273,22,21686,2,0,P|197:59|188:143,1,175.999992370606,8|4,3:0|0:3,0:0:0:0:
213,246,22406,1,8,3:0:0:0:
218,260,22526,2,0,P|267:269|307:259,1,87.9999961853028,2|0,0:1|0:0,0:0:0:0:
314,239,22886,6,0,P|377:226|454:242,1,131.999994277954,2|2,3:2|0:1,0:0:0:0:
462,248,23366,1,4,0:3:0:0:
443,351,23606,2,0,P|380:364|303:348,1,131.999994277954,8|2,3:0|0:1,0:0:0:0:
295,342,24086,1,4,0:3:0:0:
204,288,24326,1,8,3:0:0:0:
197,277,24446,2,0,P|186:234|199:186,1,87.9999961853028,2|2,0:1|0:1,0:0:0:0:
203,171,24806,6,0,B|135:179|135:179|108:208|108:208|40:217,1,175.999992370606,6|4,3:2|0:3,0:0:0:0:
40,323,25526,2,0,B|107:331|107:331|134:360|134:360|202:369,1,175.999992370606,8|4,3:0|0:3,0:0:0:0:
301,331,26246,1,8,3:0:0:0:
312,324,26366,2,0,P|322:284|307:230,1,87.9999961853028,2|0,0:1|0:0,0:0:0:0:
302,219,26726,6,0,P|287:150|309:73,1,131.999994277954,2|2,3:2|0:1,0:0:0:0:
310,71,27206,1,4,0:3:0:0:
413,92,27446,2,0,P|427:155|415:220,1,131.999994277954,8|2,3:0|0:1,0:0:0:0:
405,240,27925,1,4,0:3:0:0:
455,333,28166,2,0,P|479:336|515:326,2,43.9999980926514,8|2|4,3:0|0:1|0:3,0:0:0:0:
352,307,28646,6,0,P|263:289|174:311,1,175.999992370606,2|4,3:2|0:3,0:0:0:0:
89,361,29366,2,0,P|107:272|86:184,1,175.999992370606,8|4,3:0|0:3,0:0:0:0:
41,95,30086,1,8,3:0:0:0:
49,83,30206,2,0,B|84:83|84:83|96:92|96:92|140:92,1,87.9999961853028,2|0,0:1|0:0,0:0:0:0:
155,77,30566,6,0,P|166:21|89:9,2,148.499989030838,2|2|8,3:2|0:1|3:0,0:0:0:0:
81,170,31526,1,2,3:1:0:0:
74,183,31646,2,0,P|63:228|81:296,1,98.9999926872256,10|0,0:3|0:0,0:0:0:0:
71,303,32006,2,0,P|51:306|19:302,2,49.4999963436128,2|4|10,3:2|0:3|3:1,0:0:0:0:
151,294,32486,6,0,B|221:306|221:306|242:348|242:348|342:365,1,219.999990463257,6|2,3:2|0:0,0:0:0:0:
453,294,33926,1,8,0:0:0:0:
342,223,34406,2,0,B|271:235|271:235|250:277|250:277|150:294,1,219.999990463257,2|2,0:3|0:0,0:0:0:0:
28,243,35846,2,0,L|28:208,3,27.4999988079071,8|4|0|4,0:0|0:3|0:0|0:3,0:0:0:0:
25,182,36326,6,0,P|48:84|161:84,1,219.999990463257,2|2,0:3|0:0,0:0:0:0:
199,201,37766,1,8,0:0:0:0:
282,98,38246,2,0,L|511:112,1,219.999990463257,2|2,0:3|0:0,0:0:0:0:
502,243,39686,2,0,L|440:246,1,61.874997317791,8|2,0:0|0:3,0:0:0:0:
365,236,40166,6,0,P|302:208|231:244,1,142.999987255097,6|8,3:2|0:0,0:0:0:0:
203,316,40886,1,0,0:0:0:0:
203,316,41126,2,0,P|139:343|75:315,1,142.999987255097,2|8,0:0|0:0,0:0:0:0:
37,243,41846,1,0,0:0:0:0:
37,243,42086,6,0,P|29:205|41:160,1,71.4999936275486,2|0,0:3|0:0,0:0:0:0:
43,87,42566,2,0,P|79:99|112:131,1,71.4999936275486,8|0,0:0|0:0,0:0:0:0:
174,169,43046,2,0,P|145:194|100:207,2,71.4999936275486,2|2|8,0:0|0:0|0:0,0:0:0:0:
230,105,43766,1,2,0:0:0:0:
230,105,43886,1,4,0:3:0:0:
230,105,44006,6,0,B|288:115|288:115|307:143|307:143|372:154,1,153.999988624573,2|8,0:3|0:0,0:0:0:0:
464,182,44726,1,4,0:3:0:0:
464,182,44846,1,4,0:3:0:0:
464,182,44966,6,0,P|504:135|452:62,1,153.999988624573,6|8,0:3|0:0,0:0:0:0:
376,29,45686,1,4,0:3:0:0:
376,29,45806,1,4,0:3:0:0:
376,29,45926,6,0,L|296:29,1,76.9999943122866,14|0,0:0|0:0,0:0:0:0:
299,29,46886,6,0,P|296:47|302:73,1,38.4999971561433,2|0,0:0|0:0,0:0:0:0:
338,142,47366,2,0,P|341:160|335:186,1,38.4999971561433,2|2,0:0|0:3,0:0:0:0:
317,331,47846,6,0,B|245:317|245:317|225:288|225:288|135:273,1,197.999985374451,6|0,3:2|0:0,0:0:0:0:
119,267,48326,1,8,3:2:0:0:
228,171,48566,1,4,0:3:0:0:
144,52,48806,2,0,P|128:114|152:189,1,131.999990249634,2|4,3:2|0:3,0:0:0:0:
275,242,49286,1,8,3:2:0:0:
374,137,49526,1,6,0:3:0:0:
374,137,49646,1,4,0:3:0:0:
374,137,49766,6,0,L|508:168,1,131.999990249634,2|4,3:2|0:3,0:0:0:0:
511,311,50246,2,0,L|377:342,1,131.999990249634,8|4,3:2|0:3,0:0:0:0:
237,350,50726,2,0,P|183:313|161:224,1,131.999990249634,2|4,3:2|0:3,0:0:0:0:
137,109,51206,2,0,P|74:64|4:153,1,197.999985374451,8|4,3:2|0:3,0:0:0:0:
7,160,51686,6,0,B|75:178|75:178|93:234|93:234|178:257,1,197.999985374451,2|0,3:2|0:0,0:0:0:0:
178,257,52166,1,8,3:2:0:0:
316,215,52406,1,4,0:3:0:0:
445,279,52646,2,0,P|459:214|440:144,1,131.999990249634,2|4,3:2|0:3,0:0:0:0:
436,138,53006,1,0,0:0:0:0:
436,138,53126,1,8,3:2:0:0:
366,22,53366,1,6,0:3:0:0:
366,22,53486,1,4,0:3:0:0:
366,22,53606,6,0,L|519:33,2,131.999990249634,2|4|8,3:2|0:3|3:2,0:0:0:0:
228,19,54326,1,4,3:0:0:0:
228,19,54446,1,2,0:1:0:0:
228,19,54566,6,0,L|149:27,1,65.9999951248171,2|0,3:2|0:0,0:0:0:0:
142,26,54806,2,0,L|76:19,1,65.9999951248171,6|0,3:0|0:0,0:0:0:0:
56,16,55046,2,0,L|56:150,1,131.999990249634,10|6,3:0|3:0,0:0:0:0:
61,172,55406,1,2,0:1:0:0:
61,172,55526,6,0,P|143:222|223:170,1,197.999985374451,6|0,3:2|0:0,0:0:0:0:
231,156,56006,1,8,3:2:0:0:
313,38,56246,1,4,0:3:0:0:
431,121,56486,2,0,P|450:179|426:257,1,131.999990249634,2|4,3:2|0:3,0:0:0:0:
351,367,56966,1,8,3:2:0:0:
218,337,57206,1,6,0:3:0:0:
218,337,57326,1,4,0:3:0:0:
218,337,57446,6,0,B|167:332|167:332|146:310|146:310|75:304,1,131.999990249634,2|4,3:2|0:3,0:0:0:0:
96,160,57926,2,0,B|146:155|146:155|167:133|167:133|238:127,1,131.999990249634,8|4,3:2|0:3,0:0:0:0:
363,123,58406,2,0,P|408:82|317:43,1,197.999985374451,2|0,3:2|0:0,0:0:0:0:
308,55,58886,1,8,3:2:0:0:
292,199,59126,1,4,3:0:0:0:
292,199,59246,1,4,0:3:0:0:
292,199,59366,6,0,P|340:224|424:206,2,131.999990249634,2|4|8,3:2|0:3|3:2,0:0:0:0:
192,92,60086,1,4,0:3:0:0:
48,111,60326,2,0,B|60:183|60:183|95:214|95:214|112:307,1,197.999985374451,2|0,3:2|0:0,0:0:0:0:
129,291,60806,2,0,B|141:218|141:218|176:187|176:187|190:111,1,197.999985374451,8|4,3:2|0:3,0:0:0:0:
192,92,61286,6,0,P|254:74|326:94,1,131.999990249634,2|2,3:2|3:1,0:0:0:0:
452,145,61766,1,10,3:0:0:0:
459,163,61886,1,0,0:0:0:0:
461,182,62006,1,6,3:0:0:0:
456,201,62126,1,2,0:1:0:0:
448,222,62246,6,0,P|477:229|527:216,2,65.9999951248171,10|2|2,3:0|0:1|3:1,0:0:0:0:
310,174,62726,1,6,3:0:0:0:
192,92,62966,1,6,3:0:0:0:
192,92,63086,1,6,0:3:0:0:
192,92,63206,6,0,P|114:68|89:156,1,181.499997671127,6|4,3:2|0:3,0:0:0:0:
90,165,63686,2,0,L|100:294,1,120.999998447418,8|6,3:0|3:0,0:0:0:0:
208,362,64166,1,2,3:1:0:0:
223,373,64286,2,0,P|281:353|281:284,1,120.999998447418,12|2,0:3|0:1,0:0:0:0:
283,283,64646,2,0,P|342:266|411:292,1,120.999998447418,8|6,3:0|3:0,0:0:0:0:
420,288,65006,1,6,0:3:0:0:
420,288,65126,6,0,L|420:148,1,120.999998447418,2|4,3:2|0:3,0:0:0:0:
391,36,65606,1,8,3:0:0:0:
292,124,65846,1,6,3:0:0:0:
190,38,66086,1,2,3:1:0:0:
176,27,66206,2,0,B|126:31|126:31|111:48|111:48|49:54,1,120.999998447418,12|2,0:3|0:1,0:0:0:0:
46,47,66566,2,0,P|40:77|46:112,3,60.4999992237091,8|2|6|6,3:0|0:1|3:0|0:3,0:0:0:0:
48,123,67046,6,0,P|116:167|201:115,1,181.499997671127,2|4,3:2|0:3,0:0:0:0:
209,110,67526,1,8,3:0:0:0:
295,211,67766,1,6,3:0:0:0:
378,107,68006,1,2,3:1:0:0:
392,120,68126,2,0,P|408:170|379:253,1,120.999998447418,12|2,0:3|0:1,0:0:0:0:
384,251,68486,2,0,P|441:277|499:236,1,120.999998447418,8|6,3:0|3:0,0:0:0:0:
494,238,68846,1,6,0:3:0:0:
494,238,68966,6,0,L|502:362,2,120.999998447418,2|4|8,3:2|0:3|3:0,0:0:0:0:
470,112,69686,1,6,3:0:0:0:
470,112,69806,1,2,0:1:0:0:
470,112,69926,6,0,P|443:112|398:125,1,60.4999992237091,2|0,3:2|0:0,0:0:0:0:
392,120,70166,2,0,P|361:119|332:112,1,60.4999992237091,4|0,3:0|0:0,0:0:0:0:
314,108,70406,2,0,P|258:85|193:129,1,120.999998447418,8|6,3:0|3:0,0:0:0:0:
198,126,70766,1,6,3:0:0:0:
198,126,70886,6,0,B|208:186|208:186|255:222|255:222|268:295,1,181.499997671127,6|4,3:2|0:3,0:0:0:0:
278,295,71366,1,8,3:0:0:0:
171,375,71606,1,6,3:0:0:0:
59,302,71846,1,2,3:1:0:0:
49,287,71966,2,0,P|34:233|55:162,1,120.999998447418,12|2,0:3|0:1,0:0:0:0:
67,164,72326,2,0,B|112:155|112:155|130:133|130:133|175:125,1,120.999998447418,8|6,3:0|3:0,0:0:0:0:
198,126,72686,1,6,0:3:0:0:
198,126,72806,6,0,B|243:133|243:133|260:156|260:156|320:166,2,120.999998447418,2|4|8,3:2|0:3|3:0,0:0:0:0:
75,71,73526,1,6,3:0:0:0:
198,20,73766,1,2,3:1:0:0:
212,8,73886,2,0,P|268:-6|341:13,1,120.999998447418,8|2,3:0|0:1,0:0:0:0:
342,18,74246,2,0,L|350:92,3,60.4999992237091,8|2|6|6,3:0|0:1|3:0|0:3,0:0:0:0:
354,95,74726,6,0,P|411:125|462:76,1,120.999998447418,2|4,3:2|0:3,0:0:0:0:
473,92,75086,1,4,0:3:0:0:
473,92,75206,2,0,L|473:218,1,120.999998447418,8|6,3:0|3:0,0:0:0:0:
492,344,75686,1,2,3:1:0:0:
478,356,75806,2,0,B|426:346|426:346|412:324|412:324|351:313,1,120.999998447418,8|2,3:0|0:1,0:0:0:0:
352,317,76166,1,8,3:0:0:0:
226,278,76406,2,0,P|220:249|230:207,1,60.4999992237091,6|6,3:0|3:0,0:0:0:0:
236,204,76646,5,6,3:2:0:0:
252,196,76766,2,0,L|388:196,1,120.999998447418,8|6,3:0|3:0,0:0:0:0:
391,196,77126,2,0,B|387:154|387:154|367:133|367:133|361:69,1,120.999998447418,12|14,3:0|3:0,0:0:0:0:
362,65,77486,1,2,0:1:0:0:
359,46,77606,2,0,P|386:37|426:37,2,60.4999992237091,12|2|6,0:3|0:1|0:3,0:0:0:0:
248,119,78086,5,8,3:0:0:0:
230,123,78206,1,2,0:1:0:0:
212,127,78326,1,10,3:1:0:0:
194,121,78446,1,2,0:1:0:0:
181,110,78566,6,0,P|169:58|183:0,1,109.999995231628,6|2,3:2|0:3,0:0:0:0:
48,4,79046,2,0,P|60:57|48:110,1,109.999995231628,10|2,3:2|0:0,0:0:0:0:
4,237,79526,1,2,3:2:0:0:
10,252,79646,1,4,0:3:0:0:
19,265,79766,1,2,0:3:0:0:
30,276,79886,1,4,0:3:0:0:
42,286,80006,2,0,P|99:304|155:277,1,109.999995231628,10|4,3:2|0:3,0:0:0:0:
169,274,80366,1,4,0:3:0:0:
169,274,80486,6,0,B|221:274|221:274|261:319,1,109.999995231628,2|2,3:2|0:3,0:0:0:0:
283,340,80846,1,4,0:3:0:0:
283,340,80966,2,0,B|334:340|334:340|375:295,1,109.999995231628,10|2,3:2|0:0,0:0:0:0:
451,189,81446,1,2,3:2:0:0:
459,174,81566,1,4,0:3:0:0:
460,157,81686,1,2,0:3:0:0:
455,141,81806,1,4,0:3:0:0:
448,125,81926,2,0,L|378:117,3,54.9999976158142,10|0|2|2,3:2|0:0|3:1|0:1,0:0:0:0:
368,106,82406,6,0,P|353:157|370:217,1,109.999995231628,2|2,3:2|0:3,0:0:0:0:
381,233,82766,1,4,0:3:0:0:
381,233,82886,2,0,L|265:243,1,109.999995231628,10|2,3:2|0:0,0:0:0:0:
138,241,83366,1,2,3:2:0:0:
122,234,83486,1,4,0:3:0:0:
108,224,83606,1,2,0:3:0:0:
98,210,83726,1,4,0:3:0:0:
87,197,83846,2,0,L|87:85,1,109.999995231628,10|2,3:2|0:0,0:0:0:0:
77,66,84206,1,0,0:0:0:0:
77,66,84326,6,0,P|131:50|196:76,1,109.999995231628,2|2,3:2|0:3,0:0:0:0:
206,85,84686,1,4,0:3:0:0:
206,85,84806,2,0,P|260:101|325:75,1,109.999995231628,12|4,3:2|0:3,0:0:0:0:
437,51,85286,1,2,3:2:0:0:
451,59,85406,1,4,0:3:0:0:
460,72,85526,1,2,0:3:0:0:
465,87,85646,1,4,0:3:0:0:
470,102,85766,2,0,L|470:223,1,109.999995231628,14|2,3:0|0:1,0:0:0:0:
441,331,86246,6,0,B|379:320|379:320|360:288|360:288|306:278,3,153.999988624573,6|2|2|2,3:2|0:0|0:0|0:0,0:0:0:0:
214,268,87926,1,0,0:0:0:0:
133,222,88166,2,0,P|125:185|138:136,1,76.9999943122866,2|0,0:0|0:0,0:0:0:0:
146,55,88646,2,0,P|181:66|216:102,1,76.9999943122866,2|0,0:0|0:0,0:0:0:0:
284,149,89126,2,0,P|256:173|207:186,1,76.9999943122866,2|4,0:0|0:3,0:0:0:0:
133,222,89606,1,2,0:0:0:0:
53,175,89846,1,4,0:3:0:0:
57,267,90086,6,0,P|113:308|194:285,3,153.999988624573,2|2|2|2,3:2|0:0|0:0|0:0,0:0:0:0:
252,219,91766,1,0,0:0:0:0:
325,275,92006,1,2,0:0:0:0:
385,205,92246,2,0,P|379:191|378:159,2,38.4999971561433,4|4|2,0:3|0:3|0:0,0:0:0:0:
416,292,92726,2,0,P|430:294|458:309,2,38.4999971561433,4|4|2,0:3|0:3|0:0,0:0:0:0:
325,275,93206,2,0,P|316:286|289:303,2,38.4999971561433,6|4|2,0:3|0:3|0:0,0:0:0:0:
385,205,93686,1,4,0:3:0:0:
322,136,93926,6,0,P|261:100|194:138,3,153.999988624573,2|2|2|2,3:2|0:0|0:0|0:0,0:0:0:0:
148,217,95606,1,0,0:0:0:0:
196,296,95846,2,0,L|282:285,1,76.9999943122866,2|0,0:0|0:0,0:0:0:0:
365,288,96326,2,0,L|441:297,2,76.9999943122866,2|0|2,0:0|0:0|0:0,0:0:0:0:
272,286,97046,1,4,0:3:0:0:
272,286,97166,1,4,0:3:0:0:
272,286,97286,2,0,P|263:250|278:202,1,76.9999943122866,2|4,0:0|0:3,0:0:0:0:
339,149,97766,6,0,B|370:157|370:157|375:164|375:164|414:176,2,76.9999943122866,2|0|2,3:2|0:0|0:0,0:0:0:0:
258,103,98486,1,4,0:3:0:0:
178,149,98726,2,0,B|146:157|146:157|141:164|141:164|102:176,2,76.9999943122866,2|0|2,0:0|0:0|0:0,0:0:0:0:
258,103,99446,1,4,0:3:0:0:
339,149,99686,5,2,0:0:0:0:
256,192,99806,12,8,101126,0:3:0:0:
510,216,101606,6,0,B|461:224|461:224|407:277|407:277|355:286,1,175.999992370606,6|4,3:2|0:3,0:0:0:0:
251,289,102326,2,0,B|201:280|201:280|146:226|146:226|98:218,1,175.999992370606,8|4,3:0|0:3,0:0:0:0:
6,165,103046,1,8,3:0:0:0:
2,153,103166,2,0,P|4:113|45:76,1,87.9999961853028,2|0,0:1|0:0,0:0:0:0:
50,63,103526,6,0,B|100:68|100:68|116:89|116:89|182:95,1,131.999994277954,2|2,3:2|0:1,0:0:0:0:
192,97,104006,1,4,0:3:0:0:
297,95,104246,2,0,B|347:90|347:90|363:69|363:69|429:63,1,131.999994277954,8|2,3:0|0:1,0:0:0:0:
439,61,104726,1,4,0:3:0:0:
506,142,104966,2,0,P|509:163|501:199,3,43.9999980926514,8|2|4|2,3:0|0:1|0:3|0:1,0:0:0:0:
502,207,105446,6,0,B|493:295|493:295|406:325,1,175.999992370606,2|4,3:2|0:3,0:0:0:0:
304,325,106166,2,0,B|221:296|221:296|212:208,1,175.999992370606,8|4,3:0|0:3,0:0:0:0:
261,115,106886,1,8,3:0:0:0:
256,101,107006,2,0,P|207:92|167:102,1,87.9999961853028,2|0,0:1|0:0,0:0:0:0:
151,111,107366,6,0,P|89:63|149:0,2,175.999992370606,2|12|6,3:2|0:3|0:3,0:0:0:0:
256,101,108566,1,4,0:3:0:0:
348,151,108806,1,8,3:0:0:0:
355,162,108926,2,0,P|366:205|353:253,1,87.9999961853028,2|2,0:1|0:1,0:0:0:0:
349,268,109286,6,0,B|417:260|417:260|444:231|444:231|512:222,1,175.999992370606,6|4,3:2|0:3,0:0:0:0:
510,116,110006,2,0,B|443:108|443:108|416:79|416:79|348:70,1,175.999992370606,8|4,3:0|0:3,0:0:0:0:
242,83,110726,1,8,3:0:0:0:
231,90,110846,2,0,P|221:130|236:184,1,87.9999961853028,2|0,0:1|0:0,0:0:0:0:
241,195,111206,6,0,P|256:264|234:341,1,131.999994277954,2|2,3:2|0:1,0:0:0:0:
233,343,111686,1,4,0:3:0:0:
130,322,111926,2,0,P|116:259|128:194,1,131.999994277954,8|2,3:0|0:1,0:0:0:0:
138,174,112405,1,4,0:3:0:0:
158,70,112646,2,0,P|182:67|218:77,3,43.9999980926514,8|2|4|2,3:0|0:1|0:3|0:1,0:0:0:0:
222,79,113126,6,0,B|273:79|273:79|307:96|307:96|337:80|337:80|402:80,1,175.999992370606,2|4,3:2|0:3,0:0:0:0:
491,52,113846,2,0,B|491:103|491:103|473:137|473:137|490:167|490:167|490:232,1,175.999992370606,8|4,3:0|0:3,0:0:0:0:
490,325,114566,1,8,3:0:0:0:
482,337,114686,2,0,P|440:346|388:333,1,87.9999961853028,2|0,0:1|0:0,0:0:0:0:
377,321,115046,6,0,L|276:335,1,98.9999926872256,2|4,3:2|0:3,0:0:0:0:
160,336,115526,2,0,L|61:322,1,98.9999926872256,2|4,3:2|0:3,0:0:0:0:
61,203,116006,2,0,L|159:189,1,98.9999926872256,2|4,3:2|0:3,0:0:0:0:
277,191,116486,2,0,L|375:204,1,98.9999926872256,2|4,3:2|0:3,0:0:0:0:
492,219,116966,5,2,3:2:0:0:
451,107,117206,1,8,3:0:0:0:
442,95,117326,2,0,P|393:82|338:103,1,98.9999926872256,6|2,0:3|0:1,0:0:0:0:
277,191,117806,1,2,0:1:0:0:
267,202,117926,6,0,P|220:215|172:202,1,98.9999926872256,2|2,3:2|0:1,0:0:0:0:
67,152,118406,2,0,P|59:119|75:77,1,65.9999951248171,14|4,3:2|0:3,0:0:0:0:
195,50,118886,6,0,B|273:63|273:63|293:87|293:87|389:104,1,197.999985374451,6|4,3:2|0:3,0:0:0:0:
393,117,119366,1,8,3:2:0:0:
284,213,119606,1,4,3:3:0:0:
368,332,119846,2,0,P|384:270|360:195,1,131.999990249634,2|4,3:2|0:3,0:0:0:0:
237,142,120326,1,8,3:2:0:0:
138,247,120566,1,6,3:0:0:0:
138,247,120686,1,6,0:3:0:0:
138,247,120806,6,0,B|58:247|58:247|5:217,1,131.999990249634,2|4,3:2|0:3,0:0:0:0:
6,77,121286,2,0,B|48:51|48:51|131:51,1,131.999990249634,8|4,3:2|3:0,0:0:0:0:
275,34,121766,2,0,P|329:71|351:160,1,131.999990249634,2|4,3:2|0:3,0:0:0:0:
385,273,122246,2,0,B|413:322|462:328|462:328|518:285|490:217,1,197.999985374451,8|4,3:2|0:3,0:0:0:0:
512,228,122726,6,0,B|466:220|466:220|393:138|393:138|329:126,1,197.999985374451,2|4,3:2|0:3,0:0:0:0:
332,125,123206,1,8,3:2:0:0:
237,14,123446,1,4,3:0:0:0:
95,47,123686,2,0,L|95:182,1,131.999990249634,2|4,3:2|0:3,0:0:0:0:
107,200,124046,1,4,0:3:0:0:
107,200,124166,1,8,3:2:0:0:
151,348,124406,1,6,3:0:0:0:
151,348,124526,1,6,0:3:0:0:
151,348,124646,6,0,P|91:368|14:342,2,131.999990249634,2|4|8,3:2|0:3|3:2,0:0:0:0:
283,279,125366,1,4,3:0:0:0:
283,279,125486,1,2,0:1:0:0:
283,279,125606,6,0,P|313:274|362:283,1,65.9999951248171,2|0,3:2|0:0,0:0:0:0:
366,284,125846,2,0,P|399:288|432:283,1,65.9999951248171,6|0,3:0|0:0,0:0:0:0:
449,276,126086,2,0,P|465:212|442:135,1,131.999990249634,10|6,3:0|3:0,0:0:0:0:
444,136,126446,1,2,0:1:0:0:
444,136,126566,6,0,P|362:86|282:138,1,197.999985374451,6|4,3:2|0:3,0:0:0:0:
273,151,127046,1,8,3:2:0:0:
194,273,127286,1,4,3:0:0:0:
53,237,127526,2,0,P|31:172|68:100,1,131.999990249634,2|4,3:2|0:3,0:0:0:0:
161,17,128006,1,8,3:2:0:0:
313,34,128246,1,6,3:0:0:0:
313,34,128366,1,4,0:3:0:0:
313,34,128486,6,0,B|364:39|364:39|385:61|385:61|456:67,1,131.999990249634,2|4,3:2|0:3,0:0:0:0:
435,210,128966,2,0,B|385:215|385:215|364:237|364:237|293:243,1,131.999990249634,8|4,3:2|3:0,0:0:0:0:
167,243,129446,2,0,P|122:284|213:323,1,197.999985374451,2|0,3:2|0:0,0:0:0:0:
222,311,129926,1,8,3:2:0:0:
238,167,130166,1,4,3:0:0:0:
238,167,130286,1,4,0:3:0:0:
238,167,130406,6,0,P|190:142|106:160,2,131.999990249634,2|4|8,3:2|0:3|3:2,0:0:0:0:
310,293,131126,1,4,3:0:0:0:
454,275,131366,2,0,B|444:144|444:144|381:85,1,197.999985374451,2|0,3:2|0:0,0:0:0:0:
375,98,131846,2,0,B|326:143|326:143|316:274,1,197.999985374451,8|4,3:2|0:3,0:0:0:0:
310,293,132326,6,0,P|248:313|181:288,1,131.999990249634,2|2,3:2|3:1,0:0:0:0:
66,211,132806,1,10,3:0:0:0:
59,193,132926,1,0,0:0:0:0:
57,174,133046,1,6,3:0:0:0:
62,155,133166,1,2,0:1:0:0:
70,134,133286,6,0,L|-6:129,2,65.9999951248171,10|2|10,3:0|0:1|3:1,0:0:0:0:
209,176,133766,1,6,3:0:0:0:
310,293,134006,1,6,3:0:0:0:
310,293,134126,1,6,0:3:0:0:
310,293,134246,6,0,B|338:329|391:323|391:323|422:283|403:227,1,181.499997671127,6|4,3:2|0:3,0:0:0:0:
402,218,134726,2,0,P|417:162|396:93,1,120.999998447418,8|6,3:0|3:0,0:0:0:0:
295,21,135206,1,2,3:1:0:0:
280,10,135326,2,0,P|222:30|222:99,1,120.999998447418,12|2,0:3|0:1,0:0:0:0:
220,100,135686,2,0,B|94:100,1,120.999998447418,8|6,3:0|3:0,0:0:0:0:
85,99,136046,1,6,0:3:0:0:
85,99,136166,6,0,P|69:156|84:214,1,120.999998447418,2|4,3:2|0:3,0:0:0:0:
135,337,136646,1,8,3:0:0:0:
232,246,136886,1,6,3:0:0:0:
338,326,137126,1,2,3:1:0:0:
352,337,137246,2,0,B|402:333|402:333|417:316|417:316|479:310,1,120.999998447418,12|2,0:3|0:1,0:0:0:0:
482,306,137606,2,0,P|488:276|482:241,3,60.4999992237091,8|2|6|6,3:0|0:1|3:0|0:3,0:0:0:0:
481,216,138086,6,0,P|413:172|328:224,1,181.499997671127,2|4,3:2|0:3,0:0:0:0:
321,230,138566,1,8,3:0:0:0:
200,172,138806,1,6,3:0:0:0:
124,281,139046,1,2,3:1:0:0:
110,268,139166,2,0,P|89:214|121:146,1,120.999998447418,12|2,0:3|0:1,0:0:0:0:
122,144,139526,2,0,P|68:164|0:132,1,120.999998447418,8|6,3:0|3:0,0:0:0:0:
3,126,139886,1,6,0:3:0:0:
6,130,140006,6,0,L|1:4,2,120.999998447418,2|4|8,3:2|0:3|3:0,0:0:0:0:
32,272,140726,1,6,3:0:0:0:
32,272,140846,1,2,0:1:0:0:
32,272,140966,6,0,L|105:267,1,60.4999992237091,2|0,3:2|0:0,0:0:0:0:
110,268,141206,2,0,L|170:272,1,60.4999992237091,6|0,3:0|0:0,0:0:0:0:
186,281,141446,2,0,P|241:304|304:271,1,120.999998447418,8|6,3:0|3:0,0:0:0:0:
306,269,141806,1,6,3:0:0:0:
306,269,141926,6,0,B|306:200|306:200|272:178|272:178|272:100,1,181.499997671127,6|4,3:2|0:3,0:0:0:0:
266,88,142406,1,8,3:0:0:0:
374,11,142646,1,6,3:0:0:0:
489,80,142886,1,2,3:1:0:0:
502,92,143006,2,0,B|503:220,1,120.999998447418,12|2,0:3|0:1,0:0:0:0:
491,227,143366,2,0,P|438:245|374:224,1,120.999998447418,8|6,3:0|3:0,0:0:0:0:
367,218,143726,1,6,0:3:0:0:
367,218,143846,6,0,P|394:271|350:329,1,120.999998447418,2|4,3:2|0:3,0:0:0:0:
243,370,144326,2,0,P|183:366|155:299,1,120.999998447418,8|6,3:0|3:0,0:0:0:0:
173,186,144806,2,0,P|205:136|277:145,2,120.999998447418,2|4|8,3:2|0:3|3:0,0:0:0:0:
154,318,145526,1,6,3:0:0:0:
154,318,145646,1,6,0:3:0:0:
154,318,145766,6,0,P|97:337|35:315,1,120.999998447418,2|2,3:2|3:1,0:0:0:0:
32,309,146126,1,2,0:1:0:0:
32,309,146246,2,0,L|32:183,1,120.999998447418,8|6,3:0|0:3,0:0:0:0:
64,58,146726,2,0,B|111:58|111:58|131:77|131:77|194:77,1,120.999998447418,2|6,3:2|3:0,0:0:0:0:
199,73,147086,1,4,0:3:0:0:
199,73,147206,2,0,P|205:102|195:144,3,60.4999992237091,8|0|6|6,3:0|0:0|3:0|3:0,0:0:0:0:
195,148,147686,6,0,L|270:138,2,65.9999951248171,2|0|2,3:2|0:0|0:0,0:0:0:0:
130,204,148406,1,4,0:3:0:0:
267,306,148886,2,0,L|201:298,2,65.9999951248171,4|2|0,0:3|0:0|0:0,0:0:0:0:
352,325,149606,5,2,3:2:0:0:
435,304,149846,1,0,0:0:0:0:
476,229,150086,1,2,0:0:0:0:
450,147,150326,2,0,P|389:125|320:156,1,131.999990249634,4|0,0:3|0:0,0:0:0:0:
260,199,151046,1,2,0:0:0:0:
105,124,151526,6,0,L|96:51,2,65.9999951248171,2|0|2,3:2|0:0|0:0,0:0:0:0:
299,292,152726,2,0,L|290:357,2,65.9999951248171,4|2|4,0:3|0:0|0:3,0:0:0:0:
414,61,153926,1,2,0:0:0:0:
337,21,154166,2,0,P|306:14|260:29,2,65.9999951248171,4|2|4,0:3|0:0|0:3,0:0:0:0:
472,126,155126,1,4,0:3:0:0:
431,201,155366,6,0,P|400:208|354:193,1,65.9999951248171,2|0,3:2|0:0,0:0:0:0:
292,158,155846,1,2,0:0:0:0:
230,217,156086,1,4,0:3:0:0:
60,244,156566,1,4,0:3:0:0:
103,318,156806,2,0,P|134:325|180:310,1,65.9999951248171,2|4,0:0|0:3,0:0:0:0:
250,295,157286,5,2,0:0:0:0:
332,270,157526,1,0,0:0:0:0:
398,323,157766,1,2,0:0:0:0:
468,274,158006,2,0,B|468:219|468:219|454:205|454:205|454:140,1,131.999990249634,4|4,0:3|0:3,0:0:0:0:
451,62,158726,1,2,0:0:0:0:
286,13,159206,6,0,L|214:23,2,65.9999951248171,2|0|2,3:2|0:0|0:0,0:0:0:0:
65,145,160406,2,0,L|137:155,2,65.9999951248171,4|2|4,0:3|0:0|0:3,0:0:0:0:
221,354,161606,1,2,0:0:0:0:
300,322,161846,2,0,P|307:291|296:250,2,65.9999951248171,4|2|6,0:3|0:0|0:3,0:0:0:0:
173,205,162806,1,6,2:3:0:0:
271,162,163046,6,0,L|358:173,2,82.4999995708466,2|0|2,3:2|0:0|0:0,0:0:0:0:
200,98,163766,1,4,0:3:0:0:
376,27,164246,1,0,0:0:0:0:
438,98,164486,2,0,P|448:135|427:196,1,82.4999995708466,2|4,0:0|0:3,0:0:0:0:
413,269,164966,6,0,L|501:282,2,82.4999995708466,2|0|2,0:0|0:0|0:0,0:0:0:0:
319,251,165686,1,4,0:3:0:0:
246,312,165926,1,2,0:0:0:0:
66,250,166406,1,2,0:0:0:0:
139,311,166646,1,4,0:3:0:0:
197,236,166886,6,0,P|206:194|194:147,1,82.4999995708466,2|0,3:2|0:0,0:0:0:0:
163,66,167366,1,2,0:0:0:0:
445,28,168086,2,0,P|436:70|448:117,1,82.4999995708466,4|2,0:3|0:0,0:0:0:0:
479,198,168566,1,0,0:0:0:0:
418,271,168806,1,2,0:0:0:0:
280,140,169286,5,2,0:0:0:0:
197,186,169526,1,4,0:3:0:0:
127,122,169766,2,0,L|121:28,1,82.4999995708466,2|4,0:0|0:3,0:0:0:0:
35,208,170486,1,4,0:3:0:0:
76,293,170726,6,0,P|114:303|168:282,1,82.4999995708466,2|0,3:2|0:0,0:0:0:0:
243,257,171206,1,2,0:0:0:0:
310,323,171446,1,4,0:3:0:0:
431,177,171926,1,0,0:0:0:0:
390,92,172166,2,0,P|352:82|298:103,1,82.4999995708466,2|4,0:0|0:3,0:0:0:0:
219,118,172646,5,2,0:0:0:0:
150,52,172886,1,0,0:0:0:0:
84,120,173126,2,0,P|46:130|-8:109,2,82.4999995708466,2|4|2,0:0|0:3|0:0,0:0:0:0:
150,52,173846,1,4,0:3:0:0:
296,172,174326,1,4,0:3:0:0:
349,250,174566,6,0,B|409:239|409:239|433:205|433:205|494:193,1,164.999999141693,2|2,3:2|0:0,0:0:0:0:
366,333,175526,2,0,B|305:322|305:322|281:288|281:288|220:276,1,164.999999141693,2|2,0:0|0:0,0:0:0:0:
129,250,176246,1,6,0:3:0:0:
57,187,176486,5,6,3:2:0:0:
256,192,176606,12,2,178406,0:0:0:0:
217,322,193766,6,0,P|303:360|248:257,1,263.999988555908,4|0,0:3|0:0,0:0:0:0:
152,231,194726,6,0,B|97:240|97:240|66:285|66:285|-12:299,2,164.999992847443,2|4|2,0:0|0:3|0:3,0:0:0:0:
255,167,195686,5,6,0:0:0:0:
373,282,195926,1,14,3:0:0:0:
453,138,196166,1,8,3:0:0:0:
447,122,196286,1,2,0:1:0:0:
438,107,196406,1,10,3:1:0:0:
426,95,196526,1,2,0:1:0:0:
414,83,196646,6,0,P|362:68|301:88,1,109.999995231628,14|10,3:0|0:3,0:0:0:0:
176,182,197126,1,6,3:0:0:0:
103,33,197366,1,6,3:0:0:0:
16,149,197606,6,0,L|29:299,1,131.999990249634,6|6,3:2|0:3,0:0:0:0:
32,299,197966,1,4,0:3:0:0:
32,299,198086,2,0,P|94:320|165:294,1,131.999990249634,8|6,3:2|3:0,0:0:0:0:
280,227,198566,1,2,3:2:0:0:
391,326,198806,1,6,0:3:0:0:
506,238,199046,2,0,L|506:97,1,131.999990249634,8|6,3:2|3:0,0:0:0:0:
502,91,199406,1,6,0:3:0:0:
502,91,199526,6,0,L|361:109,1,131.999990249634,2|6,3:2|0:3,0:0:0:0:
237,164,200006,1,8,3:2:0:0:
132,63,200246,1,6,3:0:0:0:
28,163,200486,2,0,P|23:258|112:317,1,197.999985374451,2|4,3:2|0:3,0:0:0:0:
118,321,200966,2,0,B|200:306|200:306|221:276|221:276|324:258,1,197.999985374451,8|4,3:2|0:3,0:0:0:0:
312,248,201446,6,0,P|343:308|313:367,2,131.999990249634,2|6|8,3:2|0:3|3:2,0:0:0:0:
191,169,202166,1,6,3:0:0:0:
249,36,202406,2,0,P|316:13|383:49,1,131.999990249634,2|6,3:2|0:3,0:0:0:0:
384,55,202766,1,4,0:3:0:0:
384,55,202886,2,0,L|384:201,1,131.999990249634,8|6,3:2|3:0,0:0:0:0:
386,210,203246,1,6,0:3:0:0:
386,210,203366,6,0,P|453:233|520:197,2,131.999990249634,2|6|8,3:2|0:3|3:2,0:0:0:0:
284,122,204086,1,6,3:0:0:0:
284,122,204206,1,2,0:1:0:0:
284,122,204326,6,0,L|208:142,1,65.9999951248171,2|0,3:2|0:0,0:0:0:0:
200,140,204566,2,0,L|136:123,1,65.9999951248171,6|0,3:0|0:0,0:0:0:0:
116,119,204806,2,0,L|123:253,1,131.999990249634,10|6,3:0|3:0,0:0:0:0:
123,274,205166,1,2,0:1:0:0:
123,274,205286,6,0,P|50:271|33:154,1,197.999985374451,6|4,3:2|0:3,0:0:0:0:
34,147,205766,1,8,3:2:0:0:
129,37,206006,1,6,3:0:0:0:
271,71,206246,2,0,P|295:133|265:200,1,131.999990249634,2|6,3:2|0:3,0:0:0:0:
193,313,206726,1,8,3:2:0:0:
341,353,206966,1,6,3:0:0:0:
341,353,207086,1,6,0:3:0:0:
341,353,207206,6,0,L|474:330,1,131.999990249634,2|6,3:2|0:3,0:0:0:0:
469,184,207686,2,0,L|336:161,1,131.999990249634,8|6,3:2|3:0,0:0:0:0:
213,87,208166,2,0,P|126:105|145:196,1,197.999985374451,2|4,3:2|0:3,0:0:0:0:
158,205,208646,1,8,3:2:0:0:
126,352,208886,1,6,3:0:0:0:
126,352,209006,1,6,0:3:0:0:
126,352,209126,6,0,P|62:369|-5:349,2,131.999990249634,2|6|8,3:2|0:3|3:2,0:0:0:0:
256,287,209846,1,6,3:0:0:0:
396,323,210086,2,0,B|396:242|396:242|420:218|420:218|420:115,1,197.999985374451,2|4,3:2|0:3,0:0:0:0:
420,115,210566,1,8,3:2:0:0:
291,182,210806,1,6,3:0:0:0:
200,68,211046,5,2,3:2:0:0:
67,126,211286,1,6,3:0:0:0:
57,143,211406,1,2,0:1:0:0:
50,161,211526,2,0,P|43:187|56:237,3,65.9999951248171,14|2|10|2,3:0|0:1|3:1|0:1,0:0:0:0:
61,241,212006,6,0,L|197:241,1,131.999990249634,6|2,3:2|3:0,0:0:0:0:
338,235,212486,1,8,3:0:0:0:
356,242,212606,1,4,0:3:0:0:
368,256,212726,1,6,3:0:0:0:
377,273,212846,1,4,0:3:0:0:
379,291,212966,6,0,P|317:350|271:277,1,181.499997671127,6|4,3:2|0:3,0:0:0:0:
254,280,213446,2,0,P|236:225|261:158,1,120.999998447418,8|6,3:0|3:0,0:0:0:0:
261,33,213926,1,2,3:1:0:0:
246,22,214046,2,0,L|117:22,1,120.999998447418,12|2,0:3|0:1,0:0:0:0:
107,28,214406,2,0,P|81:75|112:133,1,120.999998447418,8|6,3:0|3:0,0:0:0:0:
128,144,214766,1,6,0:3:0:0:
128,144,214886,6,0,B|73:153|73:153|57:172|57:172|17:179,2,120.999998447418,2|6|8,3:2|0:3|3:0,0:0:0:0:
259,133,215606,1,6,3:0:0:0:
380,186,215846,1,2,3:1:0:0:
394,198,215966,2,0,P|417:254|392:322,1,120.999998447418,12|2,0:3|0:1,0:0:0:0:
390,325,216326,2,0,L|319:336,3,60.4999992237091,8|2|6|6,3:0|0:1|3:0|0:3,0:0:0:0:
314,340,216806,6,0,P|235:371|135:331,1,181.499997671127,2|4,3:2|0:3,0:0:0:0:
131,331,217286,1,8,3:0:0:0:
19,257,217526,1,6,3:0:0:0:
68,133,217766,1,2,3:1:0:0:
84,125,217886,2,0,L|206:125,1,120.999998447418,12|2,0:3|0:1,0:0:0:0:
217,138,218246,2,0,P|238:83|215:29,1,120.999998447418,8|6,3:0|3:0,0:0:0:0:
347,29,218726,6,0,P|323:83|344:138,2,120.999998447418,2|6|8,3:2|0:3|3:0,0:0:0:0:
488,29,219446,1,6,3:0:0:0:
488,29,219566,1,6,0:3:0:0:
488,29,219686,6,0,P|495:60|486:94,1,60.4999992237091,2|0,3:2|0:0,0:0:0:0:
480,103,219926,2,0,P|473:134|482:168,1,60.4999992237091,6|0,3:0|0:0,0:0:0:0:
478,179,220166,2,0,L|341:179,1,120.999998447418,8|6,3:0|3:0,0:0:0:0:
345,172,220526,1,6,3:0:0:0:
345,172,220646,6,0,P|263:177|269:267,1,181.499997671127,6|4,3:2|0:3,0:0:0:0:
269,276,221126,1,8,3:0:0:0:
356,376,221366,1,6,3:0:0:0:
469,307,221606,1,2,3:1:0:0:
479,295,221726,2,0,P|492:235|475:173,1,120.999998447418,12|2,0:3|0:1,0:0:0:0:
467,163,222086,1,8,3:0:0:0:
347,131,222326,1,6,3:0:0:0:
347,131,222446,1,6,0:3:0:0:
347,131,222566,6,0,P|334:71|350:9,1,120.999998447418,2|6,3:2|0:3,0:0:0:0:
213,15,223046,2,0,P|226:73|213:132,1,120.999998447418,8|6,3:0|3:0,0:0:0:0:
185,263,223526,1,2,3:1:0:0:
177,279,223646,2,0,P|121:295|50:273,1,120.999998447418,8|2,3:0|0:1,0:0:0:0:
43,272,224006,2,0,L|36:207,3,60.4999992237091,8|2|6|6,3:0|0:1|3:0|0:3,0:0:0:0:
33,193,224486,6,0,B|37:145|37:145|53:125|53:125|59:65,1,120.999998447418,2|6,3:2|3:0,0:0:0:0:
58,63,224846,1,4,0:3:0:0:
58,63,224966,2,0,P|116:78|177:61,1,120.999998447418,8|6,3:0|0:3,0:0:0:0:
307,61,225446,1,2,3:1:0:0:
319,73,225566,2,0,L|319:198,1,120.999998447418,8|2,3:0|0:1,0:0:0:0:
327,211,225926,1,8,3:0:0:0:
232,304,226166,2,0,P|206:311|166:301,1,60.4999992237091,6|6,3:0|3:0,0:0:0:0:
155,302,226406,5,6,3:2:0:0:
138,295,226526,2,0,L|138:170,1,120.999998447418,8|6,3:0|3:0,0:0:0:0:
142,144,226886,2,0,P|83:130|10:152,1,120.999998447418,12|10,3:0|3:0,0:0:0:0:
10,154,227246,1,2,3:1:0:0:
10,154,227366,2,0,P|5:186|12:222,3,60.4999992237091,14|2|6|2,3:0|0:1|3:0|0:1,0:0:0:0:
13,231,227846,5,14,3:0:0:0:
23,245,227966,1,2,3:1:0:0:
36,256,228086,1,10,3:1:0:0:
50,267,228206,1,2,3:1:0:0:
63,275,228326,6,0,B|106:267|106:267|116:252|116:252|163:244,1,109.999995231628,6|0,3:2|0:0,0:0:0:0:
283,223,228806,2,0,P|303:283|270:330,1,109.999995231628,8|4,3:2|0:3,0:0:0:0:
273,335,229166,1,2,0:1:0:0:
273,335,229286,2,0,L|386:341,2,109.999995231628,2|0|8,3:2|0:0|3:2,0:0:0:0:
152,330,230006,1,4,0:3:0:0:
152,330,230126,1,2,0:1:0:0:
152,330,230246,6,0,L|143:208,1,109.999995231628,2|4,3:2|0:3,0:0:0:0:
59,134,230726,1,8,3:2:0:0:
164,69,230966,1,0,0:0:0:0:
164,69,231086,1,2,0:1:0:0:
164,69,231206,2,0,P|215:57|277:71,1,109.999995231628,2|4,3:2|0:3,0:0:0:0:
375,129,231686,1,8,3:2:0:0:
475,62,231926,1,4,0:3:0:0:
509,178,232166,6,0,B|502:239|502:239|477:257|477:257|470:346,1,164.999992847443,2|2,3:2|0:1,0:0:0:0:
466,346,232646,2,0,P|412:360|350:340,1,109.999995231628,8|4,3:2|0:3,0:0:0:0:
290,247,233126,2,0,B|283:185|283:185|258:167|258:167|251:78,1,164.999992847443,2|2,3:2|0:1,0:0:0:0:
248,79,233606,2,0,P|195:65|141:79,1,109.999995231628,8|4,3:2|0:3,0:0:0:0:
43,149,234086,6,0,P|30:198|51:262,2,109.999995231628,2|4|8,3:2|0:3|3:2,0:0:0:0:
142,78,234806,1,4,0:3:0:0:
142,78,234926,1,2,0:1:0:0:
142,78,235046,2,0,P|194:64|247:78,1,109.999995231628,2|4,3:2|0:3,0:0:0:0:
351,140,235526,1,8,3:0:0:0:
261,219,235766,1,6,3:0:0:0:
261,219,235886,1,4,0:3:0:0:
261,219,236006,6,0,P|202:233|145:219,1,120.999998447418,6|4,3:2|0:3,0:0:0:0:
69,108,236486,2,0,P|110:151|127:208,1,120.999998447418,8|4,3:2|0:3,0:0:0:0:
70,329,236966,2,0,P|86:271|127:228,1,120.999998447418,2|4,3:2|0:3,0:0:0:0:
201,117,237446,1,8,3:2:0:0:
329,179,237686,1,4,0:3:0:0:
329,179,237806,1,2,0:1:0:0:
329,179,237926,6,0,L|340:304,2,120.999998447418,2|4|8,3:2|0:3|3:2,0:0:0:0:
396,63,238646,1,4,0:3:0:0:
460,179,238886,2,0,L|449:304,2,120.999998447418,2|4|8,3:2|0:3|3:2,0:0:0:0:
396,63,239606,1,4,0:3:0:0:
273,10,239846,6,0,B|231:17|231:17|211:40|211:40|149:51,1,120.999998447418,2|4,3:2|0:3,0:0:0:0:
47,114,240326,2,0,B|88:121|88:121|108:144|108:144|170:155,1,120.999998447418,8|4,3:2|0:3,0:0:0:0:
289,149,240806,1,2,3:2:0:0:
240,277,241046,1,4,0:3:0:0:
240,277,241166,1,2,0:1:0:0:
240,277,241286,2,0,P|187:303|129:268,1,120.999998447418,8|4,3:2|0:3,0:0:0:0:
19,211,241766,6,0,P|0:152|33:83,1,120.999998447418,2|4,3:2|0:3,0:0:0:0:
114,5,242246,2,0,B|174:15|174:15|209:63|209:63|273:74,1,181.499997671127,8|2,3:2|0:1,0:0:0:0:
287,76,242726,2,0,B|327:68|327:68|350:36|350:36|393:29,2,120.999998447418,2|4|8,3:2|0:3|3:0,0:0:0:0:
166,132,243446,1,6,3:0:0:0:
166,132,243566,1,2,0:1:0:0:
166,132,243686,6,0,B|142:183|142:183|175:249,1,109.999995231628,6|4,3:2|0:3,0:0:0:0:
177,351,244166,2,0,B|233:346|233:346|273:284,1,109.999995231628,8|4,3:2|0:3,0:0:0:0:
362,232,244646,2,0,B|329:185|329:185|256:181,1,109.999995231628,2|4,3:2|0:3,0:0:0:0:
165,230,245126,1,8,3:2:0:0:
64,162,245366,1,4,0:3:0:0:
64,162,245486,1,2,0:1:0:0:
64,162,245606,6,0,L|56:43,2,109.999995231628,2|4|8,3:2|0:3|3:2,0:0:0:0:
78,282,246326,1,4,0:3:0:0:
177,351,246566,2,0,P|230:368|297:335,1,109.999995231628,2|4,3:2|0:3,0:0:0:0:
382,287,247046,1,8,3:2:0:0:
293,205,247286,1,4,0:3:0:0:
381,122,247526,6,0,P|434:105|501:138,1,109.999995231628,2|4,3:2|0:3,0:0:0:0:
497,138,247886,1,2,0:1:0:0:
497,138,248006,2,0,L|497:260,1,109.999995231628,8|4,3:2|0:3,0:0:0:0:
434,351,248486,2,0,P|381:368|314:335,1,109.999995231628,2|4,3:2|0:3,0:0:0:0:
322,344,248846,1,2,0:1:0:0:
322,344,248966,2,0,L|204:344,1,109.999995231628,8|4,3:2|0:3,0:0:0:0:
95,301,249446,6,0,B|98:258|98:258|116:237|116:237|121:182,1,109.999995231628,2|4,3:2|0:3,0:0:0:0:
123,185,249806,1,2,0:1:0:0:
123,185,249926,2,0,B|166:188|166:188|187:206|187:206|242:211,1,109.999995231628,8|4,3:2|3:3,0:0:0:0:
246,206,250286,1,4,0:3:0:0:
246,206,250406,2,0,P|251:182|244:145,3,54.9999976158142,10|4|2|2,3:2|0:3|3:1|0:1,0:0:0:0:
239,137,250886,1,10,3:0:0:0:
319,47,251126,1,4,0:3:0:0:
319,47,251246,1,2,0:1:0:0:
319,47,251366,6,0,L|445:39,2,109.999995231628,6|4|8,3:2|0:3|3:2,0:0:0:0:
206,0,252086,1,4,0:3:0:0:
121,89,252326,2,0,P|109:141|130:204,1,109.999995231628,2|4,3:2|0:3,0:0:0:0:
131,210,252686,1,2,0:1:0:0:
131,210,252806,2,0,L|241:210,1,109.999995231628,8|4,3:2|0:3,0:0:0:0:
261,214,253166,1,2,0:1:0:0:
261,214,253286,6,0,B|264:253|264:253|282:274|282:274|285:317,2,109.999995231628,2|4|8,3:2|0:3|3:2,0:0:0:0:
297,97,254006,1,4,0:3:0:0:
400,34,254246,2,0,P|455:21|513:38,1,109.999995231628,2|4,3:2|0:3,0:0:0:0:
508,155,254726,2,0,P|453:168|395:151,1,109.999995231628,8|4,3:2|0:3,0:0:0:0:
297,97,255206,6,0,B|255:104|255:104|240:124|240:124|190:133,1,109.999995231628,2|4,3:2|0:3,0:0:0:0:
199,252,255686,2,0,B|240:259|240:259|255:279|255:279|305:288,1,109.999995231628,8|4,3:2|0:3,0:0:0:0:
409,331,256166,1,2,3:2:0:0:
507,258,256406,1,4,0:3:0:0:
507,258,256526,1,2,0:1:0:0:
507,258,256646,2,0,P|523:207|502:147,1,109.999995231628,8|4,3:2|0:3,0:0:0:0:
423,66,257126,5,2,3:2:0:0:
367,173,257366,1,4,0:3:0:0:
248,147,257606,2,0,P|210:97|261:6,1,164.999992847443,8|2,3:2|0:1,0:0:0:0:
262,3,258086,2,0,L|149:3,1,109.999995231628,2|4,3:2|0:3,0:0:0:0:
139,6,258446,1,4,0:3:0:0:
139,6,258566,2,0,B|135:49|135:49|118:64|118:64|112:130,1,109.999995231628,8|6,3:0|3:0,0:0:0:0:
110,126,258926,1,2,0:1:0:0:
110,126,259046,6,0,P|66:143|12:122,2,98.9999926872256,6|4|8,3:2|0:3|3:2,0:0:0:0:
208,78,259766,1,4,0:3:0:0:
268,168,260006,2,0,L|268:274,2,98.9999926872256,2|4|8,3:2|0:3|3:2,0:0:0:0:
346,93,260726,1,4,0:3:0:0:
346,93,260846,1,2,0:1:0:0:
346,93,260966,6,0,P|395:99|432:152,1,98.9999926872256,2|4,3:2|0:3,0:0:0:0:
426,243,261446,2,0,P|392:278|344:284,1,98.9999926872256,8|4,3:2|0:3,0:0:0:0:
240,248,261926,1,2,3:2:0:0:
158,175,262166,1,4,0:3:0:0:
60,223,262406,2,0,P|46:267|71:330,1,98.9999926872256,8|4,3:2|0:3,0:0:0:0:
151,375,262886,6,0,L|267:375,1,98.9999926872256,6|4,3:2|0:3,0:0:0:0:
343,318,263366,1,8,3:2:0:0:
435,376,263606,1,4,0:3:0:0:
506,294,263846,2,0,P|520:247|505:200,1,98.9999926872256,2|4,3:2|0:3,0:0:0:0:
492,92,264326,2,0,P|445:78|398:93,1,98.9999926872256,12|4,3:2|0:3,0:0:0:0:
323,170,264806,5,2,3:2:0:0:
398,248,265046,1,2,0:3:0:0:
290,263,265286,2,0,P|242:227|230:139,1,148.499989030838,8|2,3:2|0:1,0:0:0:0:
237,131,265766,1,2,3:2:0:0:
141,102,266006,1,2,0:1:0:0:
141,102,266126,1,2,0:1:0:0:
141,102,266246,2,0,P|135:122|142:164,3,49.4999963436128,8|0|6|2,3:0|0:0|3:0|0:1,0:0:0:0:
139,168,266726,6,0,L|13:178,1,120.999998447418,6|2,3:2|0:0,0:0:0:0:
18,310,267206,2,0,L|144:320,1,120.999998447418,8|2,3:2|0:0,0:0:0:0:
270,299,267686,1,2,3:2:0:0:
330,180,267926,1,2,0:0:0:0:
206,230,268166,1,8,3:0:0:0:
342,269,268406,1,6,3:0:0:0:
342,269,268526,1,2,0:1:0:0:
342,269,268646,6,0,P|397:240|420:173,2,120.999998447418,2|2|8,3:2|0:0|3:2,0:0:0:0:
206,230,269366,1,2,0:0:0:0:
72,229,269606,2,0,P|54:286|77:350,1,120.999998447418,2|2,3:2|0:0,0:0:0:0:
206,343,270086,2,0,P|223:286|205:229,1,120.999998447418,12|6,3:2|3:0,0:0:0:0:
277,117,270566,6,0,B|324:124|324:124|340:142|340:142|396:152,1,120.999998447418,6|2,3:2|0:0,0:0:0:0:
512,198,271046,1,8,3:2:0:0:
395,254,271286,1,2,0:0:0:0:
395,254,271406,1,2,0:1:0:0:
395,254,271526,2,0,B|348:261|348:261|332:279|332:279|276:289,1,120.999998447418,2|2,3:2|0:0,0:0:0:0:
150,279,272006,1,8,3:0:0:0:
40,203,272246,1,6,0:3:0:0:
40,203,272366,1,2,0:1:0:0:
40,203,272486,6,0,P|19:144|48:83,2,120.999998447418,2|2|8,3:2|0:0|3:2,0:0:0:0:
150,279,273206,1,2,0:0:0:0:
251,192,273446,2,0,P|280:186|333:204,3,60.4999992237091,2|0|4|2,3:2|0:0|0:3|0:1,0:0:0:0:
326,199,273926,1,10,3:0:0:0:
437,272,274166,1,6,3:0:0:0:
437,272,274286,1,2,0:1:0:0:
437,272,274406,6,0,P|459:215|450:151,2,120.999998447418,6|2|8,3:2|0:3|3:0,0:0:0:0:
350,373,275126,1,2,0:3:0:0:
246,289,275366,2,0,L|119:302,1,120.999998447418,2|2,3:2|0:3,0:0:0:0:
111,304,275726,1,2,0:1:0:0:
111,304,275846,2,0,P|89:247|124:183,1,120.999998447418,8|6,3:0|3:0,0:0:0:0:
118,180,276206,1,2,3:1:0:0:
118,180,276326,6,0,B|71:171|71:171|52:149|52:149|-3:139,2,120.999998447418,2|2|8,3:2|0:3|3:0,0:0:0:0:
251,190,277046,1,2,0:3:0:0:
353,105,277286,1,2,3:2:0:0:
447,213,277526,1,2,0:3:0:0:
447,213,277646,1,4,0:3:0:0:
447,213,277766,2,0,P|485:168|496:91,1,120.999998447418,12|6,3:2|3:0,0:0:0:0:
397,19,278246,6,0,B|346:19|346:19|330:28|330:28|259:28,1,120.999998447418,6|2,3:2|0:3,0:0:0:0:
146,13,278726,1,8,3:0:0:0:
46,101,278966,1,2,0:3:0:0:
147,188,279206,2,0,P|200:208|262:186,1,120.999998447418,6|2,3:2|0:3,0:0:0:0:
271,176,279566,1,4,0:3:0:0:
271,176,279686,2,0,L|283:301,1,120.999998447418,8|6,3:0|3:0,0:0:0:0:
286,318,280046,1,2,3:1:0:0:
286,318,280166,6,0,B|248:324|248:324|228:349|228:349|178:358,1,120.999998447418,6|2,3:2|0:3,0:0:0:0:
160,361,280526,2,0,B|110:351|110:351|90:326|90:326|52:320,1,120.999998447418,2|2,3:2|0:3,0:0:0:0:
35,314,280886,1,10,3:0:0:0:
4,184,281126,5,2,3:2:0:0:
0,167,281246,1,2,0:1:0:0:
3,149,281366,1,2,3:1:0:0:
8,131,281486,1,2,3:1:0:0:
18,116,281606,1,10,3:0:0:0:
152,115,281846,1,4,3:0:0:0:
154,135,281966,1,2,0:1:0:0:
148,157,282086,6,0,B|173:220|239:239|309:208|322:140|322:140|310:209|330:299|462:328|578:253|548:111|458:75,1,703.999969482422,14|0,3:2|0:0,0:0:0:0:
