osu file format v14

[General]
AudioFilename: audio.mp3
AudioLeadIn: 0
PreviewTime: 56532
Countdown: 0
SampleSet: Soft
StackLeniency: 0.7
Mode: 0
LetterboxInBreaks: 0
WidescreenStoryboard: 0

[Editor]
Bookmarks: 9602,19106,38116,57126,76136,95146,104651,114156,133166,152176,171186,180691,199701,218710,237720,254354
DistanceSpacing: 2.9
BeatDivisor: 16
GridSize: 8
TimelineZoom: 2.1

[Metadata]
Title:Hisui
TitleUnicode:ヒスイ
Artist:nonoc
ArtistUnicode:nonoc
Creator:HeTo
Version:Do you find me now?
Source:
Tags:japanese jpop j-pop pop change Affirmation Dailycare
BeatmapID:3360033
BeatmapSetID:1646129

[Difficulty]
HPDrainRate:6
CircleSize:4
OverallDifficulty:8.5
ApproachRate:9.2
SliderMultiplier:2.95
SliderTickRate:1

[Events]
//Background and Video events
0,0,"bg.jpg",0,0
//Break Periods
2,95146,104081
//Storyboard Layer 0 (Background)
//Storyboard Layer 1 (Fail)
//Storyboard Layer 2 (Pass)
//Storyboard Layer 3 (Foreground)
//Storyboard Layer 4 (Overlay)
//Storyboard Sound Samples

[TimingPoints]
9602,594.059405940594,4,2,1,50,1,0
9602,-121.951219512195,4,2,1,50,0,0
14354,-98.0392156862745,4,2,1,55,0,0
16730,-1000,4,2,1,60,0,0
18512,-1000,4,2,1,10,0,0
19106,-161.290322580645,4,2,1,45,0,0
19998,-312.5,4,2,1,45,0,0
20517,-312.5,4,2,1,5,0,0
20592,-161.290322580645,4,2,1,45,0,0
22894,-161.290322580645,4,2,1,5,0,0
22968,-161.290322580645,4,2,1,45,0,0
25270,-161.290322580645,4,2,1,5,0,0
25344,-161.290322580645,4,2,1,45,0,0
27423,-161.290322580645,4,2,1,45,0,0
27646,-161.290322580645,4,2,1,45,0,0
27720,-161.290322580645,4,2,1,45,0,0
30022,-161.290322580645,4,2,1,5,0,0
30097,-161.290322580645,4,2,1,45,0,0
30913,-161.290322580645,4,2,1,5,0,0
30988,-161.290322580645,4,2,1,45,0,0
32399,-161.290322580645,4,2,1,5,0,0
32473,-161.290322580645,4,2,1,45,0,0
34255,-238.095238095238,4,2,1,50,0,0
34775,-238.095238095238,4,2,1,5,0,0
34849,-161.290322580645,4,2,1,50,0,0
36186,-238.095238095238,4,2,1,50,0,0
36631,-588.235294117647,4,2,1,50,0,0
37151,-588.235294117647,4,2,1,5,0,0
37225,-161.290322580645,4,2,1,50,0,0
37522,-121.951219512195,4,2,1,50,0,0
38116,-98.0392156862745,4,2,1,60,0,0
39304,-81.9672131147541,4,2,1,55,0,0
40493,-98.0392156862745,4,2,1,55,0,0
41681,-81.9672131147541,4,2,1,55,0,0
42869,-98.0392156862745,4,2,1,55,0,0
46433,-75.7575757575758,4,2,1,65,0,0
47027,-98.0392156862745,4,2,1,60,0,0
47621,-98.0392156862745,4,2,1,60,0,0
54453,-333.333333333333,4,2,1,60,0,0
57126,-89.2857142857143,4,2,1,70,0,0
57943,-89.2857142857143,4,2,1,5,0,0
58017,-89.2857142857143,4,2,1,70,0,0
60319,-89.2857142857143,4,2,1,5,0,0
60394,-89.2857142857143,4,2,1,70,0,0
67448,-89.2857142857143,4,2,1,5,0,0
67522,-108.695652173913,4,2,1,70,0,0
68116,-192.307692307692,4,2,1,70,0,0
68339,-192.307692307692,4,2,1,5,0,0
68413,-89.2857142857143,4,2,1,70,0,0
70493,-192.307692307692,4,2,1,70,0,0
70715,-192.307692307692,4,2,1,5,0,0
70790,-89.2857142857143,4,2,1,70,0,0
73760,-81.9672131147541,4,2,1,70,0,0
74651,-75.7575757575758,4,2,1,70,0,0
75245,-161.290322580645,4,2,1,70,0,0
75468,-161.290322580645,4,2,1,5,0,0
75542,-89.2857142857143,4,2,1,70,0,0
76953,-89.2857142857143,4,2,1,5,0,0
77027,-89.2857142857143,4,2,1,70,0,0
79329,-89.2857142857143,4,2,1,5,0,0
79403,-89.2857142857143,4,2,1,70,0,0
82597,-89.2857142857143,4,2,1,5,0,0
82671,-89.2857142857143,4,2,1,70,0,0
83265,-81.9672131147541,4,2,1,70,0,0
84750,-89.2857142857143,4,2,1,70,0,0
85641,-81.9672131147541,4,2,1,70,0,1
88017,-89.2857142857143,4,2,1,70,0,1
92770,-1000,4,2,1,70,0,0
94552,-1000,4,2,1,30,0,0
95146,-312.499999999999,4,2,1,30,0,0
104651,-238.095238095238,4,2,1,35,0,0
109403,-192.307692307692,4,2,1,35,0,0
110295,-312.499999999999,4,2,1,35,0,0
111186,-138.888888888889,4,2,1,45,0,0
114156,-98.0392156862744,4,2,1,55,0,0
115344,-81.9672131147541,4,2,1,55,0,0
116532,-98.0392156862744,4,2,1,55,0,0
117720,-81.9672131147541,4,2,1,55,0,0
118908,-98.0392156862745,4,2,1,55,0,0
122473,-75.7575757575758,4,2,1,55,0,0
123067,-98.0392156862745,4,2,1,55,0,0
123661,-98.0392156862744,4,2,1,55,0,0
130493,-238.095238095238,4,2,1,60,0,0
131903,-238.095238095238,4,2,1,5,0,0
131978,-121.951219512195,4,2,1,60,0,0
132201,-121.951219512195,4,2,1,5,0,0
132275,-108.695652173913,4,2,1,65,0,0
132349,-108.695652173913,4,2,1,5,0,0
132423,-108.695652173913,4,2,1,65,0,0
132498,-108.695652173913,4,2,1,5,0,0
132572,-108.695652173913,4,2,1,60,0,0
132646,-108.695652173913,4,2,1,5,0,0
132720,-108.695652173913,4,2,1,60,0,0
132795,-108.695652173913,4,2,1,5,0,0
132869,-108.695652173913,4,2,1,60,0,0
132943,-108.695652173913,4,2,1,5,0,0
133017,-108.695652173913,4,2,1,60,0,0
133092,-108.695652173913,4,2,1,5,0,0
133166,-89.2857142857143,4,2,1,70,0,0
133983,-89.2857142857143,4,2,1,5,0,0
134057,-89.2857142857143,4,2,1,70,0,0
136359,-89.2857142857143,4,2,1,5,0,0
136433,-89.2857142857143,4,2,1,70,0,0
143488,-89.2857142857143,4,2,1,5,0,0
143562,-108.695652173913,4,2,1,70,0,0
144156,-192.307692307692,4,2,1,70,0,0
144379,-192.307692307692,4,2,1,5,0,0
144453,-89.2857142857142,4,2,1,70,0,0
146532,-192.307692307692,4,2,1,70,0,0
146755,-192.307692307692,4,2,1,5,0,0
146829,-89.2857142857142,4,2,1,70,0,0
149800,-81.9672131147541,4,2,1,70,0,0
150691,-75.7575757575758,4,2,1,70,0,0
151285,-161.290322580645,4,2,1,70,0,0
151507,-161.290322580645,4,2,1,5,0,0
151582,-89.2857142857143,4,2,1,70,0,0
152993,-89.2857142857143,4,2,1,5,0,0
153067,-89.2857142857143,4,2,1,70,0,0
155369,-89.2857142857143,4,2,1,5,0,0
155443,-89.2857142857143,4,2,1,70,0,0
156260,-89.2857142857143,4,2,1,5,0,0
156334,-89.2857142857143,4,2,1,70,0,0
159304,-81.9672131147541,4,2,1,70,0,0
161681,-81.9672131147541,4,2,1,70,0,1
164057,-89.2857142857143,4,2,1,70,0,1
168809,-1000,4,2,1,65,0,0
171186,-277.777777777778,4,2,1,40,0,0
180691,-98.0392156862745,4,2,1,65,0,0
182399,-98.0392156862745,4,2,1,5,0,0
182473,-98.0392156862745,4,2,1,65,0,0
187151,-98.0392156862745,4,2,1,5,0,0
187225,-98.0392156862745,4,2,1,65,0,0
187819,-1000,4,2,1,65,0,0
189899,-98.0392156862745,4,2,1,60,0,0
190196,-98.0392156862745,4,2,1,60,0,0
190270,-98.0392156862745,4,2,1,65,0,0
194948,-89.2857142857143,4,2,1,65,0,0
195171,-89.2857142857143,4,2,1,5,0,0
195245,-89.2857142857143,4,2,1,65,0,0
195468,-89.2857142857143,4,2,1,5,0,0
195542,-89.2857142857143,4,2,1,65,0,0
196062,-89.2857142857143,4,2,1,5,0,0
196136,-89.2857142857143,4,2,1,65,0,0
197027,-217.391304347826,4,2,1,65,0,0
198438,-217.391304347826,4,2,1,5,0,0
198512,-121.951219512195,4,2,1,65,0,0
198735,-121.951219512195,4,2,1,5,0,0
198809,-108.695652173913,4,2,1,65,0,0
198884,-108.695652173913,4,2,1,5,0,0
198958,-108.695652173913,4,2,1,65,0,0
199032,-108.695652173913,4,2,1,5,0,0
199106,-108.695652173913,4,2,1,65,0,0
199181,-108.695652173913,4,2,1,5,0,0
199255,-108.695652173913,4,2,1,65,0,0
199329,-108.695652173913,4,2,1,5,0,0
199403,-108.695652173913,4,2,1,65,0,0
199478,-108.695652173913,4,2,1,5,0,0
199552,-108.695652173913,4,2,1,65,0,0
199626,-108.695652173913,4,2,1,5,0,0
199701,-89.2857142857143,4,2,1,70,0,0
200517,-89.2857142857143,4,2,1,5,0,0
200592,-89.2857142857143,4,2,1,70,0,0
202894,-89.2857142857143,4,2,1,5,0,0
202968,-89.2857142857143,4,2,1,70,0,0
210022,-89.2857142857143,4,2,1,5,0,0
210097,-98.0392156862745,4,2,1,70,0,0
210691,-192.307692307692,4,2,1,70,0,0
210913,-192.307692307692,4,2,1,5,0,0
210988,-89.2857142857143,4,2,1,70,0,0
212696,-89.2857142857143,4,2,1,5,0,0
212770,-89.2857142857143,4,2,1,70,0,0
213067,-192.307692307692,4,2,1,70,0,0
213290,-192.307692307692,4,2,1,5,0,0
213364,-89.2857142857143,4,2,1,70,0,0
216334,-81.9672131147541,4,2,1,70,0,0
217225,-75.7575757575758,4,2,1,70,0,0
217819,-161.290322580645,4,2,1,70,0,0
218042,-161.290322580645,4,2,1,5,0,0
218116,-89.2857142857143,4,2,1,70,0,0
219527,-89.2857142857143,4,2,1,5,0,0
219602,-89.2857142857143,4,2,1,70,0,0
221903,-89.2857142857143,4,2,1,5,0,0
221978,-89.2857142857143,4,2,1,70,0,0
225171,-89.2857142857143,4,2,1,5,0,0
225245,-89.2857142857143,4,2,1,70,0,0
225839,-81.9672131147541,4,2,1,70,0,0
227324,-89.2857142857143,4,2,1,70,0,0
228215,-89.2857142857143,4,2,1,70,0,1
230295,-81.9672131147541,4,2,1,70,0,1
230517,-81.9672131147541,4,2,1,5,0,1
230592,-89.2857142857143,4,2,1,70,0,1
235344,-89.2857142857143,4,2,1,70,0,0
235715,-89.2857142857143,4,2,1,70,0,0
235790,-89.2857142857143,4,2,1,70,0,0
237052,-89.2857142857143,4,2,1,5,0,0
237126,-89.2857142857143,4,2,1,70,0,0
237720,-89.2857142857143,4,2,1,70,0,1
238834,-89.2857142857143,4,2,1,5,0,1
238908,-89.2857142857143,4,2,1,70,0,1
241804,-89.2857142857143,4,2,1,5,0,1
241879,-89.2857142857143,4,2,1,70,0,1
245963,-89.2857142857143,4,2,1,5,0,1
246037,-89.2857142857143,4,2,1,70,0,1
247225,-89.2857142857143,4,2,1,70,0,0
247448,-89.2857142857143,4,2,1,5,0,0
247522,-89.2857142857143,4,2,1,70,0,0
250418,-89.2857142857143,4,2,1,5,0,0
250493,-89.2857142857143,4,2,1,70,0,0
251309,-89.2857142857143,4,2,1,5,0,0
251384,-89.2857142857143,4,2,1,70,0,0
253463,-108.695652173913,4,2,1,70,0,0
254057,-138.888888888889,4,2,1,70,0,0
254354,-138.888888888889,4,2,1,5,0,0

[Colours]
Combo1 : 106,103,250
Combo2 : 192,192,192
Combo3 : 128,128,191

[HitObjects]
257,19,9602,6,0,P|319:29|387:35,1,120.950001845551,2|0,1:2|1:2,0:0:0:0:
443,73,10047,1,2,0:0:0:0:
372,171,10196,6,0,P|312:161|252:155,1,120.950001845551,2|0,1:2|1:2,0:0:0:0:
193,107,10641,1,2,0:0:0:0:
257,19,10790,6,0,P|319:29|387:35,1,120.950001845551,2|0,1:2|1:2,0:0:0:0:
443,73,11235,1,2,0:0:0:0:
372,171,11384,6,0,P|310:161|242:155,1,120.950001845551,2|0,1:2|1:2,0:0:0:0:
193,107,11829,1,2,0:0:0:0:
90,183,11978,6,0,P|92:213|98:311,1,120.950001845551,2|0,1:2|1:2,0:0:0:0:
157,357,12423,1,2,0:0:0:0:
260,277,12572,6,0,P|257:246|252:149,1,120.950001845551,2|0,1:2|1:2,0:0:0:0:
172,227,13017,1,2,0:0:0:0:
260,277,13166,6,0,P|303:279|394:299,1,120.950001845551,2|0,1:2|1:2,0:0:0:0:
259,367,13611,1,2,0:0:0:0:
172,227,13760,6,0,P|113:240|52:244,1,120.950001845551,2|0,1:2|1:2,0:0:0:0:
251,358,14205,1,2,0:0:0:0:
343,211,14354,6,0,P|389:218|432:223,1,75.225000459137,2|0,1:2|1:2,0:0:0:0:
244,349,14651,2,0,P|198:356|155:361,1,75.225000459137,0|0,1:2|1:2,0:0:0:0:
380,305,14948,6,0,P|376:348|374:393,1,75.225000459137,0|0,1:2|1:2,0:0:0:0:
224,224,15245,2,0,P|221:186|218:149,1,75.225000459137,0|0,1:2|1:2,0:0:0:0:
343,211,15542,5,0,1:2:0:0:
417,221,15691,1,0,1:2:0:0:
244,349,15839,5,0,1:2:0:0:
169,359,15988,1,0,1:2:0:0:
380,305,16136,5,0,1:2:0:0:
374,379,16285,1,0,1:2:0:0:
224,224,16433,5,0,1:2:0:0:
223,205,16507,1,0,1:2:0:0:
221,186,16581,1,0,1:2:0:0:
220,167,16655,1,0,1:2:0:0:
218,149,16730,6,0,L|213:59,1,88.5,2|2,1:2|0:0,0:0:0:0:
213,60,19106,6,0,B|209:183|256:119|251:250,1,182.899992743836,2|8,1:2|0:1,0:0:0:0:
183,305,19998,2,0,P|141:312|100:316,1,82.6,2|0,0:0|0:0,0:0:0:0:
99,326,20592,1,2,1:2:0:0:
251,235,20889,1,8,0:1:0:0:
251,236,21483,6,0,P|349:240|445:256,1,182.899992743836,2|8,1:2|0:1,0:0:0:0:
384,67,22374,1,0,0:0:0:0:
384,67,22671,2,0,P|386:113|387:151,1,68.5874972789384,2|0,0:0|0:0,0:0:0:0:
396,140,22968,5,2,1:2:0:0:
225,289,23265,1,8,0:1:0:0:
216,281,23413,2,0,P|232:234|272:226,1,91.4499963719179,0|0,1:2|0:0,0:0:0:0:
325,304,23859,6,0,P|276:310|141:348,1,182.899992743836,2|8,1:2|0:1,0:0:0:0:
75,318,24750,1,2,0:0:0:0:
75,318,25047,2,0,P|77:271|77:236,1,68.5874972789384,2|0,0:0|0:0,0:0:0:0:
74,243,25344,6,0,P|114:243|129:257,1,45.7249981859589,2|0,1:2|0:0,0:0:0:0:
161,140,25641,1,8,0:1:0:0:
170,139,25790,2,0,P|201:192|194:222,1,91.4499963719179,2|0,1:2|0:0,0:0:0:0:
333,177,26235,6,0,P|301:232|270:241,1,91.4499963719179,2|0,1:2|0:0,0:0:0:0:
277,240,26681,1,0,1:2:0:0:
408,210,26829,2,0,P|452:218|498:219,1,91.4499963719179,8|0,0:1|1:2,0:0:0:0:
231,7,27423,6,0,P|234:46|236:79,1,68.5874972789384,2|0,0:0|0:0,0:0:0:0:
247,77,27720,1,2,1:2:0:0:
90,217,28017,6,0,P|63:224|36:228,1,45.7249981859589,8|0,0:1|0:0,0:0:0:0:
190,245,28314,2,0,P|217:252|244:256,1,45.7249981859589,2|0,0:0|0:0,0:0:0:0:
135,301,28611,6,0,P|138:232|139:152,1,137.174994557877,2|0,1:2|0:0,0:0:0:0:
167,96,29205,1,8,0:1:0:0:
167,96,29502,2,0,B|269:111|213:142|314:157,1,160.037493650856,2|0,0:0|0:0,0:0:0:0:
319,148,30097,5,2,1:2:0:0:
454,29,30394,1,8,0:1:0:0:
454,29,30691,2,0,P|436:52|439:97,1,68.5874972789384,2|0,0:0|0:0,0:0:0:0:
442,96,30988,6,0,P|375:110|318:147,1,137.174994557877,2|0,1:2|0:0,0:0:0:0:
274,208,31582,1,8,0:1:0:0:
274,208,31879,2,0,P|255:193|246:166,1,45.7249981859589,2|0,0:0|0:0,0:0:0:0:
386,225,32176,2,0,P|384:273|383:301,1,68.5874972789384,2|0,0:0|0:0,0:0:0:0:
390,302,32473,5,2,1:2:0:0:
232,362,32770,1,8,0:1:0:0:
226,368,32918,2,0,P|173:359|164:320,1,91.4499963719179,0|0,1:2|0:0,0:0:0:0:
274,208,33364,6,0,P|320:217|476:237,1,182.899992743836,2|8,1:2|0:1,0:0:0:0:
454,235,34255,2,0,P|471:208|453:129,1,108.412496691513,2|0,0:0|0:0,0:0:0:0:
449,135,34849,6,0,P|421:141|399:143,1,45.7249981859589,2|0,1:2|0:0,0:0:0:0:
333,88,35146,1,8,0:1:0:0:
274,20,35295,2,0,P|319:14|363:4,1,91.4499963719179,0|0,1:2|0:0,0:0:0:0:
315,204,35740,6,0,P|270:193|224:188,1,91.4499963719179,2|0,1:2|0:0,0:0:0:0:
166,133,36186,6,0,P|135:140|104:143,1,61.9499981094361,0|0,1:2|0:0,0:0:0:0:
47,207,36631,6,0,P|21:200|3:198,1,43.8812502678299,0|0,1:2|0:0,0:0:0:0:
5,199,37225,5,0,1:2:0:0:
231,48,37522,1,8,0:1:0:0:
231,48,37819,6,0,L|233:75,5,20.1583336409251,0|0|0|0|0|0,0:3|0:3|0:3|0:3|0:3|0:3,0:3:0:0:
301,103,38116,6,0,P|195:142|182:184,1,150.450000918274,6|4,1:2|3:0,0:0:0:0:
116,340,38562,1,0,0:0:0:0:
157,250,38710,1,8,0:0:0:0:
195,320,38859,1,4,0:3:0:0:
81,268,39007,2,0,P|28:276|3:281,1,75.225000459137,8|0,3:0|0:0,0:0:0:0:
184,168,39304,6,0,P|271:190|363:197,1,179.949992586289,2|0,1:2|0:0,0:0:0:0:
433,174,39750,1,4,3:0:0:0:
314,300,39899,2,0,P|359:288|407:284,1,89.9749962931444,8|0,0:0|0:0,0:0:0:0:
512,129,40196,6,0,L|510:158,4,29.9916654310481,0|0|0|0|0,1:2|0:3|0:3|0:3|0:3,0:3:0:0:
500,244,40493,5,0,0:0:0:0:
500,244,40641,1,0,0:0:0:0:
370,118,40790,2,0,P|364:41|365:30,1,75.225000459137,2|0,1:2|0:0,0:0:0:0:
444,78,41087,5,8,0:0:0:0:
331,197,41235,2,0,B|325:234|325:234|337:272,1,75.225000459137,4|0,0:3|0:0,0:0:0:0:
380,337,41532,1,0,0:0:0:0:
406,235,41681,6,0,P|316:240|226:262,1,179.949992586289,2|0,1:2|0:0,0:0:0:0:
168,312,42126,1,4,3:0:0:0:
62,179,42275,2,0,P|20:190|0:229,1,89.9749962931444,8|0,0:0|0:0,0:0:0:0:
240,384,42572,6,0,P|241:363|243:343,4,29.9916654310481,0|0|0|0|0,1:2|0:3|0:3|0:3|0:3,0:3:0:0:
154,222,42869,6,0,P|159:177|158:133,1,75.225000459137,2|0,1:2|0:0,0:0:0:0:
262,45,43166,1,0,0:0:0:0:
186,17,43314,2,0,B|142:16|142:16|106:50,1,75.225000459137,4|8,3:0|0:0,0:0:0:0:
302,171,43611,1,0,0:0:0:0:
349,109,43760,2,0,P|346:65|347:21,1,75.225000459137,4|0,0:3|0:0,0:0:0:0:
158,147,44057,5,0,1:2:0:0:
218,199,44205,1,0,0:0:0:0:
313,176,44354,5,4,0:3:0:0:
358,112,44502,1,0,1:2:0:0:
234,31,44651,5,8,0:0:0:0:
224,31,44948,6,0,L|229:85,1,37.6125002295685,0|0,1:2|0:0,0:0:0:0:
214,31,45097,2,0,L|219:85,1,37.6125002295685,4|0,0:3|0:0,0:0:0:0:
313,176,45245,6,0,B|372:188|372:188|396:208|396:208|481:223,1,150.450000918274,2|4,0:0|0:3,0:0:0:0:
429,306,45691,1,0,0:0:0:0:
315,366,45839,5,8,0:0:0:0:
251,321,45988,1,4,0:3:0:0:
153,279,46136,5,14,0:3:0:0:
80,311,46285,1,14,0:3:0:0:
192,178,46433,6,0,P|258:175|373:254,1,194.699999405823,6|0,1:2|0:0,0:0:0:0:
192,178,46879,1,0,0:0:0:0:
429,306,47027,6,0,P|335:186|186:166,1,300.900001836548,6|0,1:2|0:0,0:0:0:0:
75,284,47918,5,2,1:2:0:0:
12,327,48067,1,2,0:0:0:0:
75,284,48215,2,0,P|123:292|147:326,1,75.225000459137,10|4,0:0|0:3,0:0:0:0:
246,290,48512,5,4,0:3:0:0:
309,333,48661,1,2,0:0:0:0:
246,290,48809,2,0,P|198:298|172:398,1,150.450000918274,2|2,1:2|0:0,0:0:0:0:
318,256,49255,1,2,0:0:0:0:
364,185,49403,6,0,B|380:149|380:149|357:107,1,75.225000459137,10|4,0:0|3:0,0:0:0:0:
283,116,49701,2,0,B|266:151|266:151|281:183,1,75.225000459137,0|4,1:2|0:3,0:0:0:0:
281,183,49998,1,0,0:0:0:0:
73,48,50295,5,2,1:2:0:0:
153,115,50443,1,2,0:0:0:0:
73,181,50592,2,0,P|35:189|-10:199,1,75.225000459137,10|4,0:0|0:3,0:0:0:0:
180,25,50889,2,0,P|216:33|253:40,1,75.225000459137,2|4,1:2|0:3,0:0:0:0:
408,192,51186,6,0,P|412:119|415:34,1,150.450000918274,2|4,1:2|0:3,0:0:0:0:
414,41,51631,1,2,0:0:0:0:
314,187,51780,2,0,P|312:145|305:86,1,75.225000459137,8|4,0:0|0:3,0:0:0:0:
493,206,52077,2,0,L|494:166,4,25.0750001530457
404,267,52374,6,0,P|406:225|409:164,1,75.225000459137,6|0,1:2|0:0,0:0:0:0:
510,319,52671,2,0,B|451:332|451:332|433:357|433:357|361:376,1,150.450000918274,2|8,1:2|1:2,0:0:0:0:
317,255,53116,2,0,P|365:267|401:273,1,75.225000459137,2|4,0:0|0:3,0:0:0:0:
266,359,53413,1,0,0:0:0:0:
156,199,53562,6,0,P|152:145|148:43,1,150.450000918274,6|2,1:2|0:0,0:0:0:0:
148,48,54007,1,6,0:3:0:0:
33,142,54156,2,0,P|35:104|36:66,1,75.225000459137,8|0,1:2|0:0,0:0:0:0:
245,189,54453,6,0,B|102:200|188:270|46:285,1,221.249993247986,6|0,1:2|0:0,0:0:0:0:
323,66,56532,5,2,0:0:0:0:
342,138,56681,1,2,0:0:0:0:
415,118,56829,1,2,0:0:0:0:
395,46,56978,1,2,0:0:0:0:
238,205,57126,6,0,P|183:216|132:232,1,82.6000010083008,6|0,1:2|0:0,0:0:0:0:
382,257,57423,2,0,P|426:248|469:236,1,82.6000010083008,2|0,0:0|1:2,0:0:0:0:
326,154,57720,2,0,P|291:201|299:289,1,123.900001512451,10|0,0:0|0:0,0:0:0:0:
291,273,58017,6,0,B|222:294|222:294|206:326|206:326|122:351,1,165.200002016602,2|0,1:2|0:0,0:0:0:0:
0,216,58463,1,0,0:0:0:0:
64,168,58611,2,0,B|86:205|86:205|75:246,1,82.6000010083008,2|0,1:2|0:0,0:0:0:0:
239,338,58908,5,10,0:0:0:0:
307,296,59057,1,0,0:0:0:0:
365,351,59205,2,0,L|362:385,4,27.5333336694336
238,260,59502,6,0,P|196:252|156:246,1,82.6000010083008,2|0,1:2|0:0,0:0:0:0:
384,120,59800,2,0,P|426:128|465:133,1,82.6000010083008,2|0,0:0|1:2,0:0:0:0:
254,0,60097,2,0,B|248:89|285:50|275:159,1,123.900001512451,10|0,0:0|0:0,0:0:0:0:
285,126,60394,5,2,1:2:0:0:
311,199,60542,1,0,0:0:0:0:
129,176,60691,5,0,0:0:0:0:
179,116,60839,1,0,0:0:0:0:
227,270,60988,6,0,B|156:287|156:287|129:318|129:318|48:341,1,165.200002016602,2|8,1:2|0:0,0:0:0:0:
29,273,61433,1,0,0:0:0:0:
211,356,61582,2,0,L|252:363,4,27.5333336694336
394,216,61879,6,0,P|390:258|388:313,1,82.6000010083008,2|0,1:2|0:0,0:0:0:0:
191,200,62176,1,2,0:0:0:0:
255,151,62324,1,0,1:2:0:0:
273,291,62473,5,8,0:0:0:0:
273,291,62770,2,0,B|381:309|321:346|439:370,1,165.200002016602,2|0,1:2|0:0,0:0:0:0:
497,159,63215,1,0,0:0:0:0:
428,194,63364,2,0,B|409:158|409:158|421:118,1,82.6000010083008,2|0,1:2|0:0,0:0:0:0:
204,20,63661,5,8,0:0:0:0:
254,79,63809,1,0,0:0:0:0:
199,131,63958,2,0,L|165:138,4,27.5333336694336,2|0|0|0|0,1:2|0:0|0:0|0:0|0:0,0:0:0:0:
333,43,64255,5,2,1:2:0:0:
347,53,64403,1,0,0:0:0:0:
355,68,64552,1,0,0:0:0:0:
354,86,64701,1,0,1:2:0:0:
146,234,64849,5,10,0:0:0:0:
122,184,64998,1,0,0:0:0:0:
146,136,65146,1,0,1:2:0:0:
199,131,65295,1,0,0:0:0:0:
410,280,65443,5,0,0:0:0:0:
363,335,65592,1,0,1:2:0:0:
292,321,65740,1,0,1:2:0:0:
259,256,65889,1,0,0:0:0:0:
480,51,66037,5,10,0:0:0:0:
329,158,66186,1,2,0:0:0:0:
474,171,66334,5,2,1:2:0:0:
354,35,66483,1,2,0:0:0:0:
199,131,66631,6,0,P|156:142|110:148,1,82.6000010083008,2|0,1:2|0:0,0:0:0:0:
318,271,66928,1,2,0:0:0:0:
144,319,67077,1,0,1:2:0:0:
246,223,67225,2,0,B|209:280|209:280|242:344,1,123.900001512451,8|0,0:0|0:0,0:0:0:0:
234,341,67522,6,0,B|319:349|280:383|376:385,1,135.699995444641,2|0,1:2|0:0,0:0:0:0:
234,341,67968,1,0,0:0:0:0:
143,238,68116,6,0,P|98:243|72:252,1,57.5249996488953,2|0,1:2|0:0,0:0:0:0:
19,286,68413,1,8,0:0:0:0:
19,286,68710,2,0,P|9:252|9:250,4,27.5333336694336
98,169,69007,6,0,P|166:209|282:214,1,165.200002016602,2|2,1:2|0:0,0:0:0:0:
383,75,69453,1,0,1:2:0:0:
308,55,69602,2,0,P|269:76|245:133,1,82.6000010083008,10|0,0:0|0:0,0:0:0:0:
387,313,69899,6,0,P|387:245|341:158,1,165.200002016602,2|0,1:2|0:0,0:0:0:0:
310,277,70344,1,0,0:0:0:0:
449,181,70493,2,0,P|474:184|509:194,1,57.5249996488953,2|0,1:2|0:0,0:0:0:0:
512,185,70790,5,8,0:0:0:0:
510,109,70938,1,0,0:0:0:0:
506,33,71087,2,0,L|505:-5,4,27.5333336694336
343,160,71384,6,0,P|262:183|156:197,1,165.200002016602,2|0,1:2|0:0,0:0:0:0:
226,264,71829,1,0,0:0:0:0:
121,146,71978,2,0,P|80:134|28:135,1,82.6000010083008,8|0,0:0|0:0,0:0:0:0:
151,340,72275,6,0,P|191:291|178:189,1,165.200002016602,2|0,1:2|0:0,0:0:0:0:
92,269,72720,1,0,0:0:0:0:
262,177,72869,1,0,1:2:0:0:
78,60,73017,1,0,0:0:0:0:
181,194,73166,5,8,0:0:0:0:
181,194,73463,2,0,L|183:152,4,27.5333336694336
307,52,73760,5,2,1:2:0:0:
243,97,73908,1,2,0:0:0:0:
172,48,74057,5,2,0:0:0:0:
331,203,74205,2,0,P|243:215|174:271,1,179.949992586289,2|0,1:2|0:0,0:0:0:0:
0,81,74651,6,0,P|94:95|165:160,1,194.699999405823,10|0,1:2|0:0,0:0:0:0:
165,160,75097,1,0,1:2:0:0:
14,309,75245,2,0,P|-5:275|2:241,1,68.5874972789384,2|0,1:2|0:0,0:0:0:0:
5,238,75542,5,10,0:0:0:0:
120,310,75691,1,2,0:0:0:0:
234,368,75839,5,2,1:2:0:0:
301,329,75988,1,2,0:0:0:0:
402,269,76136,6,0,P|446:276|498:286,1,82.6000010083008,6|0,1:2|0:0,0:0:0:0:
231,154,76433,2,0,P|190:147|149:139,1,82.6000010083008,2|0,0:0|1:2,0:0:0:0:
301,329,76730,2,0,P|324:275|305:188,1,123.900001512451,10|0,0:0|0:0,0:0:0:0:
307,198,77027,6,0,B|287:162|259:126|259:126|282:99|313:44,1,165.200002016602,2|0,1:2|0:0,0:0:0:0:
376,86,77473,1,0,0:0:0:0:
233,230,77621,2,0,B|194:245|194:245|154:235,1,82.6000010083008,2|0,1:2|0:0,0:0:0:0:
1,76,77918,5,10,0:0:0:0:
64,29,78067,1,2,0:0:0:0:
125,81,78215,2,0,L|121:128,4,27.5333336694336
43,235,78512,6,0,P|14:206|17:158,1,82.6000010083008,2|0,1:2|0:0,0:0:0:0:
182,4,78809,2,0,P|211:33|208:81,1,82.6000010083008,2|0,0:0|1:2,0:0:0:0:
148,186,79106,2,0,B|198:200|198:200|221:222|221:222|286:237,1,123.900001512451,10|0,0:0|0:0,0:0:0:0:
261,221,79403,6,0,P|218:232|173:246,1,82.6000010083008,2|0,1:2|0:0,0:0:0:0:
393,314,79701,2,0,P|432:325|472:336,1,82.6000010083008
336,167,79998,6,0,P|308:209|316:325,1,165.200002016602,2|8,1:2|0:0,0:0:0:0:
313,319,80443,1,0,0:0:0:0:
491,193,80592,2,0,L|494:162,4,27.5333336694336
352,36,80889,6,0,P|301:47|257:51,1,82.6000010083008,2|0,1:2|0:0,0:0:0:0:
416,158,81186,1,2,0:0:0:0:
253,242,81334,1,0,1:2:0:0:
329,163,81483,2,0,P|333:213|336:266,1,82.6000010083008,10|0,0:0|0:0,0:0:0:0:
179,380,81780,6,0,P|169:323|268:249,1,165.200002016602,2|0,1:2|0:0,0:0:0:0:
292,308,82225,1,0,0:0:0:0:
135,195,82374,2,0,B|81:207|81:207|65:226|65:226|15:238,1,123.900001512451,2|0,1:2|0:0,0:0:0:0:
12,231,82671,6,0,P|7:181|2:140,1,82.6000010083008,8|0,0:0|0:0,0:0:0:0:
142,273,82968,2,0,P|144:298|147:318,4,27.5333336694336,2|0|0|0|0,1:2|0:0|0:0|0:0|0:0,0:0:0:0:
291,142,83265,6,0,P|349:144|457:223,1,179.949992586289,2|0,1:2|0:0,0:0:0:0:
190,197,83710,2,0,P|162:145|177:12,1,179.949992586289,2|0,1:2|0:0,0:0:0:0:
290,255,84156,5,2,1:2:0:0:
229,303,84304,1,0,0:0:0:0:
448,209,84453,5,0,0:0:0:0:
289,127,84602,1,0,1:2:0:0:
388,48,84750,6,0,B|411:88|411:88|386:137,1,82.6000010083008,2|0,1:2|0:0,0:0:0:0:
229,303,85047,1,8,0:0:0:0:
159,264,85196,2,0,B|62:287|113:324|-2:349,1,165.200002016602,0|0,1:2|0:0,0:0:0:0:
54,90,85641,5,2,1:2:0:0:
126,55,85790,1,0,0:0:0:0:
191,97,85938,1,0,0:0:0:0:
190,175,86087,1,0,1:2:0:0:
388,45,86235,6,0,P|428:57|482:64,1,89.9749962931444,8|0,0:0|0:0,0:0:0:0:
275,216,86532,2,0,P|187:229|98:268,1,179.949992586289,2|0,1:2|0:0,0:0:0:0:
47,213,86978,1,0,0:0:0:0:
267,329,87126,2,0,P|307:341|359:347,1,89.9749962931444,0|0,1:2|0:0,0:0:0:0:
396,276,87423,5,8,0:0:0:0:
195,379,87572,1,0,0:0:0:0:
50,199,87720,2,0,L|54:159,4,29.9916654310481
5,344,88017,5,2,1:2:0:0:
45,366,88166,1,0,0:0:0:0:
89,353,88314,1,0,0:0:0:0:
103,308,88463,1,0,1:2:0:0:
260,148,88611,6,0,P|300:149|337:169,1,82.6000010083008,8|0,0:0|0:0,0:0:0:0:
189,368,88908,2,0,P|170:331|174:200,1,165.200002016602,0|2,1:2|0:0,0:0:0:0:
330,63,89354,1,0,0:0:0:0:
210,28,89502,5,0,1:2:0:0:
336,168,89651,1,2,0:0:0:0:
490,36,89800,6,0,P|441:31|404:20,1,82.6000010083008,8|0,0:0|0:0,0:0:0:0:
232,145,90097,2,0,P|253:146|278:153,4,27.5333336694336
387,272,90394,6,0,P|388:189|395:107,1,165.200002016602,2|0,1:2|0:0,0:0:0:0:
477,184,90839,1,0,0:0:0:0:
303,295,90988,1,8,0:0:0:0:
303,295,91285,6,0,P|384:305|436:384,1,165.200002016602,2|0,1:2|0:0,0:0:0:0:
203,328,91730,1,0,0:0:0:0:
138,376,91879,2,0,B|110:337|110:337|128:300,1,82.6000010083008,8|0,0:0|0:0,0:0:0:0:
306,129,92176,6,0,P|304:194|303:316,1,165.200002016602,6|0,1:2|0:0,0:0:0:0:
300,373,92621,1,0,0:0:0:0:
103,223,92770,6,0,L|15:235,1,88.5,8|0,1:2|0:0,0:0:0:0:
277,218,104651,6,0,P|279:167|281:116,1,92.9249971641541,2|0,1:2|0:0,0:0:0:0:
263,52,105245,1,8,0:1:0:0:
263,52,105542,2,0,P|297:82|373:74,1,123.899996218872,2|0,0:0|1:2,0:0:0:0:
277,218,106433,1,8,0:1:0:0:
277,218,107027,6,0,P|225:226|178:240,1,92.9249971641541,2|0,1:2|0:0,0:0:0:0:
132,295,107621,2,0,P|107:263|106:238,1,61.9499981094361,8|0,0:1|0:0,0:0:0:0:
187,175,108215,6,0,P|186:208|186:247,1,61.9499981094361,2|0,0:0|1:2,0:0:0:0:
107,163,108661,1,0,0:0:0:0:
76,89,108809,1,8,0:1:0:0:
73,82,108958,2,0,P|74:49|74:10,1,61.9499981094361,0|0,1:2|0:0,0:0:0:0:
187,175,109403,6,0,B|95:184|139:220|45:235,1,153.399999063721,2|8,1:2|0:1,0:0:0:0:
49,234,110295,2,0,P|58:257|62:334,1,94.4,2|0,0:0|1:2,0:0:0:0:
187,175,111186,5,10,0:0:0:0:
297,117,111334,2,0,B|392:126|345:168|444:179,1,159.30000388916,2|0,1:2|1:2,0:0:0:0:
256,192,112374,12,0,113562,0:0:0:0:
56,1,114156,6,0,P|54:62|43:173,1,150.450000918274,6|4,1:2|0:3,0:0:0:0:
206,265,114602,1,0,0:0:0:0:
117,193,114750,1,8,0:0:0:0:
194,173,114899,1,12,0:3:0:0:
123,279,115047,2,0,P|79:286|48:297,1,75.225000459137,4|0,0:3|0:0,0:0:0:0:
269,196,115344,6,0,P|325:189|450:139,1,179.949992586289,2|0,1:2|0:0,0:0:0:0:
498,92,115790,1,4,0:3:0:0:
368,279,115938,2,0,P|417:257|470:248,1,89.9749962931444,8|0,0:0|0:0,0:0:0:0:
252,75,116235,6,0,L|250:114,4,29.9916654310481,2|0|0|0|0,1:2|0:0|0:0|0:0|0:0,0:0:0:0:
331,42,116532,5,0,0:0:0:0:
331,42,116681,1,0,0:0:0:0:
178,157,116829,2,0,P|132:177|86:172,1,75.225000459137,2|0,1:2|0:0,0:0:0:0:
345,306,117126,5,8,0:0:0:0:
257,178,117275,2,0,P|261:226|261:277,1,75.225000459137,4|0,0:3|0:0,0:0:0:0:
217,317,117572,1,0,0:0:0:0:
338,127,117720,6,0,P|340:231|346:307,1,179.949992586289,2|4,1:2|0:0,0:0:0:0:
368,383,118166,1,4,0:3:0:0:
171,222,118314,2,0,P|176:281|177:343,1,89.9749962931444,8|0,0:0|0:0,0:0:0:0:
338,127,118611,2,0,P|339:102|341:78,4,29.9916654310481,4|0|0|0|0,0:3|0:0|0:0|0:0|0:0,0:0:0:0:
170,29,118908,6,0,P|131:41|80:49,1,75.225000459137,2|0,1:2|0:0,0:0:0:0:
171,222,119205,1,0,0:0:0:0:
250,239,119354,2,0,P|286:247|328:259,1,75.225000459137,12|8,0:3|0:0,0:0:0:0:
153,145,119651,1,0,0:0:0:0:
77,129,119800,2,0,P|35:121|-8:117,1,75.225000459137,2|0,1:2|0:0,0:0:0:0:
171,222,120097,5,0,1:2:0:0:
153,145,120245,1,0,0:0:0:0:
15,214,120394,5,4,0:3:0:0:
33,292,120542,1,0,1:2:0:0:
110,371,120691,5,8,0:0:0:0:
110,358,120988,6,0,L|157:364,1,37.6125002295685,0|0,1:2|0:0,0:0:0:0:
110,346,121136,2,0,L|157:352,1,37.6125002295685,4|0,0:3|0:0,0:0:0:0:
308,291,121285,6,0,B|368:309|368:309|388:333|388:333|466:356,1,150.450000918274,2|0,0:0|1:2,0:0:0:0:
438,269,121730,1,0,0:0:0:0:
289,374,121879,5,8,0:0:0:0:
225,327,122027,1,4,0:3:0:0:
248,222,122176,5,8,0:3:0:0:
323,195,122324,1,8,0:3:0:0:
194,34,122473,6,0,P|143:84|126:216,1,194.699999405823,6|0,1:2|0:0,0:0:0:0:
194,34,122918,1,0,0:0:0:0:
138,288,123067,6,0,P|105:153|195:15,1,300.900001836548,6|0,1:2|0:0,0:0:0:0:
138,288,123958,5,6,1:2:0:0:
74,334,124106,1,2,0:0:0:0:
138,288,124255,2,0,P|184:295|227:310,1,75.225000459137,10|4,0:0|0:3,0:0:0:0:
349,318,124552,5,4,0:3:0:0:
399,375,124701,1,0,0:0:0:0:
349,318,124849,2,0,B|246:329|304:371|193:385,1,150.450000918274,2|0,1:2|0:0,0:0:0:0:
332,217,125295,1,4,0:3:0:0:
402,181,125443,6,0,P|449:186|467:219,1,75.225000459137,10|4,0:0|3:0,0:0:0:0:
253,254,125740,2,0,P|206:249|188:216,1,75.225000459137,2|0,1:2|0:0,0:0:0:0:
190,228,126037,1,0,0:0:0:0:
397,41,126334,5,2,1:2:0:0:
322,105,126483,1,2,0:0:0:0:
402,181,126631,2,0,B|424:148|424:148|404:111,1,75.225000459137,10|4,0:0|0:3,0:0:0:0:
267,36,126928,2,0,P|230:45|188:50,1,75.225000459137,4|8,0:3|0:3,0:0:0:0:
324,218,127225,6,0,P|406:228|487:248,1,150.450000918274,2|8,1:2|0:3,0:0:0:0:
471,243,127671,1,2,0:0:0:0:
300,308,127819,2,0,P|338:312|374:321,1,75.225000459137,8|0,0:0|0:0,0:0:0:0:
281,142,128116,2,0,P|302:139|323:134,4,25.0750001530457,2|0|0|0|0,0:0|0:0|0:0|0:0|0:0,0:0:0:0:
368,332,128413,6,0,P|331:322|294:318,1,75.225000459137,6|0,1:2|0:0,0:0:0:0:
163,187,128710,2,0,B|158:293|196:234|189:358,1,150.450000918274,4|0,0:3|1:2,0:0:0:0:
247,214,129156,2,0,P|283:222|320:225,1,75.225000459137,2|4,0:0|0:3,0:0:0:0:
389,265,129453,1,0,0:0:0:0:
189,332,129602,6,0,P|123:299|47:294,1,150.450000918274,6|0,1:2|0:0,0:0:0:0:
47,293,130047,1,4,0:3:0:0:
247,214,130196,2,0,P|245:164|217:121,1,75.225000459137,0|0,1:2|0:0,0:0:0:0:
149,23,130493,6,0,P|65:31|22:213,1,294.262491019821,14|0,1:2|0:0,0:0:0:0:
18,208,131978,6,0,P|70:203|123:194,1,90.7125013841629,2|0,1:2|0:0,0:0:0:0:
180,229,132275,2,0,L|232:235,1,33.9249988611603,2|0,0:0|0:0,0:0:0:0:
175,239,132423,2,0,L|227:245,1,33.9249988611603
313,218,132572,6,0,L|314:174,1,33.9249988611603,2|0,0:0|0:0,0:0:0:0:
323,226,132720,2,0,L|324:182,1,33.9249988611603,2|0,0:0|0:0,0:0:0:0:
245,98,132869,6,0,L|244:54,1,33.9249988611603,2|0,0:0|0:0,0:0:0:0:
235,106,133017,2,0,L|234:62,1,33.9249988611603,2|0,0:0|0:0,0:0:0:0:
317,22,133166,6,0,P|407:36|428:38,1,82.6000010083008,6|0,1:2|0:0,0:0:0:0:
208,242,133463,2,0,P|192:203|178:164,1,82.6000010083008,2|0,0:0|1:2,0:0:0:0:
345,170,133760,2,0,B|395:183|395:183|412:205|412:205|473:218,1,123.900001512451,10|0,0:0|0:0,0:0:0:0:
460,203,134057,6,0,P|417:212|377:324,1,165.200002016602,2|0,1:2|0:0,0:0:0:0:
425,370,134502,1,0,0:0:0:0:
279,306,134651,2,0,P|236:315|178:326,1,82.6000010083008,2|0,1:2|0:0,0:0:0:0:
17,169,134948,5,10,0:0:0:0:
91,139,135097,1,2,0:0:0:0:
140,202,135245,2,0,L|137:240,4,27.5333336694336
17,91,135542,6,0,P|21:39|22:1,1,82.6000010083008,2|0,1:2|0:0,0:0:0:0:
226,153,135839,2,0,P|178:175|145:193,1,82.6000010083008,2|0,0:0|1:2,0:0:0:0:
187,1,136136,2,0,B|267:11|225:36|317:48,1,123.900001512451,10|0,0:0|0:0,0:0:0:0:
311,39,136433,5,2,1:2:0:0:
343,109,136582,1,0,0:0:0:0:
258,223,136730,5,0,0:0:0:0:
226,153,136879,1,0,0:0:0:0:
379,241,137027,6,0,P|316:242|240:327,1,165.200002016602,2|8,1:2|0:0,0:0:0:0:
222,384,137473,1,0,0:0:0:0:
87,261,137621,2,0,L|91:218,4,27.5333336694336
219,80,137918,6,0,B|242:117|242:117|224:155,1,82.6000010083008,2|0,1:2|0:0,0:0:0:0:
76,43,138215,1,2,0:0:0:0:
117,106,138364,1,0,1:2:0:0:
2,228,138512,5,8,0:0:0:0:
2,228,138809,2,0,P|71:236|178:269,1,165.200002016602,2|0,1:2|0:0,0:0:0:0:
322,137,139255,1,0,0:0:0:0:
393,234,139403,2,0,B|356:243|356:243|309:223,1,82.6000010083008,2|0,1:2|0:0,0:0:0:0:
138,41,139701,5,8,0:0:0:0:
205,3,139849,1,0,0:0:0:0:
255,62,139998,2,0,L|251:104,4,27.5333336694336,2|0|0|0|0,1:2|0:0|0:0|0:0|0:0,0:0:0:0:
91,191,140295,5,2,1:2:0:0:
88,173,140443,1,0,0:0:0:0:
85,156,140592,1,0,0:0:0:0:
83,139,140740,1,0,1:2:0:0:
167,295,140889,5,8,0:0:0:0:
135,324,141037,1,0,0:0:0:0:
103,350,141186,1,0,1:2:0:0:
73,378,141334,1,0,0:0:0:0:
240,169,141483,5,0,0:0:0:0:
307,198,141631,1,0,1:2:0:0:
375,227,141780,1,0,1:2:0:0:
441,259,141928,1,0,0:0:0:0:
261,24,142077,5,10,0:0:0:0:
403,152,142225,1,2,0:0:0:0:
240,169,142374,5,2,1:2:0:0:
394,47,142522,1,2,0:0:0:0:
323,184,142671,6,0,P|318:129|317:78,1,82.6000010083008,2|0,1:2|0:0,0:0:0:0:
185,256,142968,1,2,0:0:0:0:
68,126,143116,1,0,1:2:0:0:
163,181,143265,2,0,B|114:204|114:204|104:224|104:224|39:255,1,123.900001512451,8|0,0:0|0:0,0:0:0:0:
53,251,143562,6,0,P|117:271|144:357,1,135.699995444641,2|0,1:2|0:0,0:0:0:0:
53,251,144007,1,0,0:0:0:0:
278,347,144156,6,0,P|240:351|206:360,1,63.9166662765503,2|0,1:2|0:0,0:0:0:0:
146,329,144453,1,8,0:0:0:0:
146,329,144750,2,0,P|144:309|140:285,4,27.5333336694336
246,241,145047,6,0,P|315:264|418:271,1,165.200002016602,2|0,1:2|0:0,0:0:0:0:
240,147,145493,1,2,1:2:0:0:
166,172,145641,2,0,P|129:204|109:245,1,82.6000010083008,8|0,0:0|0:0,0:0:0:0:
326,162,145938,6,0,P|311:91|266:0,1,165.200002016602,2|0,1:2|0:0,0:0:0:0:
240,147,146384,1,0,0:0:0:0:
397,67,146532,6,0,P|425:72|467:76,1,57.5249996488953,2|0,1:2|0:0,0:0:0:0:
463,71,146829,5,8,0:0:0:0:
475,149,146978,1,0,0:0:0:0:
486,228,147126,2,0,L|489:264,4,27.5333336694336
326,162,147423,6,0,B|218:182|284:219|164:241,1,165.200002016602,2|0,1:2|0:0,0:0:0:0:
152,165,147869,1,0,0:0:0:0:
325,258,148017,2,0,P|371:269|420:274,1,82.6000010083008,8|0,0:0|0:0,0:0:0:0:
190,369,148314,6,0,P|129:355|13:346,1,165.200002016602,2|0,1:2|0:0,0:0:0:0:
183,236,148760,1,0,0:0:0:0:
25,139,148908,1,0,1:2:0:0:
88,235,149057,1,0,0:0:0:0:
182,94,149205,5,10,0:0:0:0:
182,94,149502,2,0,L|222:100,4,27.5333336694336
45,8,149800,5,2,1:2:0:0:
88,74,149948,1,2,0:0:0:0:
25,139,150097,5,2,0:0:0:0:
185,12,150245,2,0,P|231:22|379:40,1,179.949992586289,2|0,1:2|0:0,0:0:0:0:
207,213,150691,6,0,P|99:224|-6:245,1,194.699999405823,10|0,1:2|0:0,0:0:0:0:
14,240,151136,1,0,1:2:0:0:
181,94,151285,2,0,P|199:98|260:105,1,68.5874972789384,2|0,1:2|0:0,0:0:0:0:
263,102,151582,5,10,0:0:0:0:
377,160,151730,1,2,0:0:0:0:
509,233,151879,5,2,0:0:0:0:
437,265,152027,1,2,0:0:0:0:
293,375,152176,6,0,P|269:340|279:295,1,82.6000010083008,6|0,1:2|0:0,0:0:0:0:
358,87,152473,2,0,P|382:122|372:167,1,82.6000010083008,2|0,0:0|1:2,0:0:0:0:
192,295,152770,2,0,P|204:253|283:221,1,123.900001512451,10|0,0:0|0:0,0:0:0:0:
281,227,153067,6,0,B|220:214|220:214|194:188|194:188|112:170,1,165.200002016602,2|0,1:2|0:0,0:0:0:0:
80,237,153512,1,0,0:0:0:0:
272,140,153661,2,0,P|315:135|373:128,1,82.6000010083008,2|0,1:2|0:0,0:0:0:0:
71,0,153958,5,10,0:0:0:0:
117,62,154106,1,2,0:0:0:0:
56,114,154255,2,0,P|31:116|5:121,4,27.5333336694336
224,0,154552,6,0,P|217:56|216:97,1,82.6000010083008,2|0,1:2|0:0,0:0:0:0:
73,206,154849,2,0,P|70:164|64:123,1,82.6000010083008,2|0,0:0|1:2,0:0:0:0:
188,231,155146,2,0,B|234:239|234:239|254:264|254:264|324:275,1,123.900001512451,10|0,0:0|0:0,0:0:0:0:
303,262,155443,6,0,B|245:273|245:273|214:312|214:312|154:325,1,165.200002016602,2|0,1:2|0:0,0:0:0:0:
296,165,155889,1,0,0:0:0:0:
237,111,156037,6,0,B|214:84|196:67|196:67|220:40|243:12,1,123.900001512451,2|0,1:2|0:0,0:0:0:0:
248,13,156334,2,0,P|302:26|349:31,1,82.6000010083008,8|0,0:0|0:0,0:0:0:0:
140,147,156631,2,0,P|117:152|97:154,4,27.5333336694336
295,236,156928,6,0,B|316:197|316:197|291:157,1,82.6000010083008,2|0,1:2|0:0,0:0:0:0:
182,262,157225,1,2,0:0:0:0:
309,360,157374,1,0,1:2:0:0:
228,339,157522,6,0,P|184:349|148:361,1,82.6000010083008,10|0,0:0|0:0,0:0:0:0:
396,192,157819,2,0,P|454:202|486:313,1,165.200002016602,2|0,1:2|0:0,0:0:0:0:
429,339,158265,1,0,0:0:0:0:
222,181,158413,6,0,P|205:136|269:70,1,123.900001512451,2|0,1:2|0:0,0:0:0:0:
255,74,158710,2,0,P|305:85|343:90,1,82.6000010083008,8|0,0:0|0:0,0:0:0:0:
137,193,159007,2,0,P|123:190|109:188,4,27.5333336694336,2|0|0|0|0,1:2|0:0|0:0|0:0|0:0,0:0:0:0:
324,361,159304,6,0,B|337:238|291:314|303:166,1,179.949992586289,2|0,1:2|0:0,0:0:0:0:
196,6,159750,2,0,B|183:132|232:55|220:203,1,179.949992586289,2|0,1:2|0:0,0:0:0:0:
98,377,160196,5,2,1:2:0:0:
26,340,160344,1,0,0:0:0:0:
67,254,160493,5,0,0:0:0:0:
221,180,160641,1,0,1:2:0:0:
35,41,160790,6,0,B|16:86|16:86|40:136,1,89.9749962931444,2|0,1:2|0:0,0:0:0:0:
272,241,161087,1,8,0:0:0:0:
221,180,161235,2,0,B|156:198|156:198|129:238|129:238|56:258,1,179.949992586289,0|0,1:2|0:0,0:0:0:0:
323,0,161681,5,2,1:2:0:0:
336,72,161829,1,0,0:0:0:0:
348,145,161978,1,0,0:0:0:0:
360,218,162126,1,0,1:2:0:0:
197,80,162275,6,0,P|148:92|100:98,1,89.9749962931444,8|0,0:0|0:0,0:0:0:0:
300,265,162572,2,0,B|350:239|399:277|399:277|416:314|458:318,1,179.949992586289,0|0,1:2|0:0,0:0:0:0:
469,239,163017,1,0,0:0:0:0:
225,376,163166,2,0,P|183:371|174:313,1,89.9749962931444,0|0,1:2|0:0,0:0:0:0:
169,251,163463,5,8,0:0:0:0:
328,379,163612,1,0,0:0:0:0:
471,227,163760,2,0,L|475:187,4,29.9916654310481
512,358,164057,5,2,1:2:0:0:
470,350,164205,1,0,0:0:0:0:
430,341,164354,1,0,0:0:0:0:
388,334,164502,1,0,1:2:0:0:
222,187,164651,6,0,B|205:147|205:147|236:100,1,82.6000010083008,8|0,0:0|0:0,0:0:0:0:
388,253,164948,2,0,B|328:267|328:267|303:302|303:302|238:321,1,165.200002016602,0|2,1:2|0:0,0:0:0:0:
97,175,165394,1,0,0:0:0:0:
222,187,165542,5,2,1:2:0:0:
71,297,165691,1,2,0:0:0:0:
175,368,165839,6,0,B|194:329|194:329|168:284,1,82.6000010083008,8|0,0:0|0:0,0:0:0:0:
20,188,166136,2,0,L|23:231,4,27.5333336694336
159,100,166433,6,0,B|262:102|208:157|318:161,1,165.200002016602,2|0,1:2|0:0,0:0:0:0:
171,205,166879,1,0,0:0:0:0:
305,79,167027,1,8,0:0:0:0:
305,79,167324,6,0,P|295:149|286:265,1,165.200002016602,2|0,1:2|0:0,0:0:0:0:
160,102,167770,1,0,0:0:0:0:
96,148,167918,2,0,B|75:114|75:114|89:64,1,82.6000010083008,8|0,0:0|0:0,0:0:0:0:
218,280,168215,6,0,P|275:285|386:298,1,165.200002016602,2|0,1:2|0:0,0:0:0:0:
459,309,168661,1,0,0:0:0:0:
401,99,168809,6,0,P|396:155|391:210,1,110.625,10|0,0:0|0:0,0:0:0:0:
296,300,171186,6,0,P|251:295|225:265,2,79.6500019445801,2|2|2,0:0|0:0|0:0,0:0:0:0:
286,225,172374,2,0,B|173:235|228:289|116:301,1,185.850004537354,2|0,0:0|0:0,0:0:0:0:
49,151,173562,6,0,P|78:156|106:198,2,79.6500019445801,2|2|2,0:0|0:0|0:0,0:0:0:0:
41,225,174750,2,0,P|93:205|202:181,1,159.30000388916,2|0,0:0|0:0,0:0:0:0:
272,196,175790,1,0,0:0:0:0:
348,131,175938,6,0,P|350:97|351:45,1,79.6500019445801,2|2,0:0|0:0,0:0:0:0:
346,45,176829,2,0,P|321:35|256:81,1,106.200002592774,2|2,0:0|0:0,0:0:0:0:
200,124,177720,2,0,L|138:113,1,53.1000012963868,2|2,0:0|0:0,0:0:0:0:
85,70,178314,5,2,0:0:0:0:
207,203,178611,1,2,0:0:0:0:
207,203,179205,2,0,P|172:211|105:235,1,106.200002592774,2|2,0:0|0:0,0:0:0:0:
247,22,180097,6,0,P|249:58|254:109,1,79.6500019445801,2|0,0:0|0:0,0:0:0:0:
105,234,180691,6,0,P|78:204|81:149,1,75.225000459137,2|0,1:2|0:0,0:0:0:0:
279,299,180988,1,0,0:0:0:0:
125,367,181136,1,0,1:2:0:0:
195,265,181285,2,0,P|201:316|204:351,1,75.225000459137,8|0,0:0|0:0,0:0:0:0:
336,177,181582,6,0,P|414:190|519:196,1,150.450000918274,0|0,1:2|0:0,0:0:0:0:
512,267,182027,1,0,0:0:0:0:
314,354,182176,6,0,P|236:341|178:340,1,112.837500688705,0|0,1:2|0:0,0:0:0:0:
125,354,182473,1,8,0:0:0:0:
125,354,182770,5,2,0:0:0:0:
84,286,182918,1,0,0:0:0:0:
138,227,183067,2,0,B|179:231|179:231|207:263,1,75.225000459137,2|0,1:2|0:0,0:0:0:0:
391,259,183364,5,2,0:0:0:0:
432,191,183512,1,2,1:2:0:0:
380,132,183661,2,0,B|338:138|338:138|311:169,1,75.225000459137,8|0,0:2|0:2,0:2:0:0:
131,136,183958,5,2,1:2:0:0:
90,68,184106,1,2,0:0:0:0:
142,9,184255,2,0,B|197:27|197:27|219:58|219:58|293:80,1,150.450000918274,0|0,0:0|1:2,0:0:0:0:
131,136,184849,5,10,0:0:0:0:
266,81,184998,2,0,B|214:66|214:66|192:35|192:35|137:17,1,150.450000918274,0|0,1:2|0:0,0:0:0:0:
432,146,185443,6,0,P|411:94|397:58,1,75.225000459137,0|0,1:2|0:0,0:0:0:0:
287,227,185740,2,0,P|340:234|378:241,1,75.225000459137
266,81,186037,2,0,P|233:121|206:153,1,75.225000459137,8|0,0:0|0:0,0:0:0:0:
438,142,186334,5,2,1:2:0:0:
287,237,186483,2,0,P|340:244|378:251,1,75.225000459137,0|0,1:2|0:0,0:0:0:0:
431,282,186780,1,0,0:0:0:0:
217,138,186928,6,0,P|156:148|94:157,1,112.837500688705,0|0,1:2|0:0,0:0:0:0:
89,159,187225,2,0,B|67:119|67:119|84:72,1,75.225000459137,8|0,0:0|0:0,0:0:0:0:
205,228,187522,2,0,L|202:264,4,25.0750001530457
63,347,187819,6,0,L|150:357,1,88.5,2|0,1:2|0:0,0:0:0:0:
491,179,189899,5,2,0:0:0:0:
150,357,190233,5,0,0:0:0:0:
491,179,190493,6,0,B|452:171|452:171|406:201,1,75.225000459137,6|0,1:2|0:0,0:0:0:0:
264,336,190790,2,0,P|233:281|249:233,1,100.300000612183,8|8,0:0|0:3,0:0:0:0:
284,160,191087,5,4,0:3:0:0:
295,132,191186,5,8,0:3:0:0:
282,105,191285,5,8,0:3:0:0:
254,92,191384,6,0,P|187:108|99:118,1,150.450000918274,2|0,1:2|0:0,0:0:0:0:
38,86,191829,1,4,0:3:0:0:
166,232,191978,2,0,P|205:241|257:247,1,75.225000459137,8|4,0:0|0:3,0:0:0:0:
94,343,192275,2,0,P|72:346|51:351,4,25.0750001530457,2|0|0|0|0,1:2|0:0|0:0|0:0|0:0,0:0:0:0:
173,380,192572,5,0,0:0:0:0:
173,380,192720,1,0,0:0:0:0:
40,262,192869,5,0,1:2:0:0:
24,236,192968,5,4,0:3:0:0:
32,207,193067,5,4,0:3:0:0:
58,192,193166,6,0,B|104:200|104:200|111:208|111:208|179:219,1,100.300000612183,8|8,0:0|0:3,0:0:0:0:
224,195,193463,1,2,0:0:0:0:
375,301,193611,1,4,0:3:0:0:
370,221,193760,6,0,B|310:241|310:241|296:267|296:267|224:293,1,150.450000918274,2|4,1:2|0:3,0:0:0:0:
412,141,194205,1,2,0:0:0:0:
484,178,194354,2,0,B|498:140|498:140|480:96,1,75.225000459137,8|0,0:0|0:0,0:0:0:0:
293,11,194651,2,0,L|297:48,4,25.0750001530457
417,61,194948,6,0,B|337:77|381:103|287:121,1,123.900001512451,6|0,1:2|0:0,0:0:0:0:
309,125,195245,2,0,B|382:112|338:86|418:70,1,123.900001512451,4|0,0:3|0:0,0:0:0:0:
494,107,195542,6,0,B|508:147|508:147|491:189,1,82.6000010083008,0|0,1:2|0:0,0:0:0:0:
288,338,195839,2,0,B|260:279|260:279|286:208,1,123.900001512451,4|0,0:3|0:0,0:0:0:0:
287,220,196136,6,0,B|350:234|350:234|376:261|376:261|464:279,1,165.200002016602,6|0,1:2|0:0,0:0:0:0:
189,153,196582,6,0,B|126:167|126:167|100:194|100:194|12:212,1,165.200002016602,2|0,1:2|0:0,0:0:0:0:
320,17,197027,6,0,P|311:71|287:344,1,322.287489181023,6|0,1:2|0:0,0:0:0:0:
221,380,198512,6,0,P|172:379|140:333,1,90.7125013841629,2|0,1:2|0:0,0:0:0:0:
111,280,198809,2,0,L|112:229,1,33.9249988611603,2|0,0:0|0:0,0:0:0:0:
102,285,198958,2,0,L|103:234,1,33.9249988611603
230,162,199106,6,0,L|278:170,1,33.9249988611603,2|0,0:0|0:0,0:0:0:0:
228,172,199255,2,0,L|276:180,1,33.9249988611603,2|0,0:0|0:0,0:0:0:0:
129,78,199403,6,0,L|81:86,1,33.9249988611603,2|0,0:0|0:0,0:0:0:0:
131,88,199552,2,0,L|83:96,1,33.9249988611603,2|0,0:0|0:0,0:0:0:0:
237,3,199701,6,0,B|256:44|256:44|241:83,1,82.6000010083008,6|0,1:2|0:0,0:0:0:0:
91,177,199998,2,0,B|46:173|46:173|20:136,1,82.6000010083008,2|0,0:0|1:2,0:0:0:0:
248,86,200295,2,0,B|336:98|285:126|377:139,1,123.900001512451,8|0,0:0|0:0,0:0:0:0:
363,129,200592,6,0,P|269:147|190:191,1,165.200002016602,2|0,1:2|0:0,0:0:0:0:
152,124,201037,1,0,0:0:0:0:
315,228,201186,2,0,P|353:241|395:243,1,82.6000010083008,2|0,1:2|0:0,0:0:0:0:
176,373,201483,5,8,0:0:0:0:
225,311,201631,1,2,0:0:0:0:
167,256,201780,2,0,P|144:259|125:260,4,27.5333336694336
322,145,202077,6,0,P|315:211|315:241,1,82.6000010083008,2|0,1:2|0:0,0:0:0:0:
119,97,202374,2,0,P|179:70|205:55,1,82.6000010083008,2|0,0:0|1:2,0:0:0:0:
166,243,202671,2,0,B|116:252|116:252|99:268|99:268|42:278,1,123.900001512451,8|0,0:0|0:0,0:0:0:0:
42,269,202968,5,2,1:2:0:0:
131,336,203116,1,0,0:0:0:0:
220,384,203265,5,0,0:0:0:0:
310,269,203413,1,0,0:0:0:0:
198,166,203562,2,0,B|175:207|175:207|197:249,1,82.6000010083008,2|0,1:2|0:0,0:0:0:0:
445,366,203859,5,8,0:0:0:0:
404,301,204007,1,0,0:0:0:0:
468,253,204156,2,0,L|510:262,4,27.5333336694336
280,156,204453,6,0,P|234:163|190:167,1,82.6000010083008,2|0,1:2|0:0,0:0:0:0:
337,10,204750,1,2,0:0:0:0:
262,35,204899,1,0,1:2:0:0:
441,177,205047,1,8,0:0:0:0:
441,177,205344,6,0,B|449:65|415:117|423:8,1,165.200002016602,2|0,1:2|0:0,0:0:0:0:
280,156,205790,1,0,0:0:0:0:
212,115,205938,2,0,B|194:159|194:159|219:214,1,82.6000010083008,2|0,1:2|0:0,0:0:0:0:
56,352,206235,5,10,0:0:0:0:
6,293,206384,1,0,0:0:0:0:
60,237,206532,2,0,L|108:243,4,27.5333336694336,2|0|0|0|0,1:2|0:0|0:0|0:0|0:0,0:0:0:0:
217,342,206829,5,2,1:2:0:0:
225,301,206978,1,0,0:0:0:0:
231,340,207126,1,0,0:0:0:0:
208,305,207275,1,0,1:2:0:0:
35,119,207423,5,8,0:0:0:0:
99,166,207572,1,0,0:0:0:0:
27,130,207720,1,0,1:2:0:0:
103,150,207869,1,0,0:0:0:0:
360,95,208017,5,0,0:0:0:0:
265,141,208166,1,0,1:2:0:0:
352,81,208314,1,0,1:2:0:0:
274,153,208463,1,0,0:0:0:0:
170,233,208611,5,10,0:0:0:0:
341,339,208760,1,2,0:0:0:0:
189,338,208908,5,2,1:2:0:0:
336,216,209057,1,2,0:0:0:0:
259,291,209205,6,0,P|256:239|250:195,1,82.6000010083008,2|0,1:2|0:0,0:0:0:0:
375,101,209502,1,2,0:0:0:0:
235,24,209651,1,0,1:2:0:0:
311,0,209800,2,0,B|319:79|294:45|301:131,1,123.900001512451,8|0,0:0|0:0,0:0:0:0:
294,131,210097,6,0,P|211:134|165:195,1,150.450000918274,2|0,1:2|0:0,0:0:0:0:
294,131,210542,1,0,0:0:0:0:
397,240,210691,6,0,P|432:240|456:214,1,57.5249996488953,2|0,1:2|0:0,0:0:0:0:
487,159,210988,1,8,0:0:0:0:
487,159,211285,2,0,L|484:114,4,27.5333336694336
314,226,211582,6,0,B|211:251|267:280|169:312,1,165.200002016602,2|0,1:2|0:0,0:0:0:0:
18,171,212027,1,0,1:2:0:0:
97,119,212176,2,0,P|141:148|199:176,1,82.6000010083008,8|0,0:0|0:0,0:0:0:0:
39,384,212473,6,0,P|41:342|31:229,1,123.900001512451,2|0,1:2|0:0,0:0:0:0:
27,251,212770,1,0,0:0:0:0:
132,377,212918,1,0,0:0:0:0:
267,282,213067,6,0,P|304:285|332:302,1,57.5249996488953,2|0,1:2|0:0,0:0:0:0:
331,305,213364,5,8,0:0:0:0:
398,271,213512,1,0,0:0:0:0:
455,327,213661,2,0,L|454:368,4,27.5333336694336
280,201,213958,6,0,P|218:218|200:335,1,165.200002016602,2|0,1:2|0:0,0:0:0:0:
239,375,214403,5,0,0:0:0:0:
386,190,214552,2,0,P|392:142|391:94,1,82.6000010083008,8|0,0:0|0:0,0:0:0:0:
267,282,214849,6,0,P|220:267|92:264,1,165.200002016602,2|0,1:2|0:0,0:0:0:0:
165,336,215295,1,0,0:0:0:0:
14,261,215443,1,0,1:2:0:0:
190,154,215592,1,0,0:0:0:0:
104,262,215740,5,8,0:0:0:0:
104,262,216037,2,0,L|100:213,4,27.5333336694336
252,108,216334,5,2,1:2:0:0:
190,154,216483,1,2,0:0:0:0:
256,235,216631,5,2,0:0:0:0:
132,87,216780,2,0,P|52:98|11:192,1,179.949992586289,2|0,1:2|0:0,0:0:0:0:
355,212,217225,6,0,P|435:201|477:98,1,194.699999405823,10|0,1:2|0:0,0:0:0:0:
478,105,217671,1,0,1:2:0:0:
271,268,217819,2,0,P|255:297|262:337,1,68.5874972789384,2|0,1:2|0:0,0:0:0:0:
271,341,218116,5,10,0:0:0:0:
393,289,218265,1,2,0:0:0:0:
201,218,218413,5,2,1:2:0:0:
129,187,218562,1,2,0:0:0:0:
290,43,218710,6,0,P|294:101|297:142,1,82.6000010083008,6|0,1:2|0:0,0:0:0:0:
106,61,219007,2,0,P|154:28|188:6,1,82.6000010083008,2|0,0:0|1:2,0:0:0:0:
197,227,219304,2,0,B|151:236|151:236|133:257|133:257|71:267,1,123.900001512451,8|0,0:0|0:0,0:0:0:0:
82,255,219602,6,0,P|129:265|161:391,1,165.200002016602,2|0,1:2|0:0,0:0:0:0:
96,340,220047,1,0,0:0:0:0:
279,221,220196,2,0,P|328:229|371:234,1,82.6000010083008,2|0,1:2|0:0,0:0:0:0:
152,35,220493,5,8,0:0:0:0:
204,96,220641,1,2,0:0:0:0:
145,151,220790,2,0,P|120:155|99:157,4,27.5333336694336
266,33,221087,6,0,P|315:41|358:46,1,82.6000010083008,2|0,1:2|0:0,0:0:0:0:
81,76,221384,2,0,P|40:70|0:64,1,82.6000010083008,2|0,0:0|1:2,0:0:0:0:
155,262,221681,2,0,P|176:211|147:141,1,123.900001512451,10|0,0:0|0:0,0:0:0:0:
145,151,221978,6,0,B|211:161|211:161|237:190|237:190|299:201,1,165.200002016602,2|0,1:2|0:0,0:0:0:0:
155,262,222423,1,0,0:0:0:0:
89,307,222572,2,0,B|65:269|65:269|89:216,1,82.6000010083008,2|0,1:2|0:0,0:0:0:0:
292,117,222869,6,0,P|338:127|385:134,1,82.6000010083008,8|0,0:0|0:0,0:0:0:0:
272,279,223166,2,0,P|258:275|245:273,4,27.5333336694336
428,373,223463,6,0,P|442:328|427:293,1,82.6000010083008,2|0,1:2|0:0,0:0:0:0:
300,206,223760,1,2,0:0:0:0:
452,117,223908,1,0,1:2:0:0:
381,214,224057,2,0,P|373:139|370:107,1,82.6000010083008,8|0,0:0|0:0,0:0:0:0:
508,262,224354,6,0,B|394:274|464:322|352:336,1,165.200002016602,2|0,1:2|0:0,0:0:0:0:
366,333,224800,1,0,0:0:0:0:
189,97,224948,2,0,P|237:100|271:185,1,123.900001512451,2|0,1:2|0:0,0:0:0:0:
269,171,225245,6,0,P|225:174|184:180,1,82.6000010083008,8|0,0:0|0:0,0:0:0:0:
8,284,225542,2,0,P|30:282|52:279,4,27.5333336694336,2|0|0|0|0,1:2|0:0|0:0|0:0|0:0,0:0:0:0:
136,379,225839,6,0,P|131:298|109:190,1,179.949992586289,2|0,1:2|0:0,0:0:0:0:
382,142,226285,2,0,P|314:186|231:259,1,179.949992586289,2|0,1:2|0:0,0:0:0:0:
145,70,226730,5,2,1:2:0:0:
218,98,226879,1,0,0:0:0:0:
239,251,227027,5,0,0:0:0:0:
74,337,227176,1,0,1:2:0:0:
178,384,227324,6,0,B|191:339|191:339|166:293,1,82.6000010083008,2|0,1:2|0:0,0:0:0:0:
1,144,227621,1,8,0:0:0:0:
0,222,227770,2,0,B|94:201|46:170|155:149,1,165.200002016602,0|0,1:2|0:0,0:0:0:0:
406,26,228215,5,6,1:2:0:0:
338,1,228364,1,0,0:0:0:0:
277,40,228512,1,0,0:0:0:0:
280,112,228661,1,0,0:0:0:0:
421,314,228809,5,8,0:0:0:0:
460,224,228958,1,0,0:0:0:0:
437,318,229106,1,0,0:0:0:0:
442,221,229255,1,0,0:0:0:0:
256,380,229403,5,0,0:0:0:0:
216,286,229552,1,0,0:0:0:0:
241,382,229700,1,0,0:0:0:0:
233,283,229849,1,0,0:0:0:0:
136,384,229998,5,8,0:0:0:0:
323,246,230146,1,0,0:0:0:0:
132,108,230295,2,0,B|133:189|156:154|154:248,1,134.962494439717,6|0,1:2|0:0,0:0:0:0:
147,248,230592,6,0,P|88:257|37:268,1,82.6000010083008,6|0,1:2|0:0,0:0:0:0:
259,121,230889,1,0,0:0:0:0:
333,100,231037,2,0,P|360:105|386:109,2,27.5333336694336
268,41,231186,6,0,P|240:89|250:127,1,82.6000010083008,8|0,0:0|0:0,0:0:0:0:
433,316,231483,1,0,0:0:0:0:
496,269,231631,1,0,0:0:0:0:
457,201,231780,2,0,P|396:192|352:183,1,82.6000010083008,2|0,0:0|0:0,0:0:0:0:
214,287,232077,1,0,0:0:0:0:
147,248,232225,2,0,P|86:257|42:266,1,82.6000010083008,2|8,0:0|0:0,0:0:0:0:
125,329,232522,1,0,0:0:0:0:
241,141,232671,6,0,L|243:104,4,27.5333336694336
171,33,232968,6,0,B|277:37|219:88|339:96,1,165.200002016602,2|0,1:2|0:0,0:0:0:0:
314,16,233413,1,0,0:0:0:0:
134,166,233562,2,0,P|89:174|46:181,1,82.6000010083008,8|0,0:0|0:0,0:0:0:0:
256,368,233859,6,0,P|304:334|278:224,1,165.200002016602,2|0,1:2|0:0,0:0:0:0:
222,272,234304,1,0,0:0:0:0:
383,184,234453,2,0,P|427:190|471:198,1,82.6000010083008,8|0,0:0|0:0,0:0:0:0:
239,24,234750,6,0,P|245:76|246:124,1,82.6000010083008,2|0,1:2|0:0,0:0:0:0:
87,250,235047,2,0,L|46:255,1,27.5333336694336
88,260,235146,2,0,L|47:265,1,27.5333336694336
89,270,235245,2,0,L|48:275,1,27.5333336694336
91,280,235344,5,0,1:2:0:0:
163,168,235493,2,0,B|212:179|212:179|232:204|232:204|300:216,1,123.900001512451,0|0,1:2|0:0,0:0:0:0:
280,215,235790,6,0,B|302:257|302:257|277:303,1,82.6000010083008,0|0,1:2|0:0,0:0:0:0:
232,344,236087,1,0,0:0:0:0:
26,186,236235,6,0,P|30:105|33:14,1,165.200002016602,2|0,1:2|0:0,0:0:0:0:
108,0,236681,1,0,1:2:0:0:
275,91,236829,6,0,P|277:173|283:245,1,123.900001512451,2|0,1:2|0:0,0:0:0:0:
285,226,237126,5,8,0:0:0:0:
166,134,237275,1,2,0:0:0:0:
404,187,237423,5,2,1:2:0:0:
250,325,237572,1,2,0:0:0:0:
290,236,237720,6,0,B|388:257|343:278|452:305,1,165.200002016602,6|0,1:2|0:0,0:0:0:0:
439,301,238166,1,0,1:2:0:0:
279,241,238314,2,0,P|216:255|166:263,1,82.6000010083008,8|0,0:0|0:0,0:0:0:0:
339,0,238611,2,0,P|336:64|336:149,1,123.900001512451,0|0,1:2|0:0,0:0:0:0:
331,133,238908,5,2,0:0:0:0:
260,157,239057,1,2,0:0:0:0:
199,114,239205,1,2,1:2:0:0:
211,40,239354,1,2,0:0:0:0:
431,182,239502,6,0,P|479:190|526:197,1,82.6000010083008,8|0,0:0|0:0,0:0:0:0:
282,299,239800,2,0,P|268:296|254:294,4,27.5333336694336
405,375,240097,6,0,P|420:335|407:292,1,82.6000010083008,2|0,1:2|0:0,0:0:0:0:
370,228,240394,1,2,0:0:0:0:
181,327,240542,2,0,P|208:359|251:370,1,82.6000010083008,2|8,1:2|0:0,0:0:0:0:
323,370,240839,1,2,0:0:0:0:
325,149,240988,2,0,P|282:156|252:188,1,82.6000010083008,2|0,1:2|0:0,0:0:0:0:
216,252,241285,1,0,0:0:0:0:
280,299,241433,5,0,0:0:0:0:
100,97,241582,2,0,P|57:157|72:234,1,123.900001512451,2|0,1:2|0:0,0:0:0:0:
62,216,241879,5,10,0:0:0:0:
216,252,242027,1,0,1:2:0:0:
73,323,242176,2,0,L|28:330,4,27.5333336694336
216,252,242473,6,0,P|259:246|321:235,1,82.6000010083008,2|0,1:2|0:0,0:0:0:0:
489,118,242770,1,0,0:0:0:0:
438,63,242918,1,2,1:2:0:0:
365,97,243067,2,0,B|346:138|346:138|368:180,1,82.6000010083008,10|0,0:0|0:0,0:0:0:0:
512,315,243364,5,2,1:2:0:0:
468,249,243512,2,0,P|418:246|373:283,1,82.6000010083008,2|0,0:0|0:0,0:0:0:0:
343,322,243809,1,2,0:0:0:0:
233,133,243958,2,0,P|205:174|214:232,1,82.6000010083008,2|0,1:2|0:0,0:0:0:0:
47,377,244255,5,10,0:0:0:0:
18,308,244403,1,2,0:0:0:0:
77,254,244552,2,0,L|119:261,4,27.5333336694336,0|0|0|0|0,1:2|0:0|0:0|0:0|0:0,0:0:0:0:
231,373,244849,6,0,P|235:315|234:276,1,82.6000010083008,2|0,1:2|0:0,0:0:0:0:
60,99,245146,1,2,0:0:0:0:
128,57,245295,1,2,1:2:0:0:
183,115,245443,2,0,P|183:171|180:212,1,82.6000010083008,8|0,0:0|0:0,0:0:0:0:
344,67,245740,2,0,B|394:79|394:79|410:97|410:97|480:114,1,123.900001512451,2|0,1:2|0:0,0:0:0:0:
466,118,246037,5,2,0:0:0:0:
470,192,246186,1,2,1:2:0:0:
406,229,246334,1,2,1:2:0:0:
339,195,246483,1,2,0:0:0:0:
272,30,246631,5,8,0:0:0:0:
344,67,246780,1,2,1:2:0:0:
260,210,246928,5,2,0:0:0:0:
186,237,247077,1,2,0:0:0:0:
65,50,247225,6,0,P|126:61|146:142,1,123.900001512451,0|0,1:2|0:0,0:0:0:0:
147,126,247522,2,0,P|87:138|42:145,1,82.6000010083008,2|0,0:0|1:2,0:0:0:0:
249,287,247819,2,0,P|289:294|330:302,1,82.6000010083008,8|0,0:0|0:0,0:0:0:0:
156,341,248116,1,2,1:2:0:0:
78,358,248264,1,2,0:0:0:0:
210,222,248413,6,0,B|207:323|240:277|237:386,1,165.200002016602,2|0,0:0|1:2,0:0:0:0:
399,248,248859,1,2,0:0:0:0:
466,290,249007,2,0,B|480:246|480:246|457:194,1,82.6000010083008,8|0,0:0|0:0,0:0:0:0:
354,141,249304,2,0,L|314:147,4,27.5333336694336
461,49,249602,5,0,1:2:0:0:
461,49,249899,2,0,B|443:89|443:89|460:126,1,82.6000010083008,2|0,0:0|1:2,0:0:0:0:
315,248,250196,2,0,B|261:259|261:259|248:273|248:273|180:293,1,123.900001512451,10|0,0:0|0:0,0:0:0:0:
190,290,250493,6,0,P|232:301|280:314,1,82.6000010083008,2|0,1:2|0:0,0:0:0:0:
182,119,250790,2,0,P|176:159|170:200,1,82.6000010083008,2|0,0:0|0:0,0:0:0:0:
61,325,251087,2,0,P|17:314|10:229,1,123.900001512451,0|0,1:2|0:0,0:0:0:0:
8,234,251384,5,10,0:0:0:0:
14,155,251532,1,0,1:2:0:0:
13,75,251681,2,0,L|14:24,4,27.5333336694336
170,200,251978,6,0,B|223:176|265:209|265:209|278:249|328:258,1,165.200002016602,0|2,1:2|0:0,0:0:0:0:
344,183,252423,1,0,1:2:0:0:
207,356,252572,2,0,B|191:313|191:313|211:262,1,82.6000010083008,10|0,0:0|0:0,0:0:0:0:
426,180,252869,6,0,P|369:224|362:326,1,165.200002016602,2|0,1:2|0:0,0:0:0:0:
410,365,253314,1,0,0:0:0:0:
204,278,253463,6,0,B|145:289|145:289|138:296|138:296|55:313,1,135.699995444641,2|0,1:2|0:0,0:0:0:0:
1,340,253908,1,0,0:0:0:0:
256,188,254057,6,0,L|260:75,1,106.200002592774,2|0,0:2|0:0,0:0:0:0:
