osu file format v14

[General]
AudioFilename: audio.mp3
AudioLeadIn: 0
PreviewTime: 56532
Countdown: 0
SampleSet: Soft
StackLeniency: 0.7
Mode: 0
LetterboxInBreaks: 0
WidescreenStoryboard: 1

[Editor]
Bookmarks: 19106,38116,57126,76136,95146,104651,114156,133166,152176,171186,180691,199701,237720,254354
DistanceSpacing: 2.9
BeatDivisor: 16
GridSize: 8
TimelineZoom: 2.1

[Metadata]
Title:Hisui
TitleUnicode:ヒスイ
Artist:nonoc
ArtistUnicode:nonoc
Creator:HeTo
Version:Dailycare's Hard
Source:
Tags:japanese jpop j-pop pop change Affirmation Dailycare
BeatmapID:3387368
BeatmapSetID:1646129

[Difficulty]
HPDrainRate:4.5
CircleSize:3.8
OverallDifficulty:6
ApproachRate:7.8
SliderMultiplier:2.02
SliderTickRate:1

[Events]
//Background and Video events
0,0,"bg.jpg",0,0
//Break Periods
2,94752,103872
//Storyboard Layer 0 (Background)
//Storyboard Layer 1 (Fail)
//Storyboard Layer 2 (Pass)
//Storyboard Layer 3 (Foreground)
//Storyboard Layer 4 (Overlay)
//Storyboard Sound Samples

[TimingPoints]
9602,594.059405940594,4,2,1,50,1,0
14354,-100,4,2,1,55,0,0
16730,-100,4,2,1,60,0,0
18512,-100,4,2,1,10,0,0
19106,-133.333333333333,4,2,1,45,0,0
20517,-133.333333333333,4,2,1,5,0,0
20592,-133.333333333333,4,2,1,45,0,0
22894,-133.333333333333,4,2,1,5,0,0
22968,-133.333333333333,4,2,1,45,0,0
25270,-133.333333333333,4,2,1,5,0,0
25344,-133.333333333333,4,2,1,45,0,0
30022,-133.333333333333,4,2,1,5,0,0
30097,-133.333333333333,4,2,1,45,0,0
30913,-133.333333333333,4,2,1,5,0,0
30988,-133.333333333333,4,2,1,45,0,0
32399,-133.333333333333,4,2,1,5,0,0
32473,-133.333333333333,4,2,1,45,0,0
34255,-133.333333333333,4,2,1,50,0,0
34775,-133.333333333333,4,2,1,5,0,0
34849,-133.333333333333,4,2,1,50,0,0
37151,-133.333333333333,4,2,1,5,0,0
37225,-133.333333333333,4,2,1,50,0,0
38116,-133.333333333333,4,2,1,60,0,0
38413,-106.382978723404,4,2,1,60,0,0
39304,-106.382978723404,4,2,1,55,0,0
46433,-106.382978723404,4,2,1,65,0,0
47027,-106.382978723404,4,2,1,60,0,0
57126,-94.3396226415094,4,2,1,70,0,0
57943,-94.3396226415094,4,2,1,5,0,0
58017,-94.3396226415094,4,2,1,70,0,0
60319,-94.3396226415094,4,2,1,5,0,0
60394,-94.3396226415094,4,2,1,70,0,0
67448,-94.3396226415094,4,2,1,5,0,0
67522,-94.3396226415094,4,2,1,70,0,0
68339,-94.3396226415094,4,2,1,5,0,0
68413,-94.3396226415094,4,2,1,70,0,0
70715,-94.3396226415094,4,2,1,5,0,0
70790,-94.3396226415094,4,2,1,70,0,0
75468,-94.3396226415094,4,2,1,5,0,0
75542,-94.3396226415094,4,2,1,70,0,0
76953,-94.3396226415094,4,2,1,5,0,0
77027,-94.3396226415094,4,2,1,70,0,0
79329,-94.3396226415094,4,2,1,5,0,0
79403,-94.3396226415094,4,2,1,70,0,0
82597,-94.3396226415094,4,2,1,5,0,0
82671,-94.3396226415094,4,2,1,70,0,0
94552,-94.3396226415094,4,2,1,30,0,0
104651,-133.333333333333,4,2,1,35,0,0
111186,-133.333333333333,4,2,1,45,0,0
114156,-106.382978723404,4,2,1,55,0,0
130493,-106.382978723404,4,2,1,60,0,0
131903,-106.382978723404,4,2,1,5,0,0
131978,-106.382978723404,4,2,1,60,0,0
132201,-106.382978723404,4,2,1,5,0,0
132275,-106.382978723404,4,2,1,65,0,0
132349,-106.382978723404,4,2,1,5,0,0
132423,-106.382978723404,4,2,1,65,0,0
132498,-106.382978723404,4,2,1,5,0,0
132572,-106.382978723404,4,2,1,60,0,0
132646,-106.382978723404,4,2,1,5,0,0
132720,-106.382978723404,4,2,1,60,0,0
132795,-106.382978723404,4,2,1,5,0,0
132869,-106.382978723404,4,2,1,60,0,0
132943,-106.382978723404,4,2,1,5,0,0
133017,-106.382978723404,4,2,1,60,0,0
133092,-106.382978723404,4,2,1,5,0,0
133166,-94.3396226415094,4,2,1,70,0,0
133983,-94.3396226415094,4,2,1,5,0,0
134057,-94.3396226415094,4,2,1,70,0,0
136359,-94.3396226415094,4,2,1,5,0,0
136433,-94.3396226415094,4,2,1,70,0,0
143488,-94.3396226415094,4,2,1,5,0,0
143562,-94.3396226415094,4,2,1,70,0,0
144379,-94.3396226415094,4,2,1,5,0,0
144453,-94.3396226415094,4,2,1,70,0,0
146755,-94.3396226415094,4,2,1,5,0,0
146829,-94.3396226415094,4,2,1,70,0,0
151507,-94.3396226415094,4,2,1,5,0,0
151582,-94.3396226415094,4,2,1,70,0,0
152993,-94.3396226415094,4,2,1,5,0,0
153067,-94.3396226415094,4,2,1,70,0,0
155369,-94.3396226415094,4,2,1,5,0,0
155443,-94.3396226415094,4,2,1,70,0,0
156260,-94.3396226415094,4,2,1,5,0,0
156334,-94.3396226415094,4,2,1,70,0,0
168809,-94.3396226415094,4,2,1,65,0,0
171186,-94.3396226415094,4,2,1,40,0,0
172374,-181.818181818182,4,2,1,40,0,0
180691,-181.818181818182,4,2,1,65,0,0
182399,-181.818181818182,4,2,1,5,0,0
182473,-181.818181818182,4,2,1,65,0,0
182770,-106.382978723404,4,2,1,65,0,0
187151,-106.382978723404,4,2,1,5,0,0
187225,-106.382978723404,4,2,1,65,0,0
189899,-106.382978723404,4,2,1,60,0,0
190270,-106.382978723404,4,2,1,65,0,0
195171,-106.382978723404,4,2,1,5,0,0
195245,-106.382978723404,4,2,1,65,0,0
195468,-106.382978723404,4,2,1,5,0,0
195542,-106.382978723404,4,2,1,65,0,0
196062,-106.382978723404,4,2,1,5,0,0
196136,-106.382978723404,4,2,1,65,0,0
198438,-106.382978723404,4,2,1,5,0,0
198512,-106.382978723404,4,2,1,65,0,0
198735,-106.382978723404,4,2,1,5,0,0
198809,-106.382978723404,4,2,1,65,0,0
198884,-106.382978723404,4,2,1,5,0,0
198958,-106.382978723404,4,2,1,65,0,0
199032,-106.382978723404,4,2,1,5,0,0
199106,-106.382978723404,4,2,1,65,0,0
199181,-106.382978723404,4,2,1,5,0,0
199255,-106.382978723404,4,2,1,65,0,0
199329,-106.382978723404,4,2,1,5,0,0
199403,-106.382978723404,4,2,1,65,0,0
199478,-106.382978723404,4,2,1,5,0,0
199552,-106.382978723404,4,2,1,65,0,0
199626,-106.382978723404,4,2,1,5,0,0
199701,-94.3396226415094,4,2,1,70,0,0
200517,-94.3396226415094,4,2,1,5,0,0
200592,-94.3396226415094,4,2,1,70,0,0
202894,-94.3396226415094,4,2,1,5,0,0
202968,-94.3396226415094,4,2,1,70,0,0
210022,-94.3396226415094,4,2,1,5,0,0
210097,-94.3396226415094,4,2,1,70,0,0
210913,-94.3396226415094,4,2,1,5,0,0
210988,-94.3396226415094,4,2,1,70,0,0
212696,-94.3396226415094,4,2,1,5,0,0
212770,-94.3396226415094,4,2,1,70,0,0
213290,-94.3396226415094,4,2,1,5,0,0
213364,-94.3396226415094,4,2,1,70,0,0
218042,-94.3396226415094,4,2,1,5,0,0
218116,-94.3396226415094,4,2,1,70,0,0
219527,-94.3396226415094,4,2,1,5,0,0
219602,-94.3396226415094,4,2,1,70,0,0
221903,-94.3396226415094,4,2,1,5,0,0
221978,-94.3396226415094,4,2,1,70,0,0
225171,-94.3396226415094,4,2,1,5,0,0
225245,-94.3396226415094,4,2,1,70,0,0
230517,-94.3396226415094,4,2,1,5,0,0
230592,-94.3396226415094,4,2,1,70,0,0
237052,-94.3396226415094,4,2,1,5,0,0
237126,-94.3396226415094,4,2,1,70,0,0
237720,-100,4,2,1,70,0,0
238834,-100,4,2,1,5,0,0
238908,-100,4,2,1,70,0,0
241804,-100,4,2,1,5,0,0
241879,-100,4,2,1,70,0,0
245963,-100,4,2,1,5,0,0
246037,-100,4,2,1,70,0,0
247448,-100,4,2,1,5,0,0
247522,-100,4,2,1,70,0,0
250418,-100,4,2,1,5,0,0
250493,-100,4,2,1,70,0,0
251309,-100,4,2,1,5,0,0
251384,-100,4,2,1,70,0,0
254354,-100,4,2,1,5,0,0

[Colours]
Combo1 : 106,103,250
Combo2 : 192,192,192
Combo3 : 128,128,191

[HitObjects]
3,146,9602,5,2,1:2:0:0:
62,81,9899,2,0,L|75:-5,2,50.5,0|2|2,1:2|0:0|1:2,0:0:0:0:
141,123,10493,2,0,L|154:37,2,50.5,0|2|2,1:2|0:0|1:2,0:0:0:0:
220,165,11087,2,0,L|233:79,2,50.5,0|2|2,1:2|0:0|1:2,0:0:0:0:
292,219,11681,6,0,L|299:268,2,50.5,0|2|2,1:2|0:0|1:2,0:0:0:0:
371,177,12275,2,0,L|378:226,2,50.5,0|2|2,1:2|0:0|1:2,0:0:0:0:
450,135,12869,2,0,L|457:184,2,50.5,0|2|2,1:2|0:0|1:2,0:0:0:0:
512,71,13463,1,0,1:2:0:0:
458,2,13760,1,2,1:2:0:0:
395,61,14057,1,0,1:2:0:0:
333,121,14354,6,0,L|272:77,1,50.5,2|0,1:2|1:2,0:0:0:0:
273,49,14651,2,0,L|212:93,1,50.5,0|0,1:2|1:2,0:0:0:0:
191,82,14948,2,0,L|214:152,1,50.5,0|0,1:2|1:2,0:0:0:0:
195,172,15245,2,0,L|269:171,1,50.5,0|0,1:2|1:2,0:0:0:0:
266,212,15542,6,0,L|317:212,1,50.5,0|0,1:2|1:2,0:0:0:0:
305,254,15839,2,0,L|321:302,1,50.5,0|0,1:2|1:2,0:0:0:0:
279,305,16136,2,0,L|239:335,1,50.5,0|0,1:2|1:2,0:0:0:0:
220,292,16433,2,0,L|179:263,1,50.5,0|0,1:2|1:2,0:0:0:0:
133,263,16730,1,2,1:2:0:0:
256,192,16879,12,2,18512,0:0:0:0:
334,121,19106,6,0,P|282:138|203:61,1,151.500005779267,2|8,1:2|0:1,0:0:0:0:
148,21,19998,2,0,P|72:53|73:133,1,151.500005779267,2|2,0:0|1:2,0:0:0:0:
7,182,20889,2,0,P|38:206|47:264,1,75.7500028896333,8|0,0:1|0:0,0:0:0:0:
26,323,21483,6,0,L|182:301,1,151.500005779267,2|8,1:2|0:1,0:0:0:0:
245,354,22374,2,0,P|286:349|331:379,1,75.7500028896333,0|2,0:0|0:0,0:0:0:0:
400,338,22968,1,2,1:2:0:0:
483,380,23265,1,8,0:1:0:0:
483,380,23413,2,0,L|503:288,1,75.7500028896333,0|0,1:2|0:0,0:0:0:0:
510,280,23859,6,0,P|456:276|381:191,1,151.500005779267,2|8,1:2|0:1,0:0:0:0:
315,164,24750,1,2,0:0:0:0:
373,103,25047,2,0,P|379:57|396:13,1,75.7500028896333,2|2,0:0|1:2,0:0:0:0:
478,14,25641,1,8,0:1:0:0:
478,14,25790,2,0,P|471:59|455:104,1,75.7500028896333,2|0,1:2|0:0,0:0:0:0:
453,111,26235,6,0,P|495:142|491:226,2,113.62500433445,2|0|0,1:2|1:2|1:2,0:0:0:0:
383,60,27423,1,2,0:0:0:0:
309,106,27720,2,0,P|270:103|228:76,1,75.7500028896333,2|8,1:2|0:1,0:0:0:0:
217,70,28166,2,0,P|175:94|159:141,1,75.7500028896333
137,126,28611,6,0,P|169:162|184:266,1,151.500005779267,2|8,1:2|0:1,0:0:0:0:
208,348,29502,2,0,P|151:369|116:286,1,151.500005779267,2|2,0:0|1:2,0:0:0:0:
27,275,30394,2,0,P|46:241|43:178,1,75.7500028896333,8|2,0:1|0:0,0:0:0:0:
2,131,30988,6,0,P|2:91|92:29,1,151.500005779267,2|8,1:2|0:1,0:0:0:0:
167,1,31879,2,0,P|212:9|231:54,1,75.7500028896333,2|2,0:0|0:0,0:0:0:0:
291,93,32473,1,2,1:2:0:0:
208,117,32770,1,8,0:1:0:0:
208,117,32918,2,0,P|163:125|144:170,1,75.7500028896333,0|0,1:2|0:0,0:0:0:0:
126,164,33364,6,0,P|139:221|239:241,1,151.500005779267,2|8,1:2|0:1,0:0:0:0:
290,303,34255,2,0,P|360:286|384:217,1,151.500005779267,2|2,0:0|1:2,0:0:0:0:
430,144,35146,1,8,0:1:0:0:
430,144,35295,2,0,P|407:103|425:47,1,75.7500028896333,0|0,1:2|0:0,0:0:0:0:
402,49,35740,6,0,P|463:55|511:-4,2,113.62500433445,2|0|0,1:2|1:2|1:2,0:0:0:0:
264,148,37225,2,0,P|227:124|177:123,1,75.7500028896333,0|8,1:2|0:1,0:0:0:0:
177,105,37671,2,0,P|147:151|70:179,1,113.62500433445,0|6,0:0|1:2,0:0:0:0:
18,224,38413,6,0,P|4:166|66:95,1,142.409997826996,4|4,3:0|0:3,0:0:0:0:
30,25,39007,2,0,P|88:27|116:62,1,94.9399985513306,8|2,3:0|1:2,0:0:0:0:
203,19,39602,2,0,P|228:4|269:3,2,47.4699992756653,0|4|8,0:0|3:0|0:0,0:0:0:0:
185,109,40196,1,0,1:2:0:0:
270,145,40493,1,0,0:0:0:0:
222,223,40790,6,0,P|168:226|127:299,1,142.409997826996,2|4,1:2|0:3,0:0:0:0:
97,370,41384,2,0,L|196:383,1,94.9399985513306,0|2,0:0|1:2,0:0:0:0:
254,316,41978,1,0,0:0:0:0:
254,316,42126,1,4,3:0:0:0:
254,316,42275,1,8,0:0:0:0:
343,348,42572,1,0,1:2:0:0:
414,287,42869,6,0,P|418:237|430:183,1,94.9399985513306,2|0,1:2|0:0,0:0:0:0:
415,173,43314,1,4,3:0:0:0:
402,153,43463,2,0,P|430:114|482:106,1,94.9399985513306,8|4,0:0|0:3,0:0:0:0:
507,14,44057,2,0,P|463:8|380:-6,1,94.9399985513306,0|4,1:2|0:3,0:0:0:0:
345,37,44502,2,0,P|281:60|279:150,1,142.409997826996,0|0,1:2|1:2,0:0:0:0:
290,224,45245,6,0,P|293:270|269:310,1,94.9399985513306,2|4,0:0|0:3,0:0:0:0:
177,285,45839,1,8,0:0:0:0:
177,285,45988,2,0,P|173:238|197:198,1,94.9399985513306,4|14,0:3|0:3,0:0:0:0:
137,157,46433,6,0,P|96:84|165:14,2,189.879997102661,6|6|0,1:2|1:2|0:0,0:0:0:0:
86,242,47918,6,0,L|93:292,2,47.4699992756653,2|2|10,1:2|0:0|0:0,0:0:0:0:
181,262,48512,2,0,L|188:312,2,47.4699992756653,4|2|2,0:3|0:0|1:2,0:0:0:0:
276,279,49106,2,0,L|283:329,2,47.4699992756653,2|2|10,0:0|0:0|0:0,0:0:0:0:
338,231,49552,1,4,3:0:0:0:
338,231,49701,2,0,L|322:137,1,94.9399985513306,0|0,1:2|0:0,0:0:0:0:
248,75,50295,6,0,L|198:68,2,47.4699992756653,2|2|10,1:2|0:0|0:0,0:0:0:0:
313,4,50889,2,0,L|360:10,2,47.4699992756653,2|4|2,1:2|0:3|1:2,0:0:0:0:
248,75,51483,1,4,0:3:0:0:
322,137,51780,1,8,0:0:0:0:
240,186,52077,1,0,0:0:0:0:
313,243,52374,6,0,P|351:210|406:198,1,94.9399985513306,6|2,1:2|1:2,0:0:0:0:
479,152,52968,2,0,P|488:201|471:255,1,94.9399985513306,8|4,1:2|0:3,0:0:0:0:
468,342,53562,2,0,P|420:325|382:283,1,94.9399985513306,6|2,1:2|0:0,0:0:0:0:
325,331,54007,1,6,0:3:0:0:
325,331,54156,1,8,1:2:0:0:
226,287,54453,6,0,P|139:262|124:174,1,189.879997102661,6|0,1:2|0:0,0:0:0:0:
146,73,55344,6,0,P|60:65|48:150,1,189.879997102661
49,151,57126,6,0,P|16:195|35:271,1,107.060000163361,6|2,1:2|0:0,0:0:0:0:
2,322,57572,1,0,1:2:0:0:
83,330,57720,2,0,P|108:313|164:309,1,53.5300000816803,10|0,0:0|0:0,0:0:0:0:
200,352,58017,2,0,P|254:352|312:392,1,107.060000163361,2|0,1:2|0:0,0:0:0:0:
387,307,58611,1,2,1:2:0:0:
493,329,58908,2,0,P|490:264|429:213,1,107.060000163361,10|0,0:0|0:0,0:0:0:0:
505,162,59354,1,0,0:0:0:0:
425,160,59502,6,0,L|308:187,1,107.060000163361,2|2,1:2|0:0,0:0:0:0:
316,265,59948,1,0,1:2:0:0:
243,234,60097,2,0,L|163:214,1,53.5300000816803,10|0,0:0|0:0,0:0:0:0:
115,253,60394,2,0,L|31:181,1,107.060000163361,2|0,1:2|0:0,0:0:0:0:
3,80,60988,1,2,1:2:0:0:
93,20,61285,1,8,0:0:0:0:
176,85,61582,6,0,P|163:103|153:135,1,53.5300000816803
86,182,61879,2,0,P|125:224|127:301,1,107.060000163361,2|2,1:2|0:0,0:0:0:0:
130,351,62324,1,0,1:2:0:0:
206,320,62473,1,8,0:0:0:0:
295,384,62770,2,0,P|326:341|375:321,1,107.060000163361,2|0,1:2|0:0,0:0:0:0:
456,246,63364,2,0,P|487:257|517:258,2,53.5300000816803,2|0|8,1:2|0:0|0:0,0:0:0:0:
366,186,63958,1,2,1:2:0:0:
281,252,64255,6,0,L|256:101,1,107.060000163361,2|0,1:2|0:0,0:0:0:0:
214,85,64701,1,0,1:2:0:0:
290,70,64849,2,0,P|347:59|390:15,1,107.060000163361,10|0,0:0|1:2,0:0:0:0:
460,5,65295,2,0,P|509:30|505:108,1,107.060000163361,0|0,0:0|1:2,0:0:0:0:
454,121,65740,1,0,1:2:0:0:
505,221,66037,6,0,P|442:245|418:285,1,107.060000163361,10|2,0:0|1:2,0:0:0:0:
465,343,66483,1,2,0:0:0:0:
389,364,66631,6,0,P|324:368|273:317,1,107.060000163361,2|2,1:2|0:0,0:0:0:0:
210,346,67077,1,0,1:2:0:0:
239,271,67225,1,8,0:0:0:0:
147,210,67522,2,0,P|64:220|24:308,1,160.590000245041,2|0,1:2|0:0,0:0:0:0:
3,355,68116,2,0,P|41:375|80:319,1,107.060000163361,2|8,1:2|0:0,0:0:0:0:
175,287,68710,1,0,0:0:0:0:
216,191,69007,6,0,L|194:64,1,107.060000163361,2|2,1:2|0:0,0:0:0:0:
226,12,69453,1,0,1:2:0:0:
146,25,69602,1,10,0:0:0:0:
36,0,69899,2,0,P|8:35|33:118,1,107.060000163361,2|0,1:2|0:0,0:0:0:0:
75,188,70493,2,0,P|72:218|56:253,2,53.5300000816803,2|0|8,1:2|0:0|0:0,0:0:0:0:
174,134,71087,1,0,0:0:0:0:
242,220,71384,6,0,P|272:179|408:170,1,160.590000245041,2|0,1:2|0:0,0:0:0:0:
433,105,71978,1,8,0:0:0:0:
511,180,72275,2,0,P|520:232|477:285,1,107.060000163361,2|0,1:2|0:0,0:0:0:0:
410,348,72869,1,0,1:2:0:0:
355,251,73166,2,0,P|346:199|389:146,1,107.060000163361,8|0,0:0|0:0,0:0:0:0:
307,69,73760,6,0,P|388:66|425:-1,2,160.590000245041,2|2|10,1:2|1:2|1:2,0:0:0:0:
218,132,74948,1,0,0:0:0:0:
197,128,75097,1,0,1:2:0:0:
176,125,75245,1,2,1:2:0:0:
75,81,75542,6,0,P|54:102|56:140,1,53.5300000816803,10|2,0:0|0:0,0:0:0:0:
2,186,75839,2,0,P|23:207|21:245,1,53.5300000816803,2|2,1:2|0:0,0:0:0:0:
2,309,76136,6,0,L|127:286,1,107.060000163361,6|2,1:2|0:0,0:0:0:0:
125,366,76582,1,0,1:2:0:0:
191,323,76730,2,0,P|195:301|229:279,1,53.5300000816803,10|0,0:0|0:0,0:0:0:0:
248,210,77027,2,0,P|299:206|360:264,1,107.060000163361,2|0,1:2|0:0,0:0:0:0:
397,332,77621,1,2,1:2:0:0:
497,293,77918,2,0,P|518:232|490:163,1,107.060000163361,10|0,0:0|0:0,0:0:0:0:
510,111,78364,1,0,0:0:0:0:
429,118,78512,6,0,P|374:112|311:80,1,107.060000163361,2|2,1:2|0:0,0:0:0:0:
252,113,78958,1,0,1:2:0:0:
182,77,79106,2,0,P|176:46|138:19,1,53.5300000816803,10|0,0:0|0:0,0:0:0:0:
86,2,79403,2,0,P|31:19|8:92,1,107.060000163361,2|0,1:2|0:0,0:0:0:0:
27,169,79998,1,2,1:2:0:0:
128,206,80295,1,8,0:0:0:0:
233,174,80592,6,0,P|264:178|295:200,1,53.5300000816803
360,180,80889,2,0,P|386:228|371:282,1,107.060000163361,2|2,1:2|0:0,0:0:0:0:
306,314,81334,1,0,1:2:0:0:
359,371,81483,1,10,0:0:0:0:
468,343,81780,2,0,P|484:276|522:183,1,160.590000245041,2|0,1:2|0:0,0:0:0:0:
475,127,82374,1,2,1:2:0:0:
426,33,82671,1,8,0:0:0:0:
322,52,82968,1,2,1:2:0:0:
221,11,83265,6,0,P|162:31|134:87,1,107.060000163361,2|0,1:2|0:0,0:0:0:0:
66,108,83710,2,0,P|90:131|104:170,1,53.5300000816803,2|8,1:2|0:0,0:0:0:0:
192,207,84156,1,2,1:2:0:0:
212,315,84453,2,0,P|187:338|174:377,2,53.5300000816803,0|0|2,0:0|1:2|1:2,0:0:0:0:
321,287,85047,1,8,0:0:0:0:
321,287,85196,2,0,P|368:320|434:295,1,107.060000163361,0|0,1:2|0:0,0:0:0:0:
481,354,85641,6,0,P|513:299|423:186,1,214.120000326721,2|8,1:2|0:0,0:0:0:0:
341,131,86532,2,0,P|304:162|236:161,1,107.060000163361,2|0,1:2|0:0,0:0:0:0:
166,236,87126,2,0,P|131:234|109:208,1,53.5300000816803,0|0,1:2|0:0,0:0:0:0:
86,148,87423,2,0,P|116:82|108:37,1,107.060000163361,8|0,0:0|0:0,0:0:0:0:
181,17,87869,1,0,0:0:0:0:
258,2,88017,6,0,L|453:46,1,160.590000245041,2|0,1:2|1:2,0:0:0:0:
488,13,88611,1,8,0:0:0:0:
512,122,88908,1,0,1:2:0:0:
412,174,89205,2,0,L|301:147,1,107.060000163361,2|0,0:0|1:2,0:0:0:0:
213,195,89800,1,8,0:0:0:0:
218,215,89949,1,0,0:0:0:0:
222,236,90097,1,0,0:0:0:0:
164,324,90394,6,0,P|69:355|17:267,1,214.120000326721,2|8,1:2|0:0,0:0:0:0:
0,165,91285,2,0,P|53:80|147:112,1,214.120000326721,2|8,1:2|0:0,0:0:0:0:
213,195,92176,2,0,P|139:275|105:383,1,214.120000326721,6|8,1:2|1:2,0:0:0:0:
256,192,92844,12,0,94552,0:0:0:0:
106,373,104651,6,0,P|147:311|236:322,1,151.500005779267,2|8,1:2|0:1,0:0:0:0:
282,250,105542,2,0,B|354:259|328:329|418:333,1,151.500005779267,2|0,0:0|1:2,0:0:0:0:
486,361,106433,2,0,P|488:320|502:268,1,75.7500028896333,8|0,0:1|0:0,0:0:0:0:
499,198,107027,6,0,P|437:209|388:121,1,151.500005779267,2|8,1:2|0:1,0:0:0:0:
321,84,107918,2,0,P|259:73|210:161,1,151.500005779267,0|0,0:0|1:2,0:0:0:0:
141,193,108809,1,8,0:1:0:0:
141,193,108958,2,0,L|61:181,1,75.7500028896333,0|0,1:2|0:0,0:0:0:0:
44,192,109403,6,0,P|5:143|25:49,1,151.500005779267,2|8,1:2|0:1,0:0:0:0:
92,17,110295,2,0,P|168:33|276:50,1,151.500005779267,2|0,0:0|1:2,0:0:0:0:
289,120,111186,2,0,P|363:132|437:148,1,151.500005779267,10|0,0:0|1:2,0:0:0:0:
256,192,111854,12,0,113562,0:0:0:0:
437,148,114156,5,6,1:2:0:0:
504,216,114453,6,0,P|518:274|456:345,1,142.409997826996,4|12,0:3|0:3,0:0:0:0:
409,379,115047,2,0,P|379:346|316:338,1,94.9399985513306,4|2,0:3|1:2,0:0:0:0:
244,291,115641,2,0,L|194:298,2,47.4699992756653,0|4|8,0:0|0:3|0:0,0:0:0:0:
323,236,116235,1,2,1:2:0:0:
279,149,116532,1,0,0:0:0:0:
207,209,116830,6,0,P|136:211|87:158,1,142.409997826996,2|4,1:2|0:3,0:0:0:0:
12,164,117424,2,0,P|8:117|40:75,1,94.9399985513306,0|2,0:0|1:2,0:0:0:0:
113,28,118018,1,4,0:0:0:0:
113,28,118166,1,4,0:3:0:0:
113,28,118315,1,8,0:0:0:0:
203,64,118612,1,4,0:3:0:0:
291,26,118909,6,0,P|295:76|307:130,1,94.9399985513306,2|0,1:2|0:0,0:0:0:0:
292,140,119354,1,12,0:3:0:0:
279,160,119503,2,0,P|307:199|359:207,1,94.9399985513306,8|2,0:0|1:2,0:0:0:0:
443,201,120097,2,0,P|433:247|429:294,1,94.9399985513306,0|4,1:2|0:3,0:0:0:0:
441,368,120542,2,0,P|396:329|310:320,1,142.409997826996,0|0,1:2|1:2,0:0:0:0:
219,333,121285,6,0,P|243:293|240:246,1,94.9399985513306,2|0,0:0|1:2,0:0:0:0:
147,222,121879,1,8,0:0:0:0:
147,222,122028,2,0,P|123:262|127:308,1,94.9399985513306,4|8,0:3|0:3,0:0:0:0:
63,351,122473,6,0,P|34:264|-7:164,2,189.879997102661,6|6|0,1:2|1:2|0:0,0:0:0:0:
160,330,123958,6,0,L|153:377,2,47.4699992756653,6|2|10,1:2|0:0|0:0,0:0:0:0:
255,310,124552,2,0,L|248:357,2,47.4699992756653,4|0|2,0:3|0:0|1:2,0:0:0:0:
349,292,125146,2,0,L|342:339,2,47.4699992756653,0|4|10,0:0|0:3|0:0,0:0:0:0:
426,281,125592,1,4,3:0:0:0:
426,281,125741,2,0,L|442:187,1,94.9399985513306,2|0,1:2|0:0,0:0:0:0:
406,98,126335,6,0,L|456:91,2,47.4699992756653,2|2|10,1:2|0:0|0:0,0:0:0:0:
375,9,126929,2,0,L|422:3,2,47.4699992756653,4|8|2,0:3|0:3|1:2,0:0:0:0:
406,98,127523,1,8,0:3:0:0:
441,187,127820,1,8,0:0:0:0:
351,221,128117,1,2,0:0:0:0:
316,130,128414,6,0,P|278:97|223:85,1,94.9399985513306,6|4,1:2|0:3,0:0:0:0:
150,39,129008,2,0,P|141:88|158:142,1,94.9399985513306,0|4,1:2|0:3,0:0:0:0:
161,229,129602,2,0,P|209:212|247:170,1,94.9399985513306,6|0,1:2|0:0,0:0:0:0:
297,241,130047,1,4,0:3:0:0:
297,241,130196,1,0,1:2:0:0:
374,314,130493,6,0,P|461:289|476:201,1,189.879997102661,14|0,1:2|0:0,0:0:0:0:
505,95,131384,6,0,P|448:46|319:33,1,189.879997102661,0|2,0:0|1:2,0:0:0:0:
246,64,132275,1,2,0:0:0:0:
191,145,132572,2,0,P|153:166|79:156,1,94.9399985513306,2|2,0:0|0:0,0:0:0:0:
21,233,133166,6,0,P|90:274|125:329,1,107.060000163361,6|2,1:2|0:0,0:0:0:0:
141,365,133611,1,0,1:2:0:0:
218,342,133760,2,0,P|230:311|225:278,1,53.5300000816803,10|0,0:0|0:0,0:0:0:0:
296,251,134057,2,0,L|274:124,1,107.060000163361,2|0,1:2|0:0,0:0:0:0:
206,63,134651,1,2,1:2:0:0:
301,7,134948,2,0,P|373:8|410:49,1,107.060000163361,10|0,0:0|0:0,0:0:0:0:
474,18,135394,1,0,0:0:0:0:
508,89,135542,6,0,P|480:133|473:199,1,107.060000163361,2|2,1:2|0:0,0:0:0:0:
418,242,135988,1,0,1:2:0:0:
491,264,136136,2,0,L|477:344,1,53.5300000816803,10|0,0:0|0:0,0:0:0:0:
422,369,136433,2,0,P|387:316|335:298,1,107.060000163361,2|0,1:2|0:0,0:0:0:0:
253,252,137027,1,2,1:2:0:0:
181,334,137324,1,8,0:0:0:0:
73,337,137621,6,0,P|42:305|39:263,1,53.5300000816803
0,231,137918,2,0,P|40:184|44:126,1,107.060000163361,2|2,1:2|0:0,0:0:0:0:
10,72,138364,1,0,1:2:0:0:
82,42,138512,1,8,0:0:0:0:
156,121,138809,2,0,L|262:108,1,107.060000163361,2|0,1:2|0:0,0:0:0:0:
343,36,139403,2,0,L|424:24,2,53.5300000816803,2|0|8,1:2|0:0|0:0,0:0:0:0:
368,136,139998,1,2,1:2:0:0:
290,212,140295,6,0,P|263:265|280:328,1,107.060000163361,2|0,1:2|0:0,0:0:0:0:
337,355,140740,1,0,1:2:0:0:
346,276,140889,2,0,L|463:295,1,107.060000163361,8|0,0:0|1:2,0:0:0:0:
503,234,141334,2,0,L|468:104,1,107.060000163361,0|0,0:0|1:2,0:0:0:0:
512,62,141780,1,0,1:2:0:0:
416,9,142077,6,0,P|359:20|339:77,1,107.060000163361,10|2,0:0|1:2,0:0:0:0:
260,43,142522,1,2,0:0:0:0:
281,118,142671,6,0,L|308:252,1,107.060000163361,2|2,1:2|0:0,0:0:0:0:
373,259,143116,1,0,1:2:0:0:
334,330,143265,1,8,0:0:0:0:
227,303,143562,2,0,P|153:328|110:233,1,160.590000245041,2|0,1:2|0:0,0:0:0:0:
30,247,144156,2,0,P|59:198|117:199,1,107.060000163361,2|8,1:2|0:0,0:0:0:0:
193,129,144750,1,0,0:0:0:0:
291,171,145047,6,0,L|419:192,1,107.060000163361,2|0,1:2|0:0,0:0:0:0:
466,226,145493,1,2,1:2:0:0:
508,159,145641,1,8,0:0:0:0:
496,50,145938,2,0,P|443:17|379:26,1,107.060000163361,2|0,1:2|0:0,0:0:0:0:
298,55,146532,2,0,P|292:24|282:-4,2,53.5300000816803,2|0|8,1:2|0:0|0:0,0:0:0:0:
381,122,147126,1,0,0:0:0:0:
281,163,147423,6,0,P|247:120|121:104,1,160.590000245041,2|0,1:2|0:0,0:0:0:0:
83,53,148017,1,8,0:0:0:0:
11,133,148314,2,0,L|33:256,1,107.060000163361,2|0,1:2|0:0,0:0:0:0:
120,297,148908,1,0,1:2:0:0:
166,200,149205,2,0,L|144:77,1,107.060000163361,10|0,0:0|0:0,0:0:0:0:
245,38,149800,6,0,P|292:6|361:68,2,160.590000245041,2|2|10,1:2|1:2|1:2,0:0:0:0:
244,143,150988,1,0,0:0:0:0:
249,163,151137,1,0,1:2:0:0:
253,184,151285,1,2,1:2:0:0:
344,239,151582,6,0,P|365:200|394:193,1,53.5300000816803,10|2,0:0|0:0,0:0:0:0:
380,121,151879,2,0,P|422:109|452:123,1,53.5300000816803,2|2,0:0|0:0,0:0:0:0:
498,150,152176,6,0,L|473:276,1,107.060000163361,6|2,1:2|0:0,0:0:0:0:
407,286,152621,1,0,1:2:0:0:
377,359,152770,2,0,L|302:379,1,53.5300000816803,10|0,0:0|0:0,0:0:0:0:
265,323,153067,2,0,L|159:305,1,107.060000163361,2|0,1:2|0:0,0:0:0:0:
58,342,153661,1,2,1:2:0:0:
9,245,153958,2,0,P|25:188|71:166,1,107.060000163361,10|0,0:0|0:0,0:0:0:0:
78,90,154403,1,0,0:0:0:0:
140,141,154552,6,0,P|195:152|289:163,1,107.060000163361,2|2,1:2|0:0,0:0:0:0:
309,204,154998,1,0,1:2:0:0:
348,136,155146,2,0,P|348:106|300:55,1,53.5300000816803,10|0,0:0|0:0,0:0:0:0:
337,8,155443,2,0,P|386:53|449:49,1,107.060000163361,2|0,1:2|0:0,0:0:0:0:
511,122,156037,1,2,1:2:0:0:
468,217,156334,1,8,0:0:0:0:
365,260,156631,6,0,P|391:294|391:330,1,53.5300000816803
344,370,156928,2,0,P|299:333|243:325,1,107.060000163361,2|2,1:2|0:0,0:0:0:0:
186,281,157374,1,0,1:2:0:0:
167,357,157522,1,10,0:0:0:0:
80,291,157819,2,0,P|67:216|41:134,1,160.590000245041,2|0,1:2|0:0,0:0:0:0:
4,67,158413,1,2,1:2:0:0:
101,13,158710,1,8,0:0:0:0:
171,98,159007,1,2,1:2:0:0:
277,91,159304,6,0,P|323:63|344:7,1,107.060000163361,2|0,1:2|0:0,0:0:0:0:
419,31,159750,2,0,P|458:48|491:113,1,107.060000163361,2|0,1:2|0:0,0:0:0:0:
501,180,160196,1,2,1:2:0:0:
405,227,160493,2,0,P|416:258|418:282,2,53.5300000816803,0|0|2,0:0|1:2|1:2,0:0:0:0:
314,170,161087,1,8,0:0:0:0:
314,170,161235,2,0,P|284:142|201:141,1,107.060000163361,0|0,1:2|0:0,0:0:0:0:
162,84,161681,6,0,P|107:112|97:256,1,214.120000326721,2|8,1:2|0:0,0:0:0:0:
132,351,162572,2,0,P|181:362|232:299,1,107.060000163361,0|0,1:2|0:0,0:0:0:0:
319,280,163166,2,0,P|318:254|302:230,1,53.5300000816803,0|0,1:2|0:0,0:0:0:0:
233,196,163463,2,0,L|213:85,1,107.060000163361,8|0,0:0|0:0,0:0:0:0:
187,19,163908,1,0,0:0:0:0:
266,20,164057,6,0,L|449:51,1,160.590000245041,2|0,1:2|1:2,0:0:0:0:
477,105,164651,1,8,0:0:0:0:
376,148,164948,1,0,1:2:0:0:
433,239,165245,2,0,P|393:277|394:343,1,107.060000163361,2|2,0:0|1:2,0:0:0:0:
290,373,165839,1,8,0:0:0:0:
271,379,165988,1,0,0:0:0:0:
248,376,166136,1,0,0:0:0:0:
162,312,166433,6,0,P|214:248|193:119,1,214.120000326721,2|8,1:2|0:0,0:0:0:0:
110,60,167324,2,0,P|58:124|79:253,1,214.120000326721,2|8,1:2|0:0,0:0:0:0:
21,339,168215,2,0,P|73:291|233:261,1,214.120000326721,2|10,1:2|0:0,0:0:0:0:
256,192,168884,12,2,171186,0:0:0:0:
209,257,172374,6,0,B|249:271|259:333|231:366|231:366|273:393|319:374|317:331,1,222.200006781006,2|2,0:0|0:0,0:0:0:0:
303,127,174750,2,0,B|263:113|253:51|281:18|281:18|239:-9|193:10|195:53,1,222.200006781006,2|2,0:0|0:0,0:0:0:0:
68,134,176829,6,0,P|143:141|224:209,1,166.650005085755,2|2,0:0|0:0,0:0:0:0:
297,189,178017,2,0,P|362:240|444:250,1,166.650005085755,2|0,0:0|0:0,0:0:0:0:
492,183,179205,6,0,L|508:67,1,111.100003390503,2|2,0:0|0:0,0:0:0:0:
430,41,180097,2,0,L|414:157,1,111.100003390503,2|2,0:0|1:2,0:0:0:0:
256,192,180765,12,8,182473,0:0:0:0:
414,151,182770,6,0,L|428:208,2,47.4699992756653,2|0|2,0:0|0:0|1:2,0:0:0:0:
333,90,183364,2,0,L|367:57,2,47.4699992756653,2|2|8,0:0|1:2|0:2,0:0:0:0:
320,190,183958,2,0,L|274:176,2,47.4699992756653,2|2|0,1:2|0:0|0:0,0:0:0:0:
414,151,184552,1,0,1:2:0:0:
333,90,184849,2,0,L|222:58,1,94.9399985513306,10|0,0:0|0:0,0:0:0:0:
191,7,185295,1,0,0:0:0:0:
169,80,185443,6,0,P|97:62|24:167,1,189.879997102661,0|8,1:2|0:0,0:0:0:0:
45,235,186334,1,2,1:2:0:0:
45,235,186483,2,0,P|86:282|166:266,1,142.409997826996,0|0,1:2|1:2,0:0:0:0:
206,354,187225,2,0,L|184:162,1,189.879997102661,8|2,0:0|1:2,0:0:0:0:
256,192,187894,12,2,189899,0:0:0:0:
252,98,190493,6,0,L|244:34,2,47.4699992756653,6|0|8,1:2|0:0|0:0,0:0:0:0:
346,125,191087,2,0,L|338:61,2,47.4699992756653,4|0|2,0:3|0:0|1:2,0:0:0:0:
440,152,191681,2,0,L|432:88,2,47.4699992756653,0|4|8,0:0|0:3|0:0,0:0:0:0:
512,180,192126,1,4,0:3:0:0:
512,180,192275,2,0,L|527:300,1,94.9399985513306,2|0,1:2|0:0,0:0:0:0:
443,329,192869,6,0,L|435:393,2,47.4699992756653,0|0|8,1:2|0:0|0:0,0:0:0:0:
377,255,193463,2,0,L|382:207,2,47.4699992756653,2|4|2,0:0|0:3|1:2,0:0:0:0:
292,304,194057,1,4,0:3:0:0:
358,377,194354,1,8,0:0:0:0:
443,329,194651,1,0,0:0:0:0:
377,255,194948,6,0,P|348:199|343:152,1,94.9399985513306,6|4,1:2|0:3,0:0:0:0:
275,96,195542,2,0,P|241:149|202:176,1,94.9399985513306,0|4,1:2|0:3,0:0:0:0:
188,263,196136,2,0,P|250:265|294:285,1,94.9399985513306,6|0,1:2|0:0,0:0:0:0:
347,328,196582,1,2,1:2:0:0:
347,328,196730,1,0,0:0:0:0:
439,277,197027,6,0,P|431:229|525:98,1,189.879997102661,6|0,1:2|0:0,0:0:0:0:
428,32,197918,6,0,P|351:9|320:116,1,189.879997102661,0|2,0:0|1:2,0:0:0:0:
255,170,198809,1,2,0:0:0:0:
161,147,199106,2,0,P|140:104|150:59,1,94.9399985513306,2|2,0:0|0:0,0:0:0:0:
63,10,199701,6,0,P|23:47|22:131,1,107.060000163361,6|2,1:2|0:0,0:0:0:0:
75,146,200146,1,0,1:2:0:0:
0,176,200295,2,0,L|15:241,1,53.5300000816803,8|0,0:0|0:0,0:0:0:0:
7,307,200592,2,0,P|36:271|127:272,1,107.060000163361,2|0,1:2|0:0,0:0:0:0:
148,351,201186,1,2,1:2:0:0:
250,310,201483,2,0,P|301:319|336:358,1,107.060000163361,8|0,0:0|0:0,0:0:0:0:
413,378,201928,1,0,0:0:0:0:
394,300,202077,6,0,L|411:166,1,107.060000163361,2|2,1:2|0:0,0:0:0:0:
482,173,202522,1,0,1:2:0:0:
433,109,202671,2,0,L|365:121,1,53.5300000816803,8|0,0:0|0:0,0:0:0:0:
310,81,202968,2,0,P|281:22|226:12,1,107.060000163361,2|0,1:2|0:0,0:0:0:0:
143,42,203562,1,2,1:2:0:0:
170,144,203859,1,8,0:0:0:0:
85,201,204156,6,0,P|62:220|54:249,1,53.5300000816803
0,293,204453,2,0,P|40:285|125:324,1,107.060000163361,2|2,1:2|0:0,0:0:0:0:
180,298,204899,1,0,1:2:0:0:
217,366,205047,1,8,0:0:0:0:
325,330,205344,2,0,P|358:272|336:212,1,107.060000163361,2|0,1:2|0:0,0:0:0:0:
286,153,205938,2,0,P|311:130|359:125,2,53.5300000816803,2|0|10,1:2|0:0|0:0,0:0:0:0:
189,203,206532,1,2,1:2:0:0:
94,152,206829,6,0,P|61:94|83:34,1,107.060000163361,2|0,1:2|0:0,0:0:0:0:
132,9,207275,1,0,1:2:0:0:
144,86,207423,2,0,L|262:68,1,107.060000163361,8|0,0:0|1:2,0:0:0:0:
311,20,207869,2,0,L|416:36,1,107.060000163361,0|0,0:0|1:2,0:0:0:0:
494,23,208314,1,0,1:2:0:0:
512,127,208611,6,0,P|454:132|421:183,1,107.060000163361,10|2,0:0|1:2,0:0:0:0:
354,206,209057,1,2,0:0:0:0:
422,246,209205,6,0,L|396:360,1,107.060000163361,2|2,1:2|0:0,0:0:0:0:
319,330,209651,1,0,1:2:0:0:
253,378,209800,1,8,0:0:0:0:
214,278,210097,2,0,P|199:222|102:227,1,160.590000245041,2|0,1:2|0:0,0:0:0:0:
48,274,210691,2,0,P|4:247|-3:185,1,107.060000163361,2|8,1:2|0:0,0:0:0:0:
75,123,211285,1,0,0:0:0:0:
54,18,211582,6,0,L|185:42,1,107.060000163361,2|0,1:2|0:0,0:0:0:0:
220,87,212027,1,0,1:2:0:0:
236,10,212176,1,8,0:0:0:0:
330,67,212473,2,0,P|387:66|431:21,1,107.060000163361,2|0,1:2|0:0,0:0:0:0:
504,99,213067,2,0,P|520:74|523:38,2,53.5300000816803,2|0|8,1:2|0:0|0:0,0:0:0:0:
417,159,213661,1,0,0:0:0:0:
310,153,213958,6,0,P|254:174|225:266,1,160.590000245041,2|0,1:2|0:0,0:0:0:0:
171,322,214552,1,8,0:0:0:0:
264,372,214849,2,0,P|308:358|382:349,1,107.060000163361,2|0,1:2|0:0,0:0:0:0:
431,265,215443,1,0,1:2:0:0:
328,241,215740,2,0,P|284:255|210:264,1,107.060000163361,8|0,0:0|0:0,0:0:0:0:
124,311,216334,6,0,P|91:260|-10:231,2,160.590000245041,2|2|10,1:2|1:2|1:2,0:0:0:0:
217,366,217522,1,0,0:0:0:0:
221,348,217671,1,0,1:2:0:0:
231,333,217819,1,2,1:2:0:0:
196,231,218116,6,0,P|199:191|168:159,1,53.5300000816803,10|2,0:0|0:0,0:0:0:0:
217,106,218413,2,0,P|177:98|154:70,1,53.5300000816803,2|2,1:2|0:0,0:0:0:0:
128,22,218710,6,0,L|269:7,1,107.060000163361,6|2,1:2|0:0,0:0:0:0:
291,68,219156,1,0,1:2:0:0:
365,41,219304,2,0,P|399:72|405:102,1,53.5300000816803,8|0,0:0|0:0,0:0:0:0:
481,63,219602,2,0,P|435:127|440:204,1,107.060000163361,2|0,1:2|0:0,0:0:0:0:
350,228,220196,1,2,1:2:0:0:
249,183,220493,2,0,P|201:174|139:166,1,107.060000163361,8|0,0:0|0:0,0:0:0:0:
87,110,220938,1,0,0:0:0:0:
17,151,221087,6,0,P|53:195|65:257,1,107.060000163361,2|2,1:2|0:0,0:0:0:0:
11,299,221532,1,0,1:2:0:0:
56,365,221681,2,0,P|74:348|107:335,1,53.5300000816803,10|0,0:0|0:0,0:0:0:0:
159,286,221978,2,0,P|204:295|253:351,1,107.060000163361,2|0,1:2|0:0,0:0:0:0:
348,377,222572,1,2,1:2:0:0:
416,289,222869,1,8,0:0:0:0:
313,246,223166,6,0,L|322:174,1,53.5300000816803
262,139,223463,2,0,P|278:90|344:60,1,107.060000163361,2|2,1:2|0:0,0:0:0:0:
394,92,223908,1,0,1:2:0:0:
417,17,224057,1,8,0:0:0:0:
504,83,224354,2,0,P|482:153|456:255,1,160.590000245041,2|0,1:2|0:0,0:0:0:0:
496,309,224948,1,2,1:2:0:0:
406,372,225245,1,8,0:0:0:0:
359,271,225542,1,2,1:2:0:0:
261,222,225839,6,0,P|221:268|138:260,1,107.060000163361,2|0,1:2|0:0,0:0:0:0:
112,318,226285,2,0,P|87:312|61:275,1,53.5300000816803,2|8,1:2|0:0,0:0:0:0:
0,215,226730,1,2,1:2:0:0:
71,140,227027,2,0,L|58:83,2,53.5300000816803,0|0|2,0:0|1:2|1:2,0:0:0:0:
175,181,227621,1,8,0:0:0:0:
175,181,227770,2,0,P|203:142|283:136,1,107.060000163361,0|0,1:2|0:0,0:0:0:0:
306,64,228215,6,0,P|304:146|423:175,1,214.120000326721,6|8,1:2|0:0,0:0:0:0:
504,243,229106,2,0,P|515:303|451:347,1,107.060000163361
387,370,229701,1,0,0:0:0:0:
327,280,229998,2,0,P|278:246|227:252,1,107.060000163361,8|6,0:0|1:2,0:0:0:0:
137,301,230592,6,0,P|64:303|14:207,1,160.590000245041,6|0,1:2|0:0,0:0:0:0:
36,165,231186,1,8,0:0:0:0:
0,64,231483,1,0,0:0:0:0:
95,17,231780,2,0,P|149:26|165:80,1,107.060000163361,2|0,0:0|0:0,0:0:0:0:
236,153,232374,1,8,0:0:0:0:
231,173,232523,1,0,0:0:0:0:
227,194,232671,1,0,0:0:0:0:
284,285,232968,6,0,P|327:242|439:240,1,160.590000245041,2|0,1:2|0:0,0:0:0:0:
484,282,233562,1,8,0:0:0:0:
512,178,233859,2,0,P|497:109|351:108,1,214.120000326721,2|8,1:2|0:0,0:0:0:0:
281,27,234750,2,0,P|235:65|241:134,1,107.060000163361,2|0,1:2|0:0,0:0:0:0:
150,183,235344,5,0,1:2:0:0:
150,183,235493,2,0,B|111:160|86:204|39:170,2,107.060000163361,0|0|0,1:2|1:2|0:0,0:0:0:0:
201,241,236235,1,2,1:2:0:0:
275,323,236532,2,0,B|253:351|279:365|256:389,2,53.5300000816803,0|0|2,0:0|1:2|1:2,0:0:0:0:
385,290,237126,1,8,0:0:0:0:
385,290,237275,2,0,B|424:313|449:269|496:303,1,107.060000163361,2|2,0:0|0:0,0:0:0:0:
507,375,237720,6,0,P|449:254|482:174,1,202,6|8,1:2|0:0,0:0:0:0:
398,129,238611,1,0,1:2:0:0:
398,129,238760,2,0,P|444:101|445:52,1,101,0|2,0:0|0:0,0:0:0:0:
383,11,239205,2,0,P|332:19|296:58,1,101,2|8,1:2|0:0,0:0:0:0:
217,114,239800,1,0,0:0:0:0:
121,84,240097,6,0,P|88:37|-4:21,2,151.5,2|2|2,1:2|1:2|1:2,0:0:0:0:
144,180,241285,1,0,0:0:0:0:
54,224,241582,2,0,P|8:261|12:327,2,101,2|10|0,1:2|0:0|0:0,0:0:0:0:
144,180,242473,5,2,1:2:0:0:
165,278,242770,2,0,P|188:304|222:312,2,50.5,0|2|10,0:0|1:2|0:0,0:0:0:0:
246,216,243364,1,2,1:2:0:0:
246,216,243512,2,0,P|274:169|342:153,1,101,2|2,0:0|0:0,0:0:0:0:
359,90,243958,1,2,1:2:0:0:
454,49,244255,2,0,P|511:86|514:144,1,101,10|0,0:0|1:2,0:0:0:0:
461,196,244849,6,0,P|406:209|384:313,1,151.5,2|2,1:2|1:2,0:0:0:0:
327,347,245443,1,8,0:0:0:0:
430,366,245740,1,2,1:2:0:0:
497,286,246037,1,2,0:0:0:0:
461,187,246334,1,2,1:2:0:0:
359,169,246631,1,8,0:0:0:0:
292,248,246928,1,2,0:0:0:0:
327,347,247225,5,0,1:2:0:0:
418,295,247522,2,0,P|425:245|373:188,1,101,2|8,0:0|0:0,0:0:0:0:
338,118,248116,2,0,P|313:132|281:126,2,50.5,2|2|2,1:2|0:0|0:0,0:0:0:0:
401,42,248710,2,0,P|379:23|373:-8,2,50.5,0|2|8,1:2|0:0|0:0,0:0:0:0:
501,70,249304,1,0,0:0:0:0:
499,174,249602,1,0,1:2:0:0:
400,203,249899,5,2,0:0:0:0:
381,198,250047,1,0,1:2:0:0:
361,197,250196,1,10,0:0:0:0:
264,220,250493,2,0,P|254:165|234:101,2,101,2|2|0,1:2|0:0|1:2,0:0:0:0:
315,313,251384,1,10,0:0:0:0:
315,313,251532,2,0,P|254:323|230:371,1,101,0|0,1:2|0:0,0:0:0:0:
161,376,251978,5,0,1:2:0:0:
87,302,252275,2,0,P|63:291|25:289,2,50.5,2|0|10,0:0|1:2|0:0,0:0:0:0:
187,274,252869,2,0,P|205:220|198:131,1,101,2|0,1:2|0:0,0:0:0:0:
118,129,253463,2,0,P|113:81|173:68,1,101,2|0,1:2|0:0,0:0:0:0:
249,22,254057,2,0,P|298:50|359:57,1,101,2|0,0:2|0:0,0:0:0:0:
