osu file format v14

[General]
AudioFilename: audio.mp3
AudioLeadIn: 0
PreviewTime: 56532
Countdown: 0
SampleSet: Soft
StackLeniency: 0.7
Mode: 0
LetterboxInBreaks: 0
WidescreenStoryboard: 1

[Editor]
Bookmarks: 9602,19106,38116,57126,76136,95146,104651,114156,133166,152176,171186,180691,199701,218710,237720,254354
DistanceSpacing: 2.9
BeatDivisor: 16
GridSize: 16
TimelineZoom: 2.1

[Metadata]
Title:Hisui
TitleUnicode:ヒスイ
Artist:nonoc
ArtistUnicode:nonoc
Creator:HeTo
Version:AF's Insane
Source:
Tags:japanese jpop j-pop pop change Affirmation Dailycare
BeatmapID:3398826
BeatmapSetID:1646129

[Difficulty]
HPDrainRate:5.3
CircleSize:4
OverallDifficulty:7.6
ApproachRate:9
SliderMultiplier:2
SliderTickRate:1

[Events]
//Background and Video events
0,0,"bg.jpg",0,0
//Break Periods
2,95146,104051
2,171386,180091
//Storyboard Layer 0 (Background)
//Storyboard Layer 1 (Fail)
//Storyboard Layer 2 (Pass)
//Storyboard Layer 3 (Foreground)
//Storyboard Layer 4 (Overlay)
//Storyboard Sound Samples

[TimingPoints]
9602,594.059405940594,4,2,1,50,1,0
9602,-90.9090909090909,4,2,1,50,0,0
14354,-90.9090909090909,4,2,1,55,0,0
16730,-90.9090909090909,4,2,1,60,0,0
18512,-90.9090909090909,4,2,1,10,0,0
19106,-166.666666666667,4,2,1,45,0,0
20517,-166.666666666667,4,2,1,5,0,0
20592,-166.666666666667,4,2,1,45,0,0
22894,-166.666666666667,4,2,1,5,0,0
22968,-166.666666666667,4,2,1,45,0,0
25270,-166.666666666667,4,2,1,5,0,0
25344,-166.666666666667,4,2,1,45,0,0
30022,-166.666666666667,4,2,1,5,0,0
30097,-166.666666666667,4,2,1,45,0,0
30913,-166.666666666667,4,2,1,5,0,0
30988,-166.666666666667,4,2,1,45,0,0
32399,-166.666666666667,4,2,1,5,0,0
32473,-166.666666666667,4,2,1,45,0,0
34255,-166.666666666667,4,2,1,50,0,0
34775,-166.666666666667,4,2,1,5,0,0
34849,-166.666666666667,4,2,1,50,0,0
37151,-166.666666666667,4,2,1,5,0,0
37225,-166.666666666667,4,2,1,50,0,0
37671,-66.6666666666667,4,2,1,50,0,0
38116,-90.9090909090909,4,2,1,60,0,0
39304,-90.9090909090909,4,2,1,55,0,0
46433,-90.9090909090909,4,2,1,65,0,0
47027,-90.9090909090909,4,2,1,60,0,0
56532,-80.6451612903226,4,2,1,60,0,0
57126,-80.6451612903226,4,2,1,70,0,0
57943,-80.6451612903226,4,2,1,5,0,0
58017,-80.6451612903226,4,2,1,70,0,0
60319,-80.6451612903226,4,2,1,5,0,0
60394,-80.6451612903226,4,2,1,70,0,0
67448,-80.6451612903226,4,2,1,5,0,0
67522,-80.6451612903226,4,2,1,70,0,0
68339,-80.6451612903226,4,2,1,5,0,0
68413,-80.6451612903226,4,2,1,70,0,0
70715,-80.6451612903226,4,2,1,5,0,0
70790,-80.6451612903226,4,2,1,70,0,0
75468,-80.6451612903226,4,2,1,5,0,0
75542,-80.6451612903226,4,2,1,70,0,0
76953,-80.6451612903226,4,2,1,5,0,0
77027,-80.6451612903226,4,2,1,70,0,0
79329,-80.6451612903226,4,2,1,5,0,0
79403,-80.6451612903226,4,2,1,70,0,0
82597,-80.6451612903226,4,2,1,5,0,0
82671,-80.6451612903226,4,2,1,70,0,0
94552,-80.6451612903226,4,2,1,30,0,0
104651,-125,4,2,1,35,0,0
111186,-125,4,2,1,45,0,0
114156,-90.9090909090909,4,2,1,55,0,0
130493,-90.9090909090909,4,2,1,60,0,0
131903,-90.9090909090909,4,2,1,5,0,0
131978,-90.9090909090909,4,2,1,60,0,0
132201,-90.9090909090909,4,2,1,5,0,0
132275,-90.9090909090909,4,2,1,65,0,0
132349,-90.9090909090909,4,2,1,5,0,0
132423,-90.9090909090909,4,2,1,65,0,0
132498,-90.9090909090909,4,2,1,5,0,0
132572,-80.6451612903226,4,2,1,60,0,0
132646,-80.6451612903226,4,2,1,5,0,0
132720,-80.6451612903226,4,2,1,60,0,0
132795,-80.6451612903226,4,2,1,5,0,0
132869,-80.6451612903226,4,2,1,60,0,0
132943,-80.6451612903226,4,2,1,5,0,0
133017,-80.6451612903226,4,2,1,60,0,0
133092,-80.6451612903226,4,2,1,5,0,0
133166,-80.6451612903226,4,2,1,70,0,0
133983,-80.6451612903226,4,2,1,5,0,0
134057,-80.6451612903226,4,2,1,70,0,0
136359,-80.6451612903226,4,2,1,5,0,0
136433,-80.6451612903226,4,2,1,70,0,0
143488,-80.6451612903226,4,2,1,5,0,0
143562,-80.6451612903226,4,2,1,70,0,0
144379,-80.6451612903226,4,2,1,5,0,0
144453,-80.6451612903226,4,2,1,70,0,0
146755,-80.6451612903226,4,2,1,5,0,0
146829,-80.6451612903226,4,2,1,70,0,0
151507,-80.6451612903226,4,2,1,5,0,0
151582,-80.6451612903226,4,2,1,70,0,0
152993,-80.6451612903226,4,2,1,5,0,0
153067,-80.6451612903226,4,2,1,70,0,0
155369,-80.6451612903226,4,2,1,5,0,0
155443,-80.6451612903226,4,2,1,70,0,0
156260,-80.6451612903226,4,2,1,5,0,0
156334,-80.6451612903226,4,2,1,70,0,0
168809,-80.6451612903226,4,2,1,65,0,0
171186,-80.6451612903226,4,2,1,40,0,0
180691,-90.9090909090909,4,2,1,65,0,0
182399,-90.9090909090909,4,2,1,5,0,0
182473,-90.9090909090909,4,2,1,65,0,0
187151,-90.9090909090909,4,2,1,5,0,0
187225,-90.9090909090909,4,2,1,65,0,0
189899,-90.9090909090909,4,2,1,60,0,0
190270,-90.9090909090909,4,2,1,65,0,0
195171,-90.9090909090909,4,2,1,5,0,0
195245,-90.9090909090909,4,2,1,65,0,0
195468,-90.9090909090909,4,2,1,5,0,0
195542,-90.9090909090909,4,2,1,65,0,0
196062,-90.9090909090909,4,2,1,5,0,0
196136,-90.9090909090909,4,2,1,65,0,0
198438,-90.9090909090909,4,2,1,5,0,0
198512,-90.9090909090909,4,2,1,65,0,0
198735,-90.9090909090909,4,2,1,5,0,0
198809,-90.9090909090909,4,2,1,65,0,0
198884,-90.9090909090909,4,2,1,5,0,0
198958,-90.9090909090909,4,2,1,65,0,0
199032,-90.9090909090909,4,2,1,5,0,0
199106,-80.6451612903226,4,2,1,65,0,0
199181,-80.6451612903226,4,2,1,5,0,0
199255,-80.6451612903226,4,2,1,65,0,0
199329,-80.6451612903226,4,2,1,5,0,0
199403,-80.6451612903226,4,2,1,65,0,0
199478,-80.6451612903226,4,2,1,5,0,0
199552,-80.6451612903226,4,2,1,65,0,0
199626,-80.6451612903226,4,2,1,5,0,0
199701,-80.6451612903226,4,2,1,70,0,0
200517,-80.6451612903226,4,2,1,5,0,0
200592,-80.6451612903226,4,2,1,70,0,0
202894,-80.6451612903226,4,2,1,5,0,0
202968,-80.6451612903226,4,2,1,70,0,0
210022,-80.6451612903226,4,2,1,5,0,0
210097,-80.6451612903226,4,2,1,70,0,0
210913,-80.6451612903226,4,2,1,5,0,0
210988,-80.6451612903226,4,2,1,70,0,0
212696,-80.6451612903226,4,2,1,5,0,0
212770,-80.6451612903226,4,2,1,70,0,0
213290,-80.6451612903226,4,2,1,5,0,0
213364,-80.6451612903226,4,2,1,70,0,0
218042,-80.6451612903226,4,2,1,5,0,0
218116,-80.6451612903226,4,2,1,70,0,0
219527,-80.6451612903226,4,2,1,5,0,0
219602,-80.6451612903226,4,2,1,70,0,0
221903,-80.6451612903226,4,2,1,5,0,0
221978,-80.6451612903226,4,2,1,70,0,0
225171,-80.6451612903226,4,2,1,5,0,0
225245,-80.6451612903226,4,2,1,70,0,0
230517,-80.6451612903226,4,2,1,5,0,0
230592,-80.6451612903226,4,2,1,70,0,0
237052,-80.6451612903226,4,2,1,5,0,0
237126,-80.6451612903226,4,2,1,70,0,0
237720,-90.9090909090909,4,2,1,70,0,0
238834,-90.9090909090909,4,2,1,5,0,0
238908,-90.9090909090909,4,2,1,70,0,0
241804,-90.9090909090909,4,2,1,5,0,0
241879,-90.9090909090909,4,2,1,70,0,0
245963,-90.9090909090909,4,2,1,5,0,0
246037,-90.9090909090909,4,2,1,70,0,0
247448,-90.9090909090909,4,2,1,5,0,0
247522,-90.9090909090909,4,2,1,70,0,0
250418,-90.9090909090909,4,2,1,5,0,0
250493,-90.9090909090909,4,2,1,70,0,0
251309,-90.9090909090909,4,2,1,5,0,0
251384,-90.9090909090909,4,2,1,70,0,0
254057,-161.290322580645,4,2,1,70,0,0
254354,-161.290322580645,4,2,1,5,0,0

[Colours]
Combo1 : 88,85,255
Combo2 : 153,185,255
Combo3 : 215,215,215
Combo4 : 99,99,99
Combo5 : 255,147,147

[HitObjects]
186,47,9602,37,2,1:2:0:0:
186,47,9899,2,0,P|180:73|177:101,1,55.0000016784668,0|2,1:2|0:0,0:0:0:0:
112,142,10196,37,2,1:2:0:0:
112,142,10493,2,0,P|117:168|120:196,1,55.0000016784668,0|2,1:2|0:0,0:0:0:0:
186,236,10790,21,2,1:2:0:0:
186,236,11087,2,0,P|180:262|177:290,1,55.0000016784668,0|2,1:2|0:0,0:0:0:0:
111,330,11384,37,2,1:2:0:0:
111,330,11681,2,0,P|116:356|119:384,1,55.0000016784668,0|2,1:2|0:0,0:0:0:0:
194,368,11978,21,2,1:2:0:0:
194,368,12275,2,0,P|188:342|185:314,1,55.0000016784668,0|2,1:2|0:0,0:0:0:0:
120,273,12572,37,2,1:2:0:0:
120,273,12869,2,0,P|125:247|128:219,1,55.0000016784668,0|2,1:2|0:0,0:0:0:0:
194,179,13166,21,2,1:2:0:0:
194,179,13463,2,0,P|188:153|185:125,1,55.0000016784668,0|2,1:2|0:0,0:0:0:0:
120,84,13760,37,2,1:2:0:0:
120,84,14057,2,0,P|125:58|128:30,1,55.0000016784668,0|2,1:2|0:0,0:0:0:0:
201,11,14354,22,0,P|227:16|255:19,1,55.0000016784668,2|0,1:2|1:2,0:0:0:0:
332,9,14651,2,0,P|346:30|364:52,1,55.0000016784668,0|0,1:2|1:2,0:0:0:0:
426,100,14948,2,0,P|421:126|418:154,1,55.0000016784668,0|0,1:2|1:2,0:0:0:0:
428,230,15245,2,0,P|406:244|384:262,1,55.0000016784668,0|0,1:2|1:2,0:0:0:0:
336,324,15542,2,0,P|310:319|282:316,1,55.0000016784668,0|0,1:2|1:2,0:0:0:0:
206,326,15839,2,0,P|191:304|173:282,1,55.0000016784668,0|0,1:2|1:2,0:0:0:0:
112,236,16136,2,0,P|117:210|120:182,1,55.0000016784668,0|0,1:2|1:2,0:0:0:0:
109,105,16433,5,0,1:2:0:0:
120,97,16507,1,0,1:2:0:0:
131,89,16582,1,0,1:2:0:0:
142,81,16656,1,0,1:2:0:0:
153,72,16730,1,2,1:2:0:0:
256,192,16879,12,2,18512,0:0:0:0:
363,169,19106,38,0,B|395:161|425:174|414:183|444:197|476:189,1,119.999996337891,2|8,1:2|0:1,0:0:0:0:
477,189,20592,1,2,1:2:0:0:
400,154,20889,2,0,L|397:213,1,59.9999981689454,8|0,0:1|0:0,0:0:0:0:
389,347,21483,6,0,P|361:295|304:287,1,119.999996337891,2|8,1:2|0:1,0:0:0:0:
304,287,22968,2,0,L|363:284,1,59.9999981689454,2|8,1:2|0:1,0:0:0:0:
382,283,23413,1,0,1:2:0:0:
253,348,23859,54,0,P|248:288|242:228,1,119.999996337891,2|8,1:2|0:1,0:0:0:0:
241,228,25344,2,0,P|252:200|256:170,1,59.9999981689454,2|8,1:2|0:1,0:0:0:0:
252,153,25790,1,2,1:2:0:0:
68,148,26235,6,0,L|157:137,1,89.9999972534181,2|0,1:2|1:2,0:0:0:0:
173,129,26829,2,0,P|170:158|168:188,1,59.9999981689454,8|0,0:1|1:2,0:0:0:0:
168,188,27720,1,2,1:2:0:0:
241,228,28017,2,0,P|243:257|245:287,1,59.9999981689454,8|2,0:1|0:0,0:0:0:0:
141,362,28611,54,0,P|101:318|43:319,1,119.999996337891,2|8,1:2|0:1,0:0:0:0:
43,319,30097,1,2,1:2:0:0:
117,281,30394,2,0,P|119:311|120:341,1,59.9999981689454,8|2,0:1|0:0,0:0:0:0:
47,229,30988,6,0,P|51:169|53:109,1,119.999996337891,2|8,1:2|0:1,0:0:0:0:
53,109,32473,2,0,P|82:113|112:119,1,59.9999981689454,2|8,1:2|0:1,0:0:0:0:
130,118,32918,1,0,1:2:0:0:
182,226,33364,54,0,P|228:260|286:250,1,119.999996337891,2|8,1:2|0:1,0:0:0:0:
286,250,34849,2,0,P|282:279|279:309,1,59.9999981689454,2|8,1:2|0:1,0:0:0:0:
285,327,35295,1,0,1:2:0:0:
424,244,35740,6,0,P|400:208|357:199,2,89.9999972534181,2|0|0,1:2|1:2|1:2,0:0:0:0:
491,286,37225,53,0,1:2:0:0:
489,364,37522,1,8,0:1:0:0:
499,355,37671,22,0,B|458:364|420:348|434:335|396:319|356:328,1,150.000005722046,0|0,0:0|0:3,0:0:0:0:
279,340,38116,6,0,P|285:313|292:286,1,55.0000016784668,6|0,1:2|0:0,0:0:0:0:
369,195,38413,2,0,P|315:204|261:215,1,110.000003356934,4|8,3:0|0:0,0:0:0:0:
185,197,38859,1,4,0:3:0:0:
261,203,39007,1,8,3:0:0:0:
156,355,39304,6,0,P|108:331|102:279,1,110.000003356934,2|0,1:2|0:0,0:0:0:0:
125,151,39750,1,4,3:0:0:0:
185,197,39899,2,0,P|183:224|180:251,1,55.0000016784668,8|0,0:0|0:0,0:0:0:0:
65,105,40196,2,0,P|66:77|69:50,1,55.0000016784668,0|0,1:2|0:3,0:3:0:0:
5,204,40493,54,0,P|33:205|60:208,1,55.0000016784668
198,118,40790,2,0,P|252:116|307:110,1,110.000003356934,2|8,1:2|0:0,0:0:0:0:
370,66,41235,1,4,0:3:0:0:
301,101,41384,1,0,0:0:0:0:
486,256,41681,6,0,P|451:215|397:211,1,110.000003356934,2|0,1:2|0:0,0:0:0:0:
308,312,42126,1,4,3:0:0:0:
379,341,42275,2,0,P|382:313|382:286,1,55.0000016784668,8|0,0:0|0:0,0:0:0:0:
334,122,42572,2,0,P|330:149|330:176,1,55.0000016784668,0|0,1:2|0:3,0:3:0:0:
308,312,42869,54,0,B|278:304|250:317|261:325|233:337|203:330,1,110.000003356934,2|0,1:2|0:0,0:0:0:0:
89,255,43314,1,4,3:0:0:0:
140,197,43463,2,0,P|192:206|214:254,1,110.000003356934,8|4,0:0|0:3,0:0:0:0:
334,122,44057,6,0,P|306:126|279:128,1,55.0000016784668,0|0,1:2|0:0,0:0:0:0:
337,44,44354,1,4,0:3:0:0:
415,47,44502,1,0,1:2:0:0:
412,124,44651,2,0,P|417:179|423:234,1,110.000003356934,8|0,0:0|1:2,0:0:0:0:
472,294,45097,1,4,0:3:0:0:
401,360,45245,54,0,P|346:354|291:348,1,110.000003356934,2|4,0:0|0:3,0:0:0:0:
291,348,45839,5,8,0:0:0:0:
366,363,45988,1,4,0:3:0:0:
425,312,46136,1,14,0:3:0:0:
423,234,46285,1,14,0:3:0:0:
310,99,46433,54,0,P|316:153|322:208,1,110.000003356934,6|0,1:2|0:0,0:0:0:0:
310,219,47027,2,0,P|304:164|297:109,1,110.000003356934,6|0,1:2|0:0,0:0:0:0:
297,109,47621,1,0,0:0:0:0:
171,160,47918,6,0,P|190:178|217:183,1,55.0000016784668,2|2,1:2|0:0,0:0:0:0:
130,93,48215,2,0,P|77:102|43:145,1,110.000003356934,10|4,0:0|0:3,0:0:0:0:
84,210,48661,1,2,0:0:0:0:
44,276,48809,2,0,P|98:286|151:297,1,110.000003356934,2|2,1:2|0:0,0:0:0:0:
204,354,49255,1,2,0:0:0:0:
288,271,49403,53,10,0:0:0:0:
291,348,49552,1,4,3:0:0:0:
368,345,49701,1,0,1:2:0:0:
365,268,49849,1,4,0:3:0:0:
458,213,49998,6,0,P|459:158|461:103,1,110.000003356934,0|2,0:0|1:2,0:0:0:0:
423,35,50443,1,2,0:0:0:0:
360,80,50592,2,0,P|305:79|250:77,1,110.000003356934,10|2,0:0|1:2,0:0:0:0:
187,31,51037,1,4,0:3:0:0:
83,118,51186,54,0,P|119:156|172:152,1,110.000003356934,2|4,1:2|0:3,0:0:0:0:
246,134,51631,2,0,P|246:162|241:189,1,55.0000016784668,2|8,0:0|0:0,0:0:0:0:
233,305,51928,1,4,0:3:0:0:
157,320,52077,2,0,P|157:292|162:265,1,55.0000016784668
326,198,52374,53,6,1:2:0:0:
326,198,52671,2,0,L|380:203,1,55.0000016784668,2|0,1:2|0:0,0:0:0:0:
172,152,52968,37,8,1:2:0:0:
172,152,53265,2,0,L|117:157,1,55.0000016784668,4|0,0:3|0:0,0:0:0:0:
260,120,53562,21,6,1:2:0:0:
260,120,53859,1,2,0:0:0:0:
251,229,54007,1,6,0:3:0:0:
242,339,54156,1,8,1:2:0:0:
239,207,54453,37,6,1:2:0:0:
256,192,54602,12,0,55938,0:0:0:0:
99,271,56532,5,2,0:0:0:0:
169,246,56681,1,2,0:0:0:0:
228,292,56829,1,2,0:0:0:0:
298,268,56978,1,2,0:0:0:0:
454,301,57126,22,0,P|449:270|446:239,1,61.9999975402833,6|0,1:2|0:0,0:0:0:0:
409,143,57423,2,0,P|440:140|471:135,1,61.9999975402833,2|0,0:0|1:2,0:0:0:0:
360,260,57720,2,0,P|329:263|299:268,1,61.9999975402833,10|0,0:0|0:0,0:0:0:0:
321,164,58017,22,0,P|314:102|305:41,1,123.999995080567,2|0,1:2|0:0,0:0:0:0:
236,11,58463,1,0,0:0:0:0:
236,11,58611,1,2,1:2:0:0:
67,130,58908,53,10,0:0:0:0:
141,137,59057,1,0,0:0:0:0:
64,143,59205,1,0,0:0:0:0:
138,150,59354,1,0,0:0:0:0:
219,245,59502,54,0,L|205:305,1,61.9999975402833,2|0,1:2|0:0,0:0:0:0:
186,178,59800,2,0,L|140:136,1,61.9999975402833,2|0,0:0|1:2,0:0:0:0:
261,182,60097,2,0,L|320:163,1,61.9999975402833,10|0,0:0|0:0,0:0:0:0:
388,290,60394,22,0,P|336:323|275:329,1,123.999995080567,2|0,1:2|0:0,0:0:0:0:
205,305,60839,1,0,0:0:0:0:
205,305,60988,1,2,1:2:0:0:
399,216,61285,54,0,P|460:222|512:254,1,123.999995080567,8|0,0:0|0:0,0:0:0:0:
280,140,61879,54,0,P|275:109|270:78,1,61.9999975402833,2|0,1:2|0:0,0:0:0:0:
394,58,62176,2,0,P|389:88|384:119,1,61.9999975402833,2|0,0:0|1:2,0:0:0:0:
317,227,62473,2,0,P|286:222|255:217,1,61.9999975402833,8|0,0:0|0:0,0:0:0:0:
379,338,62770,22,0,P|388:276|398:215,1,123.999995080567,2|0,1:2|0:0,0:0:0:0:
398,215,63364,54,0,P|402:245|407:276,1,61.9999975402833,2|0,1:2|0:0,0:0:0:0:
445,109,63661,2,0,P|414:113|383:118,1,61.9999975402833,8|0,0:0|0:0,0:0:0:0:
255,236,63958,2,0,P|285:231|316:226,1,61.9999975402833,2|0,1:2|0:0,0:0:0:0:
270,78,64255,54,0,P|208:87|147:97,1,123.999995080567,2|0,1:2|0:0,0:0:0:0:
80,130,64701,1,0,1:2:0:0:
80,130,64849,2,0,P|141:139|202:149,1,123.999995080567,10|0,0:0|1:2,0:0:0:0:
403,257,65443,21,0,0:0:0:0:
471,286,65592,1,0,1:2:0:0:
500,218,65740,1,0,1:2:0:0:
488,209,66038,53,10,0:0:0:0:
414,202,66186,1,2,0:0:0:0:
407,276,66335,1,2,1:2:0:0:
481,283,66483,1,2,0:0:0:0:
315,282,66631,54,0,P|310:312|308:343,1,61.9999975402833,2|0,1:2|0:0,0:0:0:0:
286,206,66928,2,0,B|278:172|291:141|301:153|315:121|307:88,1,123.999995080567,2|8,0:0|0:0,0:0:0:0:
306,87,67522,2,0,P|275:92|244:95,1,61.9999975402833,2|0,1:2|0:0,0:0:0:0:
180,58,67819,1,0,0:0:0:0:
46,140,68116,22,0,B|85:151|85:151|115:180|115:180|154:191,1,123.999995080567,2|8,1:2|0:0,0:0:0:0:
230,190,68562,1,0,0:0:0:0:
157,206,68710,1,0,0:0:0:0:
280,313,69007,54,0,P|309:304|339:296,1,61.9999975402833,2|0,1:2|0:0,0:0:0:0:
402,336,69304,1,2,0:0:0:0:
452,280,69453,2,0,P|446:218|441:156,1,123.999995080567,0|0,1:2|0:0,0:0:0:0:
396,35,69899,54,0,P|349:72|358:130,1,123.999995080567,2|0,1:2|0:0,0:0:0:0:
358,130,70493,2,0,P|367:71|320:34,1,123.999995080567,2|8,1:2|0:0,0:0:0:0:
248,51,70938,1,0,0:0:0:0:
176,68,71087,1,0,0:0:0:0:
23,180,71384,22,0,P|114:195|206:211,1,185.99999262085,2|0,1:2|0:0,0:0:0:0:
272,176,71978,2,0,P|241:181|210:186,1,61.9999975402833,8|0,0:0|0:0,0:0:0:0:
177,294,72275,2,0,P|207:299|238:304,1,61.9999975402833,2|0,1:2|0:0,0:0:0:0:
298,348,72572,54,0,P|327:294|327:232,1,123.999995080567,0|0,0:0|1:2,0:0:0:0:
327,232,73166,2,0,P|357:237|388:242,1,61.9999975402833,8|0,0:0|0:0,0:0:0:0:
422,114,73463,2,0,P|391:119|360:124,1,61.9999975402833
253,53,73760,54,0,P|262:114|271:175,1,123.999995080567,2|2,1:2|0:0,0:0:0:0:
151,277,74205,2,0,P|159:215|169:154,1,123.999995080567,2|0,1:2|0:0,0:0:0:0:
49,53,74651,2,0,P|58:114|67:175,1,123.999995080567,10|0,1:2|0:0,0:0:0:0:
38,244,75097,1,0,1:2:0:0:
38,244,75245,1,2,1:2:0:0:
53,163,75542,21,10,0:0:0:0:
125,146,75691,1,2,0:0:0:0:
184,190,75839,1,2,1:2:0:0:
188,263,75988,1,2,0:0:0:0:
298,348,76136,54,0,P|297:317|295:286,1,61.9999975402833,6|0,1:2|0:0,0:0:0:0:
406,174,76433,2,0,P|406:204|408:235,1,61.9999975402833,2|0,0:0|1:2,0:0:0:0:
264,195,76730,2,0,P|294:194|325:192,1,61.9999975402833,10|0,0:0|0:0,0:0:0:0:
188,263,77027,54,0,P|186:201|182:139,1,123.999995080567,2|0,1:2|0:0,0:0:0:0:
150,71,77473,1,0,0:0:0:0:
150,71,77621,1,2,1:2:0:0:
321,32,77918,21,10,0:0:0:0:
395,39,78067,1,2,0:0:0:0:
316,43,78215,1,0,0:0:0:0:
390,50,78364,1,0,0:0:0:0:
460,144,78512,54,0,P|432:159|405:173,1,61.9999975402833,2|0,1:2|0:0,0:0:0:0:
277,145,78809,2,0,P|304:161|331:178,1,61.9999975402833,2|0,0:0|1:2,0:0:0:0:
371,303,79106,2,0,P|371:272|372:241,1,61.9999975402833,10|0,0:0|0:0,0:0:0:0:
295,346,79403,54,0,B|254:334|254:334|224:305|224:305|185:294,1,123.999995080567,2|0,1:2|0:0,0:0:0:0:
118,327,79849,1,0,0:0:0:0:
118,327,79998,1,2,1:2:0:0:
23,143,80295,22,0,P|48:199|58:260,1,123.999995080567,8|0,0:0|0:0,0:0:0:0:
119,44,80889,54,0,B|90:33|90:33|61:42,1,61.9999975402833,2|0,1:2|0:0,0:0:0:0:
167,145,81186,2,0,B|195:155|195:155|224:146,1,61.9999975402833,2|0,0:0|1:2,0:0:0:0:
284,13,81483,2,0,P|289:43|294:74,1,61.9999975402833,10|0,0:0|0:0,0:0:0:0:
337,279,81780,54,0,B|331:243|343:210|350:228|361:194|356:159,1,123.999995080567,2|0,1:2|0:0,0:0:0:0:
399,98,82225,1,0,0:0:0:0:
496,156,82374,2,0,P|466:161|438:175,1,61.9999975402833,2|0,1:2|0:0,0:0:0:0:
337,279,82671,22,0,P|398:288|453:315,1,123.999995080567,8|2,0:0|1:2,0:0:0:0:
148,276,83265,54,0,L|157:152,1,123.999995080567,2|0,1:2|0:0,0:0:0:0:
193,87,83710,1,2,1:2:0:0:
116,4,83859,2,0,L|120:65,1,61.9999975402833,8|0,0:0|0:0,0:0:0:0:
233,151,84156,54,0,L|356:160,1,123.999995080567,2|0,1:2|0:0,0:0:0:0:
431,166,84602,1,0,1:2:0:0:
431,166,84750,1,2,1:2:0:0:
486,357,85047,21,8,0:0:0:0:
412,347,85196,1,0,1:2:0:0:
338,337,85344,2,0,B|327:308|327:308|336:279,1,61.9999975402833
431,166,85641,54,0,P|457:220|447:280,1,123.999995080567,2|0,1:2|0:0,0:0:0:0:
412,347,86087,1,0,1:2:0:0:
274,273,86235,2,0,L|335:277,1,61.9999975402833,8|0,0:0|0:0,0:0:0:0:
199,340,86532,54,0,P|197:247|201:154,1,185.99999262085,2|0,1:2|0:0,0:0:0:0:
272,131,87126,2,0,P|278:161|282:192,1,61.9999975402833,0|0,1:2|0:0,0:0:0:0:
207,75,87423,2,0,B|173:69|143:86|155:95|125:111|91:106,1,123.999995080567,8|0,0:0|0:0,0:0:0:0:
282,192,88017,22,0,P|291:130|303:69,1,123.999995080567,2|0,1:2|0:0,0:0:0:0:
359,20,88463,1,0,1:2:0:0:
388,87,88611,2,0,P|448:99|510:108,1,123.999995080567,8|0,0:0|1:2,0:0:0:0:
282,192,89205,54,0,P|221:179|159:170,1,123.999995080567,2|0,0:0|1:2,0:0:0:0:
88,193,89651,1,2,0:0:0:0:
141,312,89800,2,0,P|148:281|150:250,1,61.9999975402833,8|0,0:0|0:0,0:0:0:0:
11,220,90097,2,0,P|13:250|20:281,1,61.9999975402833
79,369,90394,54,0,P|170:352|262:337,1,185.99999262085,2|0,1:2|0:0,0:0:0:0:
297,272,90988,2,0,P|266:265|236:259,1,61.9999975402833,8|0,0:0|0:0,0:0:0:0:
375,313,91285,22,0,P|445:258|434:170,1,185.99999262085,2|0,1:2|0:0,0:0:0:0:
364,141,91879,2,0,P|353:170|353:200,1,61.9999975402833,8|0,0:0|0:0,0:0:0:0:
236,259,92176,54,0,P|174:252|112:246,1,123.999995080567,6|0,1:2|0:0,0:0:0:0:
112,246,92770,1,8,1:2:0:0:
256,192,92918,12,0,94552,0:0:0:0:
221,148,104651,6,0,P|280:144|340:141,1,120,2|0,1:2|0:0,0:0:0:0:
331,128,105245,2,0,P|327:167|325:207,1,80,8|2,0:1|0:0,0:0:0:0:
331,287,106136,2,0,P|328:247|325:207,1,80,0|8,1:2|0:1,0:0:0:0:
59,311,107027,6,0,P|81:258|137:250,1,120,2|0,1:2|0:0,0:0:0:0:
150,261,107621,2,0,P|110:263|72:250,1,80,8|0,0:1|0:0,0:0:0:0:
150,261,108512,2,0,P|189:258|227:271,1,80,0|8,1:2|0:1,0:0:0:0:
241,279,108958,1,0,1:2:0:0:
421,220,109403,54,0,B|373:210|373:210|328:166|328:166|281:157,1,160,2|8,1:2|0:1,0:0:0:0:
200,26,110295,2,0,B|187:63|187:63|200:102,2,80,2|0|0,0:0|0:0|1:2,0:0:0:0:
67,115,111186,5,10,0:0:0:0:
80,106,111334,2,0,L|199:101,1,120,2|0,1:2|1:2,0:0:0:0:
256,192,111928,12,0,113562,0:0:0:0:
268,194,114156,22,0,L|322:184,1,55.0000016784668,6|0,1:2|0:0,0:0:0:0:
271,283,114453,2,0,P|222:257|168:249,1,110.000003356934,4|8,0:3|0:0,0:0:0:0:
94,272,114899,1,12,0:3:0:0:
170,278,115047,1,4,0:3:0:0:
107,13,115344,6,0,P|101:67|97:122,1,110.000003356934,2|0,1:2|0:0,0:0:0:0:
155,173,115790,1,4,0:3:0:0:
217,129,115938,2,0,B|221:101|221:101|216:74,1,55.0000016784668,8|0,0:0|0:0,0:0:0:0:
93,217,116235,2,0,B|88:244|88:244|93:271,1,55.0000016784668,2|0,1:2|0:0,0:0:0:0:
213,302,116532,54,0,L|159:311,1,55.0000016784668
271,251,116829,2,0,L|379:268,1,110.000003356934,2|8,1:2|0:0,0:0:0:0:
456,265,117275,1,4,0:3:0:0:
381,283,117423,1,0,0:0:0:0:
340,42,117720,6,0,P|324:94|321:149,1,110.000003356934,2|4,1:2|0:0,0:0:0:0:
379,200,118166,1,4,0:3:0:0:
433,146,118314,2,0,L|487:149,1,55.0000016784668,8|0,0:0|0:0,0:0:0:0:
325,254,118611,2,0,L|270:250,1,55.0000016784668,4|0,0:3|0:0,0:0:0:0:
435,363,118908,54,0,P|463:317|455:264,1,110.000003356934,2|0,1:2|0:0,0:0:0:0:
325,254,119354,1,12,0:3:0:0:
256,288,119502,2,0,P|201:283|146:276,1,110.000003356934,8|2,0:0|1:2,0:0:0:0:
146,118,120097,6,0,P|173:113|199:107,1,55.0000016784668,0|0,1:2|0:0,0:0:0:0:
116,44,120394,1,4,0:3:0:0:
44,73,120543,1,0,1:2:0:0:
74,146,120691,2,0,P|69:200|62:255,1,110.000003356934,8|0,0:0|1:2,0:0:0:0:
89,327,121136,1,4,0:3:0:0:
219,235,121285,54,0,B|248:227|276:240|265:248|293:260|323:253,1,110.000003356934,2|0,0:0|1:2,0:0:0:0:
324,253,121879,1,8,0:0:0:0:
348,325,122027,1,4,0:3:0:0:
339,248,122176,1,8,0:3:0:0:
363,176,122324,1,8,0:3:0:0:
493,64,122473,6,0,P|438:55|384:46,1,110.000003356934,6|0,1:2|0:0,0:0:0:0:
368,60,123067,2,0,P|422:68|476:77,1,110.000003356934,6|0,1:2|0:0,0:0:0:0:
476,77,123661,1,0,0:0:0:0:
274,102,123958,54,0,P|266:75|265:48,1,55.0000016784668,6|2,1:2|0:0,0:0:0:0:
334,150,124255,2,0,P|280:146|241:183,1,110.000003356934,10|4,0:0|0:3,0:0:0:0:
197,246,124701,1,0,0:0:0:0:
131,206,124849,2,0,P|133:151|136:96,1,110.000003356934,2|0,1:2|0:0,0:0:0:0:
60,79,125295,1,4,0:3:0:0:
55,199,125443,5,10,0:0:0:0:
131,205,125591,1,4,3:0:0:0:
125,281,125740,1,2,1:2:0:0:
49,275,125888,1,0,0:0:0:0:
176,352,126037,54,0,B|205:360|233:347|222:339|250:327|280:334,1,110.000003356934,0|2,0:0|1:2,0:0:0:0:
348,371,126483,1,2,0:0:0:0:
383,302,126631,2,0,P|377:247|355:197,1,110.000003356934,10|4,0:0|0:3,0:0:0:0:
285,228,127077,1,8,0:3:0:0:
202,116,127225,6,0,P|256:119|311:123,1,110.000003356934,2|8,1:2|0:3,0:0:0:0:
349,56,127671,2,0,P|376:54|403:52,1,55.0000016784668,2|8,0:0|0:0,0:0:0:0:
480,168,127967,1,0,0:0:0:0:
410,201,128116,2,0,P|382:199|355:197,1,55.0000016784668,2|0,0:0|0:0,0:0:0:0:
202,116,128413,37,6,1:2:0:0:
202,116,128710,2,0,L|205:61,1,55.0000016784668,4|0,0:3|0:0,0:0:0:0:
260,271,129007,37,0,1:2:0:0:
260,271,129304,2,0,L|263:325,1,55.0000016784668,4|0,0:3|0:0,0:0:0:0:
133,181,129602,21,6,1:2:0:0:
133,181,129899,1,0,0:0:0:0:
244,189,130047,1,4,0:3:0:0:
355,197,130196,1,0,1:2:0:0:
223,205,130493,37,14,1:2:0:0:
256,192,130641,12,2,131978,1:2:0:0:
355,124,132572,5,2,0:0:0:0:
281,119,132720,1,2,0:0:0:0:
221,162,132869,1,2,0:0:0:0:
202,233,133017,1,2,0:0:0:0:
346,314,133166,22,0,P|349:283|353:252,1,61.9999975402833,6|0,1:2|0:0,0:0:0:0:
233,318,133463,2,0,P|258:336|282:355,1,61.9999975402833,2|0,0:0|1:2,0:0:0:0:
286,219,133760,2,0,P|257:231|228:243,1,61.9999975402833,10|0,0:0|0:0,0:0:0:0:
125,341,134057,22,0,P|121:279|116:217,1,123.999995080567,2|0,1:2|0:0,0:0:0:0:
66,163,134502,1,0,0:0:0:0:
66,163,134651,1,2,1:2:0:0:
227,46,134948,53,10,0:0:0:0:
152,37,135097,1,2,0:0:0:0:
221,63,135245,1,0,0:0:0:0:
146,54,135394,1,0,0:0:0:0:
320,79,135542,54,0,P|349:71|380:64,1,61.9999975402833,2|0,1:2|0:0,0:0:0:0:
235,123,135839,2,0,P|228:92|220:62,1,61.9999975402833,2|0,0:0|1:2,0:0:0:0:
364,163,136136,2,0,P|370:193|378:223,1,61.9999975402833,10|0,0:0|0:0,0:0:0:0:
255,220,136433,22,0,P|202:252|141:258,1,123.999995080567,2|0,1:2|0:0,0:0:0:0:
136,183,136879,1,0,0:0:0:0:
136,183,137027,1,2,1:2:0:0:
318,269,137324,54,0,P|379:275|431:307,1,123.999995080567,8|0,0:0|0:0,0:0:0:0:
469,48,137918,54,0,P|438:56|409:64,1,61.9999975402833,2|0,1:2|0:0,0:0:0:0:
331,189,138215,2,0,P|338:158|346:128,1,61.9999975402833,2|0,0:0|1:2,0:0:0:0:
293,24,138512,2,0,P|262:16|232:8,1,61.9999975402833,8|0,0:0|0:0,0:0:0:0:
121,164,138809,22,0,B|161:156|161:156|193:130|193:130|233:122,1,123.999995080567,2|0,1:2|0:0,0:0:0:0:
234,122,139403,2,0,B|224:150|224:150|234:179,1,61.9999975402833,2|0,1:2|0:0,0:0:0:0:
379,236,139701,2,0,B|388:207|388:207|379:178,1,61.9999975402833,8|0,0:0|0:0,0:0:0:0:
240,280,139998,2,0,P|270:283|301:287,1,61.9999975402833,2|0,1:2|0:0,0:0:0:0:
125,374,140295,54,0,P|118:312|118:250,1,123.999995080567,2|0,1:2|0:0,0:0:0:0:
186,222,140740,1,0,1:2:0:0:
186,222,140889,2,0,P|192:283|192:345,1,123.999995080567,8|0,0:0|1:2,0:0:0:0:
338,246,141483,53,0,0:0:0:0:
406,217,141632,1,0,1:2:0:0:
435,285,141780,1,0,1:2:0:0:
423,294,142078,21,10,0:0:0:0:
349,301,142226,1,2,0:0:0:0:
342,227,142375,1,2,1:2:0:0:
416,220,142523,1,2,0:0:0:0:
320,136,142671,54,0,B|310:164|310:164|320:193,1,61.9999975402833,2|0,1:2|0:0,0:0:0:0:
375,84,142968,2,0,B|341:91|310:78|322:68|290:54|257:62,1,123.999995080567,2|8,0:0|0:0,0:0:0:0:
256,63,143562,2,0,P|230:80|201:89,1,61.9999975402833,2|0,1:2|0:0,0:0:0:0:
133,57,143859,1,0,0:0:0:0:
32,178,144156,2,0,P|90:196|141:231,1,123.999995080567,2|8,1:2|0:0,0:0:0:0:
175,298,144602,1,0,0:0:0:0:
167,224,144750,1,0,0:0:0:0:
346,237,145047,54,0,P|339:267|334:297,1,61.9999975402833,2|0,1:2|0:0,0:0:0:0:
357,368,145344,1,0,0:0:0:0:
363,293,145493,2,0,P|350:232|339:171,1,123.999995080567,2|0,1:2|0:0,0:0:0:0:
400,66,145938,22,0,P|443:106|502:96,1,123.999995080567,2|0,1:2|0:0,0:0:0:0:
502,96,146532,2,0,P|443:85|399:126,1,123.999995080567,2|8,1:2|0:0,0:0:0:0:
339,171,146978,1,0,0:0:0:0:
265,162,147126,1,0,0:0:0:0:
94,11,147423,54,0,P|121:99|130:192,1,185.99999262085,2|0,1:2|0:0,0:0:0:0:
93,256,148017,2,0,L|31:247,1,61.9999975402833,8|0,0:0|0:0,0:0:0:0:
203,170,148314,2,0,L|264:161,1,61.9999975402833,2|0,1:2|0:0,0:0:0:0:
315,315,148611,54,0,P|254:317|212:274,1,123.999995080567,0|0,0:0|1:2,0:0:0:0:
212,274,149205,2,0,L|203:335,1,61.9999975402833,10|0,0:0|0:0,0:0:0:0:
347,232,149502,2,0,L|338:170,1,61.9999975402833
241,6,149800,22,0,P|266:62|281:123,1,123.999995080567,2|2,1:2|0:0,0:0:0:0:
186,289,150246,2,0,P|223:239|268:197,1,123.999995080567,2|0,1:2|0:0,0:0:0:0:
459,194,150691,2,0,P|398:187|338:170,1,123.999995080567,10|0,1:2|0:0,0:0:0:0:
281,123,151136,1,0,1:2:0:0:
281,123,151285,1,2,1:2:0:0:
235,199,151582,53,10,0:0:0:0:
161,186,151730,1,2,0:0:0:0:
228,217,151879,1,2,0:0:0:0:
270,278,152027,1,2,0:0:0:0:
114,353,152176,54,0,P|121:322|126:292,1,61.9999975402833,6|0,1:2|0:0,0:0:0:0:
70,153,152473,2,0,P|75:183|81:213,1,61.9999975402833,2|0,0:0|1:2,0:0:0:0:
209,266,152770,2,0,P|239:271|269:277,1,61.9999975402833,10|0,0:0|0:0,0:0:0:0:
348,149,153067,22,0,P|287:162|237:196,1,123.999995080567,2|0,1:2|0:0,0:0:0:0:
209,266,153512,1,0,0:0:0:0:
209,266,153661,1,2,1:2:0:0:
75,81,153958,53,10,0:0:0:0:
66,154,154106,1,2,0:0:0:0:
94,84,154255,1,0,0:0:0:0:
85,157,154403,1,0,0:0:0:0:
50,262,154552,54,0,P|79:272|108:282,1,61.9999975402833,2|0,1:2|0:0,0:0:0:0:
205,188,154849,2,0,P|234:177|263:167,1,61.9999975402833,2|0,0:0|1:2,0:0:0:0:
360,262,155146,2,0,P|389:272|418:282,1,61.9999975402833,10|0,0:0|0:0,0:0:0:0:
274,360,155443,22,0,P|243:307|257:248,1,123.999995080567,2|0,1:2|0:0,0:0:0:0:
302,189,155889,1,0,0:0:0:0:
302,189,156037,1,2,1:2:0:0:
488,325,156334,54,0,P|426:332|368:354,1,123.999995080567,8|0,0:0|0:0,0:0:0:0:
160,205,156928,54,0,B|153:235|153:235|159:265,1,61.9999975402833,2|0,1:2|0:0,0:0:0:0:
274,360,157225,2,0,B|280:329|280:329|274:299,1,61.9999975402833,2|0,0:0|1:2,0:0:0:0:
124,337,157522,2,0,L|185:341,1,61.9999975402833,10|0,0:0|0:0,0:0:0:0:
260,199,157819,22,0,L|250:75,1,123.999995080567,2|0,1:2|0:0,0:0:0:0:
315,39,158265,1,0,0:0:0:0:
367,162,158413,2,0,L|362:223,1,61.9999975402833,2|0,1:2|0:0,0:0:0:0:
244,327,158710,54,0,B|212:316|180:327|190:338|158:348|126:338,1,123.999995080567,8|2,0:0|1:2,0:0:0:0:
41,53,159304,54,0,P|34:114|28:176,1,123.999995080567,2|0,1:2|0:0,0:0:0:0:
102,166,159750,1,2,1:2:0:0:
152,264,159899,2,0,P|157:233|166:204,1,61.9999975402833,8|0,0:0|0:0,0:0:0:0:
233,35,160196,22,0,P|263:88|276:149,1,123.999995080567,2|0,1:2|0:0,0:0:0:0:
247,217,160641,1,0,1:2:0:0:
247,217,160790,1,2,1:2:0:0:
431,357,161087,53,8,0:0:0:0:
428,282,161235,1,0,1:2:0:0:
425,207,161384,2,0,P|455:200|485:204,1,61.9999975402833
334,269,161681,54,0,P|274:268|246:216,1,123.999995080567,2|0,1:2|0:0,0:0:0:0:
276,149,162126,1,0,1:2:0:0:
351,261,162275,2,0,L|344:322,1,61.9999975402833,8|0,0:0|0:0,0:0:0:0:
222,342,162572,22,0,L|203:156,1,185.99999262085,0|0,1:2|0:0,0:0:0:0:
168,90,163166,2,0,P|137:88|106:94,1,61.9999975402833,0|0,1:2|0:0,0:0:0:0:
276,149,163463,2,0,B|309:154|339:137|327:128|357:112|391:117,1,123.999995080567,8|0,0:0|0:0,0:0:0:0:
504,310,164057,54,0,P|442:302|381:294,1,123.999995080567,2|0,1:2|0:0,0:0:0:0:
313,324,164502,1,0,1:2:0:0:
260,271,164651,2,0,P|268:209|275:148,1,123.999995080567,8|0,0:0|1:2,0:0:0:0:
150,24,165245,54,0,P|137:84|142:145,1,123.999995080567,2|2,0:0|1:2,0:0:0:0:
194,199,165691,1,2,0:0:0:0:
257,160,165839,2,0,P|287:162|318:164,1,61.9999975402833,8|0,0:0|0:0,0:0:0:0:
204,275,166136,2,0,P|173:272|142:270,1,61.9999975402833
269,353,166433,22,0,P|333:287|424:284,1,185.99999262085,2|0,1:2|0:0,0:0:0:0:
450,354,167027,2,0,L|512:357,1,61.9999975402833,8|0,0:0|0:0,0:0:0:0:
357,363,167324,54,0,L|348:177,1,185.99999262085,2|0,1:2|0:0,0:0:0:0:
409,134,167918,2,0,B|423:160|423:160|422:191,1,61.9999975402833,8|0,0:0|0:0,0:0:0:0:
266,210,168215,54,0,L|271:86,1,123.999995080567,2|0,1:2|0:0,0:0:0:0:
271,86,168809,1,10,0:0:0:0:
256,192,168958,12,2,171186,0:0:0:0:
221,202,180691,38,0,P|275:194|330:189,1,110.000003356934,2|0,1:2|0:0,0:0:0:0:
389,140,181136,1,0,1:2:0:0:
259,353,181582,2,0,P|183:335|169:259,1,165.000005035401,0|0,1:2|0:0,0:0:0:0:
221,202,182176,1,0,1:2:0:0:
354,335,182473,1,8,0:0:0:0:
332,134,182770,22,0,L|330:188,1,55.0000016784668,2|0,0:0|0:0,0:0:0:0:
373,252,183067,1,2,1:2:0:0:
168,312,183364,38,0,B|163:285|163:285|168:259,1,55.0000016784668,2|2,0:0|1:2,0:0:0:0:
241,282,183661,1,8,0:2:0:0:
164,150,183958,22,0,L|109:153,1,55.0000016784668,2|2,1:2|0:0,0:0:0:0:
49,203,184255,2,0,L|56:93,2,110.000003356934,0|0|10,0:0|1:2|0:0,0:0:0:0:
21,275,184998,1,0,1:2:0:0:
229,352,185443,38,0,P|271:283|263:202,1,165.000005035401,0|0,1:2|0:0,0:0:0:0:
222,137,186037,2,0,L|276:127,1,55.0000016784668,8|0,0:0|0:0,0:0:0:0:
149,86,186334,21,2,1:2:0:0:
123,159,186483,2,0,P|125:213|123:268,1,110.000003356934,0|0,1:2|0:0,0:0:0:0:
198,252,186928,1,0,1:2:0:0:
353,319,187225,38,0,B|389:315|389:315|419:294|419:294|455:291,1,110.000003356934,8|0,0:0|0:0,0:0:0:0:
229,352,187819,1,2,1:2:0:0:
256,192,187968,12,2,189899,0:0:0:0:
190,92,190233,21,0,0:0:0:0:
321,185,190493,2,0,L|375:181,1,55.0000016784668,6|0,1:2|0:0,0:0:0:0:
405,252,190790,2,0,L|295:259,1,110.000003356934,8|4,0:0|0:3,0:0:0:0:
246,275,191186,2,0,L|283:278,1,36.6666677856446,8|8,0:3|0:3,0:0:0:0:
341,334,191384,1,2,1:2:0:0:
44,376,191681,6,0,B|36:349|36:349|38:322,1,55.0000016784668,0|4,0:0|0:3,0:0:0:0:
86,261,191978,1,8,0:0:0:0:
160,280,192126,1,4,0:3:0:0:
228,246,192275,1,2,1:2:0:0:
258,176,192423,1,0,0:0:0:0:
247,252,192572,53,0,0:0:0:0:
153,111,192869,2,0,P|155:129|158:147,2,36.6666677856446,0|4|4,1:2|0:3|0:3,0:0:0:0:
190,76,193166,2,0,P|186:130|182:185,1,110.000003356934,8|2,0:0|0:0,0:0:0:0:
258,176,193611,1,4,0:3:0:0:
355,231,193760,6,0,P|356:203|361:176,1,55.0000016784668,2|0,1:2|0:0,0:0:0:0:
424,132,194057,2,0,P|450:137|478:142,1,55.0000016784668,4|2,0:3|0:0,0:0:0:0:
355,231,194354,2,0,P|300:240|246:251,1,110.000003356934,8|0,0:0|0:0,0:0:0:0:
77,342,194948,37,6,1:2:0:0:
77,342,195245,2,0,P|72:314|66:288,1,55.0000016784668,4|0,0:3|0:0,0:0:0:0:
164,157,195542,37,0,1:2:0:0:
164,157,195839,2,0,P|158:183|153:210,1,55.0000016784668,4|0,0:3|0:0,0:0:0:0:
270,335,196136,21,6,1:2:0:0:
270,335,196433,1,0,0:0:0:0:
261,225,196582,2,0,P|266:170|274:115,1,110.000003356934,2|0,1:2|0:0,0:0:0:0:
250,235,197027,37,6,1:2:0:0:
256,192,197176,12,2,198512,1:2:0:0:
171,266,199106,5,2,0:0:0:0:
248,260,199255,1,2,0:0:0:0:
325,254,199403,1,2,0:0:0:0:
402,248,199552,1,2,0:0:0:0:
330,99,199701,22,0,P|329:130|325:161,1,61.9999975402833,6|0,1:2|0:0,0:0:0:0:
480,192,199998,2,0,P|475:161|475:130,1,61.9999975402833,2|0,0:0|1:2,0:0:0:0:
325,254,200295,2,0,P|355:254|386:258,1,61.9999975402833,8|0,0:0|0:0,0:0:0:0:
237,162,200592,22,0,P|201:209|142:206,1,123.999995080567,2|0,1:2|0:0,0:0:0:0:
79,167,201037,1,0,0:0:0:0:
79,167,201186,1,2,1:2:0:0:
165,343,201483,53,8,0:0:0:0:
218,292,201631,1,2,0:0:0:0:
237,365,201780,1,0,0:0:0:0:
165,343,201928,1,0,0:0:0:0:
320,318,202077,54,0,P|351:323|381:330,1,61.9999975402833,2|0,1:2|0:0,0:0:0:0:
213,256,202374,2,0,P|182:261|152:268,1,61.9999975402833,2|0,0:0|1:2,0:0:0:0:
321,194,202671,2,0,P|351:199|381:206,1,61.9999975402833,8|0,0:0|0:0,0:0:0:0:
242,174,202968,22,0,P|238:112|236:50,1,123.999995080567,2|0,1:2|0:0,0:0:0:0:
166,74,203413,1,0,0:0:0:0:
166,74,203562,1,2,1:2:0:0:
212,255,203859,54,0,P|207:317|182:374,1,123.999995080567,8|0,0:0|0:0,0:0:0:0:
425,324,204453,54,0,P|419:293|409:264,1,61.9999975402833,2|0,1:2|0:0,0:0:0:0:
336,134,204750,2,0,P|325:163|320:193,1,61.9999975402833,2|0,0:0|1:2,0:0:0:0:
261,302,205047,2,0,P|291:307|320:317,1,61.9999975402833,8|0,0:0|0:0,0:0:0:0:
182,183,205344,22,0,P|121:181|72:217,1,123.999995080567,2|0,1:2|0:0,0:0:0:0:
71,218,205938,2,0,P|65:187|60:156,1,61.9999975402833,2|0,1:2|0:0,0:0:0:0:
183,278,206235,2,0,P|177:308|172:339,1,61.9999975402833,10|0,0:0|0:0,0:0:0:0:
320,193,206532,2,0,P|289:187|258:182,1,61.9999975402833,2|0,1:2|0:0,0:0:0:0:
318,324,206829,54,0,P|379:323|432:293,1,123.999995080567,2|0,1:2|0:0,0:0:0:0:
502,265,207275,1,0,1:2:0:0:
502,265,207423,2,0,P|448:234|387:234,1,123.999995080567,8|0,0:0|1:2,0:0:0:0:
85,279,208017,53,0,0:0:0:0:
147,317,208166,1,0,1:2:0:0:
207,275,208314,1,0,1:2:0:0:
220,280,208611,21,10,0:0:0:0:
155,244,208760,1,2,0:0:0:0:
139,171,208908,1,2,1:2:0:0:
185,112,209057,1,2,0:0:0:0:
320,192,209205,54,0,P|319:223|314:254,1,61.9999975402833,2|0,1:2|0:0,0:0:0:0:
256,153,209502,2,0,P|315:138|377:139,1,123.999995080567,2|8,0:0|0:0,0:0:0:0:
377,139,210097,2,0,P|408:146|438:140,1,61.9999975402833,2|0,1:2|0:0,0:0:0:0:
412,70,210394,1,0,0:0:0:0:
449,372,210691,54,0,B|423:335|423:335|431:256,1,123.999995080567,2|8,1:2|0:0,0:0:0:0:
476,198,211136,1,0,0:0:0:0:
447,267,211285,1,0,0:0:0:0:
254,133,211582,22,0,P|227:119|196:123,1,61.9999975402833,2|0,1:2|0:0,0:0:0:0:
135,166,211879,1,0,0:0:0:0:
202,136,212027,2,0,P|255:167|313:151,1,123.999995080567,0|0,1:2|0:0,0:0:0:0:
456,144,212473,54,0,P|452:205|447:267,1,123.999995080567,2|0,1:2|0:0,0:0:0:0:
447,267,213067,2,0,P|385:262|323:258,1,123.999995080567,2|8,1:2|0:0,0:0:0:0:
254,285,213512,1,0,0:0:0:0:
184,311,213661,1,0,0:0:0:0:
47,126,213958,54,0,P|61:218|66:311,1,185.99999262085,2|0,1:2|0:0,0:0:0:0:
100,378,214552,2,0,P|100:347|111:318,1,61.9999975402833,8|0,0:0|0:0,0:0:0:0:
174,161,214849,2,0,P|184:189|185:220,1,61.9999975402833,2|0,1:2|0:0,0:0:0:0:
207,322,215146,22,0,P|268:329|317:293,1,123.999995080567,0|0,0:0|1:2,0:0:0:0:
316,293,215740,2,0,P|305:322|305:353,1,61.9999975402833,8|0,0:0|0:0,0:0:0:0:
417,230,216037,2,0,P|416:199|405:170,1,61.9999975402833
330,78,216334,54,0,P|269:90|208:103,1,123.999995080567,2|2,1:2|0:0,0:0:0:0:
111,30,216780,2,0,P|124:90|136:151,1,123.999995080567,2|0,1:2|0:0,0:0:0:0:
194,309,217225,2,0,P|207:248|219:187,1,123.999995080567,10|0,1:2|0:0,0:0:0:0:
287,158,217671,1,0,1:2:0:0:
287,158,217819,1,2,1:2:0:0:
473,245,218116,53,10,0:0:0:0:
404,274,218265,1,2,0:0:0:0:
357,215,218413,1,2,1:2:0:0:
426,186,218562,1,2,0:0:0:0:
321,317,218710,22,0,P|291:326|260:327,1,61.9999975402833,6|0,1:2|0:0,0:0:0:0:
198,193,219007,2,0,P|200:224|202:255,1,61.9999975402833,2|0,0:0|1:2,0:0:0:0:
106,366,219304,2,0,P|108:335|110:304,1,61.9999975402833,8|0,0:0|0:0,0:0:0:0:
41,146,219602,54,0,B|81:137|81:137|108:107|108:107|148:98,1,123.999995080567,2|0,1:2|0:0,0:0:0:0:
222,112,220047,1,0,0:0:0:0:
222,112,220196,1,2,1:2:0:0:
381,233,220493,53,8,0:0:0:0:
391,159,220641,1,2,0:0:0:0:
465,155,220790,1,0,0:0:0:0:
455,229,220938,1,0,0:0:0:0:
302,306,221087,22,0,P|297:275|292:244,1,61.9999975402833,2|0,1:2|0:0,0:0:0:0:
222,112,221384,2,0,P|217:142|212:173,1,61.9999975402833,2|0,0:0|1:2,0:0:0:0:
101,274,221681,2,0,B|129:263|129:263|160:267,1,61.9999975402833,10|0,0:0|0:0,0:0:0:0:
302,306,221978,54,0,P|363:296|424:284,1,123.999995080567,2|0,1:2|0:0,0:0:0:0:
425,359,222423,1,0,0:0:0:0:
425,359,222572,1,2,1:2:0:0:
347,208,222868,54,0,P|347:146|366:87,1,123.999995080567,8|0,0:0|0:0,0:0:0:0:
160,217,223463,22,0,P|190:221|221:226,1,61.9999975402833,2|0,1:2|0:0,0:0:0:0:
79,177,223760,2,0,P|74:207|69:238,1,61.9999975402833,2|0,0:0|1:2,0:0:0:0:
182,133,224057,2,0,P|176:102|172:71,1,61.9999975402833,8|0,0:0|0:0,0:0:0:0:
247,239,224354,54,0,P|219:293|215:355,1,123.999995080567,2|0,1:2|0:0,0:0:0:0:
142,342,224800,1,0,0:0:0:0:
28,305,224948,2,0,P|59:300|88:290,1,61.9999975402833,2|0,1:2|0:0,0:0:0:0:
93,160,225245,54,0,P|144:190|151:250,1,123.999995080567,8|2,0:0|1:2,0:0:0:0:
303,359,225839,22,0,P|309:299|360:269,1,123.999995080567,2|0,1:2|0:0,0:0:0:0:
346,196,226285,1,2,1:2:0:0:
380,289,226433,2,0,L|440:300,1,61.9999975402833,8|0,0:0|0:0,0:0:0:0:
272,226,226730,54,0,L|150:249,1,123.999995080567,2|0,1:2|0:0,0:0:0:0:
162,175,227176,1,0,1:2:0:0:
162,175,227324,1,2,1:2:0:0:
360,268,227621,53,8,0:0:0:0:
344,196,227770,1,0,1:2:0:0:
386,133,227918,2,0,P|416:127|446:133,1,61.9999975402833
360,268,228215,22,0,P|299:278|241:258,1,123.999995080567,6|0,1:2|0:0,0:0:0:0:
203,193,228661,1,0,0:0:0:0:
226,263,228809,2,0,P|224:293|222:324,1,61.9999975402833,8|0,0:0|0:0,0:0:0:0:
107,358,229106,53,0,0:0:0:0:
107,358,229701,1,0,0:0:0:0:
107,358,229998,2,0,L|103:296,1,61.9999975402833,8|0,0:0|0:0,0:0:0:0:
4,250,230295,2,0,P|31:235|62:233,1,61.9999975402833,6|0,1:2|0:0,0:0:0:0:
203,193,230592,54,0,P|249:231|310:227,1,123.999995080567,6|0,1:2|0:0,0:0:0:0:
365,178,231037,1,0,0:0:0:0:
302,218,231186,2,0,P|294:247|291:278,1,61.9999975402833,8|0,0:0|0:0,0:0:0:0:
386,356,231483,21,0,0:0:0:0:
386,356,232077,1,0,0:0:0:0:
386,356,232374,2,0,P|416:352|447:349,1,61.9999975402833,8|0,0:0|0:0,0:0:0:0:
291,278,232671,2,0,P|260:274|229:271,1,61.9999975402833
408,246,232968,54,0,P|417:184|421:122,1,123.999995080567,2|0,1:2|0:0,0:0:0:0:
394,53,233413,1,0,0:0:0:0:
401,127,233562,1,8,0:0:0:0:
150,110,233859,54,0,P|184:61|243:66,1,123.999995080567,2|0,1:2|0:0,0:0:0:0:
314,86,234304,1,0,0:0:0:0:
240,96,234453,1,8,0:0:0:0:
323,280,234750,22,0,P|233:256|141:241,1,185.99999262085,2|0,1:2|0:0,0:0:0:0:
68,257,235344,53,0,1:2:0:0:
141,266,235493,1,0,1:2:0:0:
191,212,235790,53,0,1:2:0:0:
264,221,236235,21,2,1:2:0:0:
314,167,236681,53,0,1:2:0:0:
387,176,236830,1,2,1:2:0:0:
217,52,237126,54,0,L|228:112,1,61.9999975402833,8|2,0:0|0:0,0:0:0:0:
369,72,237423,2,0,L|380:12,1,61.9999975402833,2|2,1:2|0:0,0:0:0:0:
461,205,237720,22,0,P|384:219|366:295,1,165.000005035401,6|0,1:2|1:2,0:0:0:0:
428,343,238314,1,8,0:0:0:0:
243,222,238611,1,0,1:2:0:0:
177,262,238760,2,0,L|68:257,1,110.000003356934,0|2,0:0|0:0,0:0:0:0:
90,183,239205,1,2,1:2:0:0:
365,294,239502,53,8,0:0:0:0:
419,239,239651,1,0,0:0:0:0:
414,162,239800,1,0,0:0:0:0:
353,114,239948,1,0,0:0:0:0:
288,291,240097,22,0,P|207:306|137:349,1,165.000005035401,2|2,1:2|1:2,0:0:0:0:
118,274,240691,1,8,0:0:0:0:
212,34,240988,21,2,1:2:0:0:
150,80,241136,2,0,P|158:134|167:188,1,110.000003356934
90,183,241582,1,2,1:2:0:0:
288,291,241879,21,10,0:0:0:0:
364,300,242027,1,0,1:2:0:0:
251,214,242176,1,0,0:0:0:0:
175,223,242324,1,0,0:0:0:0:
322,127,242473,54,0,P|368:190|447:183,1,165.000005035401,2|2,1:2|1:2,0:0:0:0:
491,120,243067,1,10,0:0:0:0:
364,300,243364,21,2,1:2:0:0:
288,291,243512,2,0,P|239:312|223:363,1,110.000003356934,2|2,0:0|0:0,0:0:0:0:
146,355,243958,1,2,1:2:0:0:
26,212,244255,21,10,0:0:0:0:
100,230,244403,1,2,0:0:0:0:
136,161,244552,1,0,1:2:0:0:
62,143,244700,1,0,0:0:0:0:
219,203,244849,22,0,P|224:120|220:38,1,165.000005035401,2|2,1:2|1:2,0:0:0:0:
294,60,245443,1,8,0:0:0:0:
477,190,245740,53,2,1:2:0:0:
402,212,245889,2,0,P|347:203|293:192,1,110.000003356934,0|2,0:0|1:2,0:0:0:0:
263,263,246334,1,2,1:2:0:0:
84,353,246631,21,8,0:0:0:0:
75,276,246780,1,2,1:2:0:0:
179,192,246928,1,2,0:0:0:0:
188,115,247077,1,2,0:0:0:0:
226,281,247225,21,0,1:2:0:0:
226,281,247522,22,0,P|280:289|334:300,1,110.000003356934,2|8,0:0|0:0,0:0:0:0:
401,261,247968,1,0,0:0:0:0:
459,311,248116,2,0,P|457:338|456:365,1,55.0000016784668,2|2,1:2|0:0,0:0:0:0:
383,235,248413,54,0,P|382:180|404:130,1,110.000003356934,2|0,0:0|1:2,0:0:0:0:
450,68,248859,1,2,0:0:0:0:
426,141,249007,2,0,P|453:144|480:145,1,55.0000016784668,8|0,0:0|0:0,0:0:0:0:
334,59,249304,2,0,P|306:55|279:54,1,55.0000016784668
170,116,249602,21,0,1:2:0:0:
111,62,249899,21,2,0:0:0:0:
111,62,250047,1,0,1:2:0:0:
45,103,250196,2,0,B|78:146|78:146|61:199,1,110.000003356934,10|2,0:0|1:2,0:0:0:0:
61,199,250790,22,0,L|116:193,1,55.0000016784668,2|0,0:0|0:0,0:0:0:0:
171,280,251087,2,0,L|116:286,1,55.0000016784668,0|0,1:2|0:0,0:0:0:0:
200,147,251384,54,0,L|255:141,1,55.0000016784668,10|0,0:0|1:2,0:0:0:0:
317,283,251681,2,0,L|262:289,1,55.0000016784668
371,174,251978,5,0,1:2:0:0:
371,174,252275,2,0,P|380:200|382:228,1,55.0000016784668,2|0,0:0|1:2,0:0:0:0:
272,342,252572,22,0,P|264:317|262:289,1,55.0000016784668,10|0,0:0|0:0,0:0:0:0:
190,56,252869,2,0,P|181:82|175:166,1,110.000003356934,2|0,1:2|0:0,0:0:0:0:
54,310,253463,6,0,P|45:284|39:200,1,110.000003356934,2|0,1:2|0:0,0:0:0:0:
38,202,253908,1,0,0:0:0:0:
128,362,254057,6,0,B|158:358|158:358|187:371,1,61.9999975402833,2|0,0:2|0:0,0:0:0:0:
