osu file format v14

[General]
AudioFilename: audio.ogg
AudioLeadIn: 0
PreviewTime: 44496
Countdown: 0
SampleSet: Soft
StackLeniency: 0.7
Mode: 3
LetterboxInBreaks: 0
SpecialStyle: 0
WidescreenStoryboard: 0

[Editor]
DistanceSpacing: 0.9
BeatDivisor: 6
GridSize: 16
TimelineZoom: 1.6

[Metadata]
Title:Believe in you (TV Size)
TitleUnicode:Believe in you (TV Size)
Artist:nonoc
ArtistUnicode:nonoc
Creator:secXcscX
Version:4K Trust You
Source:Re:ゼロから始める異世界生活
Tags:re:zero kara hajimeru isekai seikatsu rezero starting life in another world different from zero season two second 2nd anime ending ed japanese pop jpop j-pop rock jrock j-rock KADOKAWA ost
BeatmapID:2940249
BeatmapSetID:1428082

[Difficulty]
HPDrainRate:8
CircleSize:4
OverallDifficulty:8
ApproachRate:5
SliderMultiplier:1.4
SliderTickRate:1

[Events]
//Background and Video events
0,0,"BG2.jpg",0,0
//Break Periods
//Storyboard Layer 0 (Background)
//Storyboard Layer 1 (Fail)
//Storyboard Layer 2 (Pass)
//Storyboard Layer 3 (Foreground)
//Storyboard Layer 4 (Overlay)
//Storyboard Sound Samples
Sample,12213,0,"LR_HiHat Click.wav",70
Sample,14659,0,"LR_HiHat Click.wav",70
Sample,22648,0,"LR_HiHat Click.wav",70
Sample,25094,0,"LR_HiHat Click.wav",70
Sample,27866,0,"LR_HiHat Click.wav",70
Sample,37322,0,"LR_Hat Fast.wav",70
Sample,41398,0,"LR_Hat Fast.wav",70
Sample,46616,0,"LR_Kick Bass strong.wav",70
Sample,46616,0,"LR_Hat Fast.wav",70
Sample,47105,0,"LR_Hat Fast.wav",70
Sample,49224,0,"LR_Kick Bass strong.wav",70
Sample,49224,0,"LR_Hat Fast.wav",70
Sample,49713,0,"LR_Hat Fast.wav",70
Sample,51018,0,"LR_Hat Fast.wav",70
Sample,51833,0,"LR_Hat Fast.wav",70
Sample,52322,0,"LR_Kick Bass strong.wav",70
Sample,52322,0,"LR_Hat Fast.wav",70
Sample,53300,0,"LR_Hat Fast.wav",70
Sample,53626,0,"LR_Hat Fast.wav",70
Sample,54279,0,"LR_Hat Fast.wav",70
Sample,54442,0,"LR_Hat Fast.wav",70
Sample,57050,0,"LR_Kick Bass strong.wav",70
Sample,57050,0,"LR_Hat Fast.wav",70
Sample,57540,0,"LR_Hat Fast.wav",70
Sample,59659,0,"LR_Kick Bass strong.wav",70
Sample,59659,0,"LR_Hat Fast.wav",70
Sample,60148,0,"LR_Hat Fast.wav",70
Sample,61126,0,"LR_Hat Fast.wav",70
Sample,61453,0,"LR_Hat Fast.wav",70
Sample,62431,0,"LR_Hat Fast.wav",70
Sample,62757,0,"LR_Kick Bass strong.wav",70
Sample,62757,0,"LR_Hat Fast.wav",70
Sample,67974,0,"LR_Hat Fast.wav",70
Sample,69931,0,"LR_Hat Fast.wav",70
Sample,70583,0,"LR_Hat Fast.wav",70
Sample,73192,0,"LR_Hat Fast.wav",70
Sample,74496,0,"LR_Hat Fast.wav",70
Sample,75148,0,"LR_Hat Fast.wav",70
Sample,75800,0,"LR_Hat Fast.wav",70
Sample,78409,0,"LR_Hat Fast.wav",70
Sample,80366,0,"LR_Hat Fast.wav",70
Sample,82974,0,"LR_Hat Fast.wav",70
Sample,83626,0,"LR_Hat Fast.wav",70

[TimingPoints]
1127,652.173913043478,4,2,1,100,1,0
6670,-103.092783505155,4,2,1,100,0,0
7974,-107.52688172043,4,2,1,100,0,0
9279,-111.111111111111,4,2,1,100,0,0
10909,-107.52688172043,4,2,1,100,0,0
11235,-103.092783505155,4,2,1,100,0,0
11561,-100,4,2,1,100,0,0
44170,-20,4,2,1,100,0,0
44251,-666.666666666667,4,2,1,100,0,0
44291,-454.545454545455,4,2,1,100,0,0
44373,-333.333333333333,4,2,1,100,0,0
44496,-232.558139534884,4,2,1,100,0,0
44605,-161.290322580645,4,2,1,100,0,0
44713,-123.456790123457,4,2,1,100,0,0
44822,-100,4,2,1,100,0,0
45474,-100,4,2,1,100,0,1
66344,-100,4,2,1,100,0,0
85257,-103.092783505155,4,2,1,100,0,0
85909,-106.382978723404,4,2,1,100,0,0
86561,-111.111111111111,4,2,1,100,0,0
87213,-114.942528735632,4,2,1,100,0,0

[HitObjects]
192,192,474,5,0,0:0:0:70:F#6S_Gb6S.wav
320,192,800,128,0,1127:0:0:0:70:G#6S_Ab6S.wav
192,192,963,128,0,1127:0:0:0:70:F#6S_Gb6S.wav
64,192,1127,128,0,2105:0:0:0:70:F#5S_Gb5S.wav
448,192,1127,128,0,2757:0:0:0:0:
192,192,1453,1,0,0:0:0:40:F#6S_Gb6S.wav
320,192,2105,1,0,0:0:0:70:C#6S_Db6S.wav
192,192,2431,1,0,0:0:0:70:C#5S_Db5S.wav
320,192,2757,1,0,0:0:0:70:C#6S_Db6S.wav
192,192,3083,1,0,0:0:0:70:F#6S_Gb6S.wav
320,192,3409,128,0,3735:0:0:0:70:G#6S_Ab6S.wav
192,192,3572,128,0,3735:0:0:0:70:F#6S_Gb6S.wav
64,192,3735,128,0,4713:0:0:0:70:F#5S_Gb5S.wav
448,192,3735,128,0,5203:0:0:0:0:
192,192,4061,1,0,0:0:0:40:F#6S_Gb6S.wav
320,192,4713,1,0,0:0:0:70:C#6S_Db6S.wav
320,192,5203,1,0,0:0:0:70:C#6S_Db6S.wav
448,192,6018,128,0,6344:0:0:0:70:A#5S_Bb5S.wav
320,192,6181,128,0,6344:0:0:0:70:G#5S_Ab5S.wav
64,192,6344,128,0,7322:0:0:0:70:F#5S_Gb5S.wav
192,192,6344,128,0,7322:0:0:0:0:
192,192,7648,128,0,8626:0:0:0:70:C#5S_Db5S.wav
320,192,7648,128,0,8626:0:0:0:0:
320,192,8953,128,0,10257:0:0:0:70:F#5S_Gb5S.wav
448,192,8953,128,0,10909:0:0:0:0:
64,192,10583,1,0,0:0:0:55:D#6S_Eb6S.wav
192,192,10909,1,0,0:0:0:55:D#6S_Eb6S.wav
320,192,11235,1,0,0:0:0:70:F6S.wav
64,192,11561,1,0,0:0:0:55:F#6S_Gb6S.wav
192,192,11561,1,0,0:0:0:70:LR_Kick Bass strong.wav
448,192,11561,1,0,0:0:0:0:
192,192,11887,1,0,0:0:0:55:F#6S_Gb6S.wav
320,192,11887,1,0,0:0:0:0:
448,192,12213,1,0,0:0:0:55:F#6S_Gb6S.wav
64,192,12295,1,0,0:0:0:70:LR_HiHat Click.wav
192,192,12336,1,0,0:0:0:70:LR_HiHat Click.wav
320,192,12376,1,0,0:0:0:70:LR_HiHat Click.wav
64,192,12540,1,0,0:0:0:55:F#6S_Gb6S.wav
192,192,12540,1,0,0:0:0:0:
320,192,12703,1,0,0:0:0:55:F#6S_Gb6S.wav
64,192,12866,1,0,0:0:0:70:LR_Hat Fast.wav
448,192,12866,1,0,0:0:0:0:
192,192,13192,1,0,0:0:0:55:F6S.wav
320,192,13192,1,0,0:0:0:0:
64,192,13355,1,0,0:0:0:0:
320,192,13518,1,0,0:0:0:55:D#6S_Eb6S.wav
448,192,13518,1,0,0:0:0:0:
64,192,13844,1,0,0:0:0:55:C#6S_Db6S.wav
192,192,13844,1,0,0:0:0:0:
192,192,14170,1,0,0:0:0:55:A#5S_Bb5S.wav
448,192,14170,1,0,0:0:0:70:LR_Hat Fast.wav
320,192,14496,1,0,0:0:0:70:LR_HiHat Click.wav
64,192,14578,1,0,0:0:0:70:LR_HiHat Click.wav
192,192,14618,1,0,0:0:0:70:LR_HiHat Click.wav
320,192,14659,1,0,0:0:0:55:C#6S_Db6S.wav
64,192,14822,1,0,0:0:0:70:LR_Ride Med.wav
192,192,14822,1,0,0:0:0:0:
320,192,15148,1,0,0:0:0:70:LR_Hat Fast.wav
448,192,15148,1,0,0:0:0:0:
64,192,15474,128,0,15637:0:0:0:0:
64,192,15800,128,0,15963:0:0:0:0:
64,192,16126,1,0,0:0:0:70:LR_Hat Fast.wav
448,192,16126,1,0,0:0:0:0:
192,192,16453,1,0,0:0:0:55:A#5S_Bb5S.wav
448,192,16453,1,0,0:0:0:0:
320,192,16616,1,0,0:0:0:55:B5S.wav
64,192,16779,1,0,0:0:0:55:C#6S_Db6S.wav
192,192,16779,1,0,0:0:0:70:LR_Kick Bass strong.wav
448,192,16779,1,0,0:0:0:0:
320,192,17105,1,0,0:0:0:0:
64,192,17431,1,0,0:0:0:70:LR_HiHat Click.wav
448,192,17512,1,0,0:0:0:70:LR_HiHat Click.wav
320,192,17553,1,0,0:0:0:70:LR_HiHat Click.wav
192,192,17594,1,0,0:0:0:70:LR_HiHat Click.wav
320,192,17757,1,0,0:0:0:55:A#5S_Bb5S.wav
448,192,17757,1,0,0:0:0:0:
192,192,17920,1,0,0:0:0:55:C#6S_Db6S.wav
64,192,18083,1,0,0:0:0:70:LR_Hat Fast.wav
448,192,18083,1,0,0:0:0:0:
192,192,18409,1,0,0:0:0:55:A#5S_Bb5S.wav
320,192,18409,1,0,0:0:0:0:
320,192,18572,1,0,0:0:0:0:
64,192,18735,1,0,0:0:0:55:G#5S_Ab5S.wav
448,192,18735,1,0,0:0:0:0:
320,192,19061,1,0,0:0:0:55:G#5S_Ab5S.wav
448,192,19061,1,0,0:0:0:0:
192,192,19224,1,0,0:0:0:55:A#5S_Bb5S.wav
64,192,19387,1,0,0:0:0:70:LR_Hat Fast.wav
448,192,19387,1,0,0:0:0:0:
320,192,19713,1,0,0:0:0:70:LR_HiHat Click.wav
64,192,19795,1,0,0:0:0:70:LR_HiHat Click.wav
192,192,19836,1,0,0:0:0:70:LR_HiHat Click.wav
320,192,19876,1,0,0:0:0:70:LR_HiHat Click.wav
64,192,20040,128,0,21018:0:0:0:70:LR_Ride Med.wav
448,192,20040,1,0,0:0:0:0:
192,192,20366,128,0,21018:0:0:0:0:
320,192,20692,128,0,21018:0:0:0:70:LR_Hat Fast.wav
448,192,21018,1,0,0:0:0:55:D#6S_Eb6S.wav
192,192,21344,1,0,0:0:0:55:D#6S_Eb6S.wav
320,192,21670,1,0,0:0:0:55:F6S.wav
64,192,21996,1,0,0:0:0:55:F#6S_Gb6S.wav
192,192,21996,1,0,0:0:0:70:LR_Kick Bass strong.wav
448,192,21996,1,0,0:0:0:0:
64,192,22322,1,0,0:0:0:55:F#6S_Gb6S.wav
320,192,22322,1,0,0:0:0:0:
448,192,22485,1,0,0:0:0:55:F#6S_Gb6S.wav
320,192,22648,1,0,0:0:0:55:F#6S_Gb6S.wav
64,192,22730,1,0,0:0:0:70:LR_HiHat Click.wav
192,192,22771,1,0,0:0:0:70:LR_HiHat Click.wav
320,192,22811,1,0,0:0:0:70:LR_HiHat Click.wav
64,192,22974,1,0,0:0:0:0:
448,192,23137,1,0,0:0:0:55:F#6S_Gb6S.wav
192,192,23300,1,0,0:0:0:70:LR_Hat Fast.wav
320,192,23300,1,0,0:0:0:0:
64,192,23626,1,0,0:0:0:55:F6S.wav
448,192,23626,1,0,0:0:0:0:
320,192,23790,1,0,0:0:0:0:
192,192,23953,1,0,0:0:0:55:D#6S_Eb6S.wav
448,192,23953,1,0,0:0:0:0:
192,192,24279,1,0,0:0:0:55:C#6S_Db6S.wav
320,192,24279,1,0,0:0:0:0:
64,192,24605,1,0,0:0:0:55:G#6S_Ab6S.wav
448,192,24605,1,0,0:0:0:70:LR_Hat Fast.wav
192,192,24931,1,0,0:0:0:70:LR_HiHat Click.wav
448,192,25012,1,0,0:0:0:70:LR_HiHat Click.wav
320,192,25053,1,0,0:0:0:70:LR_HiHat Click.wav
192,192,25094,1,0,0:0:0:55:F#6S_Gb6S.wav
64,192,25257,1,0,0:0:0:70:LR_Ride Med.wav
448,192,25257,1,0,0:0:0:0:
192,192,25583,1,0,0:0:0:0:
320,192,25583,1,0,0:0:0:0:
448,192,25909,128,0,26072:0:0:0:0:
448,192,26235,128,0,26398:0:0:0:0:
192,192,26561,1,0,0:0:0:70:LR_Hat Fast.wav
448,192,26561,1,0,0:0:0:0:
64,192,26887,1,0,0:0:0:55:A#5S_Bb5S.wav
320,192,26887,1,0,0:0:0:0:
64,192,27213,1,0,0:0:0:55:B5S.wav
192,192,27213,1,0,0:0:0:70:LR_Kick Bass strong.wav
448,192,27213,1,0,0:0:0:0:
320,192,27540,1,0,0:0:0:0:
192,192,27703,1,0,0:0:0:0:
448,192,27866,1,0,0:0:0:55:D#6S_Eb6S.wav
64,192,27947,1,0,0:0:0:70:LR_HiHat Click.wav
192,192,27988,1,0,0:0:0:70:LR_HiHat Click.wav
320,192,28029,1,0,0:0:0:70:LR_HiHat Click.wav
64,192,28192,1,0,0:0:0:55:F#6S_Gb6S.wav
192,192,28192,1,0,0:0:0:0:
64,192,28518,1,0,0:0:0:55:G#6S_Ab6S.wav
320,192,28518,1,0,0:0:0:70:LR_Hat Fast.wav
448,192,28844,1,0,0:0:0:0:
320,192,29007,1,0,0:0:0:0:
64,192,29170,1,0,0:0:0:55:F6S.wav
192,192,29170,1,0,0:0:0:0:
192,192,29496,1,0,0:0:0:0:
320,192,29659,1,0,0:0:0:55:F#6S_Gb6S.wav
64,192,29822,1,0,0:0:0:70:LR_Hat Fast.wav
448,192,29822,1,0,0:0:0:0:
320,192,30148,1,0,0:0:0:70:LR_HiHat Click.wav
64,192,30230,1,0,0:0:0:70:LR_HiHat Click.wav
192,192,30271,1,0,0:0:0:70:LR_HiHat Click.wav
320,192,30311,1,0,0:0:0:70:LR_HiHat Click.wav
64,192,30474,1,0,0:0:0:70:LR_Ride Med.wav
192,192,30474,1,0,0:0:0:0:
320,192,30800,1,0,0:0:0:0:
64,192,31126,1,0,0:0:0:70:LR_HiHat Click.wav
192,192,31126,1,0,0:0:0:0:
64,192,31344,1,0,0:0:0:70:LR_HiHat Click.wav
64,192,31561,1,0,0:0:0:70:LR_HiHat Click.wav
320,192,31779,1,0,0:0:0:70:LR_HiHat Click.wav
448,192,31779,1,0,0:0:0:0:
448,192,31996,1,0,0:0:0:70:LR_HiHat Click.wav
448,192,32213,1,0,0:0:0:70:LR_HiHat Click.wav
64,192,32431,1,0,0:0:0:70:LR_Kick Bass strong.wav
192,192,32431,1,0,0:0:0:0:
192,192,32757,1,0,0:0:0:70:LR_Kick Bass strong.wav
320,192,32757,1,0,0:0:0:0:
64,192,33083,1,0,0:0:0:70:LR_Snare Drum .wav
448,192,33083,1,0,0:0:0:0:
320,192,33409,1,0,0:0:0:0:
64,192,33572,1,0,0:0:0:70:LR_Kick Bass strong.wav
192,192,33572,1,0,0:0:0:70:LR_Hat Fast.wav
448,192,33735,1,0,0:0:0:0:
320,192,33898,1,0,0:0:0:70:LR_Hat Fast.wav
64,192,34061,1,0,0:0:0:70:LR_Kick Bass strong.wav
192,192,34061,1,0,0:0:0:0:
320,192,34224,1,0,0:0:0:70:LR_Hat Fast.wav
64,192,34387,1,0,0:0:0:70:LR_Snare Drum .wav
448,192,34387,1,0,0:0:0:0:
320,192,34713,1,0,0:0:0:70:LR_Snare Drum .wav
448,192,34713,1,0,0:0:0:70:LR_Hat Fast.wav
192,192,34876,1,0,0:0:0:0:
320,192,35040,1,0,0:0:0:70:LR_Kick Bass strong.wav
448,192,35040,1,0,0:0:0:0:
192,192,35366,1,0,0:0:0:70:LR_Kick Bass strong.wav
320,192,35366,1,0,0:0:0:0:
64,192,35692,1,0,0:0:0:70:LR_Snare Drum .wav
448,192,35692,1,0,0:0:0:0:
192,192,36018,1,0,0:0:0:55:C#6S_Db6S.wav
320,192,36181,1,0,0:0:0:70:LR_Kick Bass strong.wav
448,192,36181,1,0,0:0:0:70:LR_Hat Fast.wav
64,192,36344,1,0,0:0:0:55:A#5S_Bb5S.wav
192,192,36507,1,0,0:0:0:70:LR_Hat Fast.wav
320,192,36670,1,0,0:0:0:55:C#6S_Db6S.wav
448,192,36670,1,0,0:0:0:70:LR_Kick Bass strong.wav
192,192,36833,1,0,0:0:0:70:LR_Hat Fast.wav
64,192,36996,1,0,0:0:0:55:D#6S_Eb6S.wav
448,192,36996,1,0,0:0:0:70:LR_Snare Drum .wav
320,192,37322,1,0,0:0:0:55:C#6S_Db6S.wav
192,192,37485,1,0,0:0:0:55:C#6S_Db6S.wav
64,192,37648,1,0,0:0:0:70:LR_Kick Bass strong.wav
448,192,37648,1,0,0:0:0:0:
320,192,37974,1,0,0:0:0:70:LR_Kick Bass strong.wav
448,192,37974,1,0,0:0:0:0:
64,192,38300,1,0,0:0:0:70:LR_Snare Drum .wav
192,192,38300,1,0,0:0:0:0:
320,192,38626,1,0,0:0:0:0:
64,192,38790,1,0,0:0:0:70:LR_Kick Bass strong.wav
448,192,38790,1,0,0:0:0:70:LR_Hat Fast.wav
192,192,38953,1,0,0:0:0:0:
320,192,39116,1,0,0:0:0:70:LR_Hat Fast.wav
64,192,39279,1,0,0:0:0:55:C#6S_Db6S.wav
448,192,39279,1,0,0:0:0:70:LR_Kick Bass strong.wav
192,192,39442,1,0,0:0:0:70:LR_Hat Fast.wav
320,192,39605,1,0,0:0:0:55:G#6S_Ab6S.wav
448,192,39605,1,0,0:0:0:70:LR_Snare Drum .wav
64,192,39931,1,0,0:0:0:55:F#6S_Gb6S.wav
192,192,39931,1,0,0:0:0:70:LR_Hat Fast.wav
320,192,40094,1,0,0:0:0:0:
64,192,40257,1,0,0:0:0:70:LR_Kick Bass strong.wav
448,192,40257,1,0,0:0:0:0:
64,192,40583,1,0,0:0:0:70:LR_Kick Bass strong.wav
192,192,40583,1,0,0:0:0:0:
320,192,40909,1,0,0:0:0:70:LR_Snare Drum .wav
448,192,40909,1,0,0:0:0:0:
192,192,41235,1,0,0:0:0:55:G#6S_Ab6S.wav
64,192,41398,1,0,0:0:0:55:G#6S_Ab6S.wav
448,192,41398,1,0,0:0:0:70:LR_Kick Bass strong.wav
320,192,41561,1,0,0:0:0:0:
192,192,41724,1,0,0:0:0:70:LR_Hat Fast.wav
64,192,41887,1,0,0:0:0:70:LR_Kick Bass strong.wav
448,192,41887,1,0,0:0:0:0:
320,192,42050,1,0,0:0:0:70:LR_Hat Fast.wav
64,192,42213,1,0,0:0:0:70:LR_Snare Drum .wav
192,192,42213,1,0,0:0:0:0:
192,192,42540,128,0,44170:0:0:0:70:LR_Hat Fast.wav
320,192,42540,128,0,43518:0:0:0:0:
64,192,44822,128,0,45311:0:0:0:55:C#6S_Db6S.wav
192,192,44985,128,0,45311:0:0:0:55:D#6S_Eb6S.wav
448,192,45148,128,0,45311:0:0:0:55:F#6S_Gb6S.wav
64,192,45474,1,0,0:0:0:50:LR_CymbalCCR.wav
192,192,45474,1,0,0:0:0:70:LR_Kick Bass strong.wav
320,192,45474,1,0,0:0:0:30:LR_CymbalQST.wav
448,192,45474,1,0,0:0:0:0:
64,192,45800,1,0,0:0:0:55:C#7S_Db7S.wav
320,192,45800,1,0,0:0:0:70:LR_Hat Fast.wav
320,192,45963,128,0,46290:0:0:0:55:C#7S_Db7S.wav
192,192,46126,128,0,46290:0:0:0:55:C#7S_Db7S.wav
448,192,46126,1,0,0:0:0:70:LR_Snare Drum .wav
64,192,46453,1,0,0:0:0:55:A#6S_Bb6S.wav
320,192,46453,1,0,0:0:0:70:LR_Hat Fast.wav
320,192,46616,128,0,46942:0:0:0:55:A#6S_Bb6S.wav
192,192,46779,128,0,46942:0:0:0:55:A#6S_Bb6S.wav
448,192,46779,1,0,0:0:0:70:LR_Hat Fast.wav
448,192,46942,1,0,0:0:0:70:LR_Kick Bass strong.wav
64,192,47105,1,0,0:0:0:55:G#6S_Ab6S.wav
320,192,47105,1,0,0:0:0:70:LR_Kick Bass strong.wav
320,192,47268,128,0,47594:0:0:0:55:G#6S_Ab6S.wav
192,192,47431,128,0,47594:0:0:0:55:G#6S_Ab6S.wav
448,192,47431,1,0,0:0:0:70:LR_Snare Drum .wav
320,192,47757,1,0,0:0:0:55:F#6S_Gb6S.wav
448,192,47757,1,0,0:0:0:70:LR_Hat Fast.wav
192,192,47920,1,0,0:0:0:70:LR_Hat Fast.wav
320,192,47920,1,0,0:0:0:0:
64,192,48083,1,0,0:0:0:70:LR_Kick Bass strong.wav
192,192,48083,1,0,0:0:0:70:LR_Hat Fast.wav
192,192,48409,1,0,0:0:0:55:C#7S_Db7S.wav
448,192,48409,1,0,0:0:0:70:LR_Hat Fast.wav
192,192,48572,128,0,48898:0:0:0:55:C#7S_Db7S.wav
64,192,48735,1,0,0:0:0:55:C#7S_Db7S.wav
320,192,48735,128,0,48898:0:0:0:70:LR_Snare Drum .wav
192,192,49061,1,0,0:0:0:55:A#6S_Bb6S.wav
448,192,49061,1,0,0:0:0:70:LR_Hat Fast.wav
192,192,49224,128,0,49550:0:0:0:55:A#6S_Bb6S.wav
64,192,49387,1,0,0:0:0:55:A#6S_Bb6S.wav
320,192,49387,128,0,49550:0:0:0:70:LR_Hat Fast.wav
64,192,49550,1,0,0:0:0:70:LR_Kick Bass strong.wav
192,192,49713,1,0,0:0:0:55:G#6S_Ab6S.wav
448,192,49713,1,0,0:0:0:70:LR_Kick Bass strong.wav
192,192,49876,128,0,50203:0:0:0:55:G#6S_Ab6S.wav
64,192,50040,1,0,0:0:0:55:G#6S_Ab6S.wav
320,192,50040,128,0,50203:0:0:0:70:LR_Snare Drum .wav
320,192,50366,1,0,0:0:0:55:A#6S_Bb6S.wav
448,192,50366,1,0,0:0:0:70:LR_Hat Fast.wav
192,192,50529,1,0,0:0:0:70:LR_Hat Fast.wav
320,192,50529,1,0,0:0:0:0:
64,192,50692,128,0,51344:0:0:0:55:B6S.wav
192,192,50692,128,0,51181:0:0:0:70:LR_Kick Bass strong.wav
448,192,50692,1,0,0:0:0:70:LR_Hat Fast.wav
448,192,51018,1,0,0:0:0:55:A#6S_Bb6S.wav
320,192,51181,1,0,0:0:0:55:F#6S_Gb6S.wav
192,192,51344,1,0,0:0:0:70:LR_Snare Drum .wav
448,192,51344,1,0,0:0:0:0:
64,192,51507,1,0,0:0:0:55:F6S.wav
192,192,51670,1,0,0:0:0:55:F#6S_Gb6S.wav
320,192,51670,1,0,0:0:0:70:LR_Hat Fast.wav
192,192,51833,1,0,0:0:0:55:G#6S_Ab6S.wav
448,192,51833,1,0,0:0:0:70:LR_Kick Bass strong.wav
320,192,51996,128,0,52485:0:0:0:55:B6S.wav
448,192,51996,128,0,52648:0:0:0:70:LR_Hat Fast.wav
64,192,52322,1,0,0:0:0:55:A#6S_Bb6S.wav
192,192,52485,1,0,0:0:0:55:F#6S_Gb6S.wav
64,192,52648,1,0,0:0:0:70:LR_Snare Drum .wav
320,192,52648,1,0,0:0:0:0:
192,192,52974,1,0,0:0:0:55:F#6S_Gb6S.wav
320,192,52974,1,0,0:0:0:70:LR_Hat Fast.wav
192,192,53137,1,0,0:0:0:70:LR_Hat Fast.wav
448,192,53137,1,0,0:0:0:0:
320,192,53300,128,0,53463:0:0:0:55:F6S.wav
448,192,53300,128,0,53790:0:0:0:70:LR_Kick Bass strong.wav
320,192,53626,128,0,53790:0:0:0:55:F#6S_Gb6S.wav
192,192,53953,128,0,54116:0:0:0:55:F6S.wav
320,192,53953,128,0,54442:0:0:0:70:LR_Snare Drum .wav
192,192,54279,128,0,55094:0:0:0:55:C#6S_Db6S.wav
448,192,54442,1,0,0:0:0:70:LR_Kick Bass strong.wav
64,192,54605,1,0,0:0:0:70:LR_Hat Fast.wav
320,192,54768,1,0,0:0:0:70:LR_Snare Drum .wav
64,192,54931,1,0,0:0:0:70:LR_Kick Bass strong.wav
448,192,54931,1,0,0:0:0:70:LR_Hat Fast.wav
320,192,55094,1,0,0:0:0:55:C#6S_Db6S.wav
64,192,55257,1,0,0:0:0:55:C#6S_Db6S.wav
192,192,55257,1,0,0:0:0:70:LR_Tom Hit 2.wav
64,192,55420,1,0,0:0:0:55:D#6S_Eb6S.wav
192,192,55420,1,0,0:0:0:70:LR_Tom Hit 2.wav
320,192,55583,1,0,0:0:0:55:F#6S_Gb6S.wav
448,192,55583,1,0,0:0:0:70:LR_Tom Hit 3.wav
320,192,55746,1,0,0:0:0:70:LR_Tom Hit 3.wav
448,192,55746,1,0,0:0:0:0:
64,192,55909,1,0,0:0:0:50:LR_CymbalCCR.wav
192,192,55909,1,0,0:0:0:30:LR_CymbalQST.wav
448,192,55909,1,0,0:0:0:0:
64,192,56235,1,0,0:0:0:55:C#7S_Db7S.wav
320,192,56235,1,0,0:0:0:70:LR_Hat Fast.wav
320,192,56398,128,0,56724:0:0:0:55:C#7S_Db7S.wav
192,192,56561,128,0,56724:0:0:0:55:C#7S_Db7S.wav
448,192,56561,1,0,0:0:0:70:LR_Snare Drum .wav
64,192,56887,1,0,0:0:0:55:A#6S_Bb6S.wav
320,192,56887,1,0,0:0:0:70:LR_Hat Fast.wav
320,192,57050,128,0,57376:0:0:0:55:A#6S_Bb6S.wav
192,192,57213,128,0,57376:0:0:0:55:A#6S_Bb6S.wav
448,192,57213,1,0,0:0:0:70:LR_Hat Fast.wav
448,192,57376,1,0,0:0:0:70:LR_Kick Bass strong.wav
64,192,57540,1,0,0:0:0:55:G#6S_Ab6S.wav
320,192,57540,1,0,0:0:0:70:LR_Kick Bass strong.wav
320,192,57703,128,0,58029:0:0:0:55:G#6S_Ab6S.wav
192,192,57866,128,0,58029:0:0:0:55:G#6S_Ab6S.wav
448,192,57866,1,0,0:0:0:70:LR_Snare Drum .wav
320,192,58192,1,0,0:0:0:55:F#6S_Gb6S.wav
448,192,58192,1,0,0:0:0:70:LR_Hat Fast.wav
192,192,58355,1,0,0:0:0:70:LR_Hat Fast.wav
320,192,58355,1,0,0:0:0:0:
64,192,58518,1,0,0:0:0:70:LR_Kick Bass strong.wav
192,192,58518,1,0,0:0:0:70:LR_Hat Fast.wav
192,192,58844,1,0,0:0:0:55:C#7S_Db7S.wav
448,192,58844,1,0,0:0:0:70:LR_Hat Fast.wav
192,192,59007,128,0,59333:0:0:0:55:C#7S_Db7S.wav
64,192,59170,1,0,0:0:0:55:C#7S_Db7S.wav
320,192,59170,128,0,59333:0:0:0:70:LR_Snare Drum .wav
192,192,59496,1,0,0:0:0:55:A#6S_Bb6S.wav
448,192,59496,1,0,0:0:0:70:LR_Hat Fast.wav
192,192,59659,128,0,59985:0:0:0:55:A#6S_Bb6S.wav
64,192,59822,1,0,0:0:0:55:A#6S_Bb6S.wav
320,192,59822,128,0,59985:0:0:0:70:LR_Hat Fast.wav
64,192,59985,1,0,0:0:0:70:LR_Kick Bass strong.wav
192,192,60148,1,0,0:0:0:55:G#6S_Ab6S.wav
448,192,60148,1,0,0:0:0:70:LR_Kick Bass strong.wav
192,192,60311,128,0,60637:0:0:0:55:G#6S_Ab6S.wav
64,192,60474,1,0,0:0:0:55:G#6S_Ab6S.wav
320,192,60474,128,0,60637:0:0:0:70:LR_Snare Drum .wav
64,192,60800,1,0,0:0:0:55:A#6S_Bb6S.wav
192,192,60800,1,0,0:0:0:70:LR_Hat Fast.wav
64,192,60963,1,0,0:0:0:70:LR_Kick Bass strong.wav
448,192,60963,1,0,0:0:0:70:LR_Hat Fast.wav
192,192,61126,128,0,61616:0:0:0:55:B6S.wav
320,192,61126,128,0,61779:0:0:0:50:LR_CymbalQST.wav
448,192,61126,1,0,0:0:0:70:LR_Kick Bass strong.wav
64,192,61453,1,0,0:0:0:55:A#6S_Bb6S.wav
448,192,61616,1,0,0:0:0:55:F#6S_Gb6S.wav
64,192,61779,1,0,0:0:0:70:LR_Snare Drum .wav
192,192,61779,1,0,0:0:0:0:
320,192,61942,1,0,0:0:0:55:F6S.wav
64,192,62105,1,0,0:0:0:55:F#6S_Gb6S.wav
192,192,62105,1,0,0:0:0:70:LR_Hat Fast.wav
192,192,62268,1,0,0:0:0:55:G#6S_Ab6S.wav
320,192,62268,1,0,0:0:0:70:LR_Hat Fast.wav
64,192,62431,128,0,63083:0:0:0:55:B6S.wav
320,192,62431,1,0,0:0:0:50:LR_CymbalQST.wav
448,192,62431,128,0,62920:0:0:0:70:LR_Kick Bass strong.wav
320,192,62757,1,0,0:0:0:55:A#6S_Bb6S.wav
192,192,62920,1,0,0:0:0:55:G#6S_Ab6S.wav
320,192,63083,1,0,0:0:0:70:LR_Snare Drum .wav
448,192,63083,1,0,0:0:0:0:
64,192,63246,1,0,0:0:0:55:F#6S_Gb6S.wav
320,192,63409,1,0,0:0:0:55:F6S.wav
448,192,63409,1,0,0:0:0:70:LR_Hat Fast.wav
192,192,63572,1,0,0:0:0:55:F#6S_Gb6S.wav
448,192,63572,1,0,0:0:0:70:LR_Hat Fast.wav
192,192,63735,128,0,64224:0:0:0:70:LR_Kick Bass strong.wav
320,192,63735,128,0,63898:0:0:0:70:LR_Hat Fast.wav
64,192,64061,1,0,0:0:0:70:LR_Snare Drum .wav
320,192,64061,128,0,64224:0:0:0:0:
192,192,64387,128,0,64550:0:0:0:50:LR_CymbalQST.wav
320,192,64387,128,0,64876:0:0:0:70:LR_Snare Drum .wav
448,192,64387,1,0,0:0:0:0:
64,192,64713,1,0,0:0:0:55:C#6S_Db6S.wav
192,192,64713,128,0,64876:0:0:0:70:LR_Kick Bass strong.wav
64,192,64876,128,0,65529:0:0:0:55:D#6S_Eb6S.wav
448,192,64876,128,0,65203:0:0:0:70:LR_Snare Drum .wav
320,192,65040,1,0,0:0:0:0:
192,192,65203,1,0,0:0:0:70:LR_Snare Drum .wav
320,192,65366,128,0,65529:0:0:0:55:F#6S_Gb6S.wav
448,192,65366,128,0,65529:0:0:0:70:LR_Kick Bass strong.wav
192,192,65529,1,0,0:0:0:70:LR_Snare Drum .wav
320,192,65692,1,0,0:0:0:55:G#6S_Ab6S.wav
448,192,65692,1,0,0:0:0:70:LR_Tom Hit 2.wav
64,192,65855,1,0,0:0:0:70:LR_Tom Hit 2.wav
192,192,65855,1,0,0:0:0:0:
320,192,66018,1,0,0:0:0:55:F#6S_Gb6S.wav
448,192,66018,1,0,0:0:0:70:LR_Tom Hit 3.wav
64,192,66181,1,0,0:0:0:55:A#6S_Bb6S.wav
192,192,66181,1,0,0:0:0:70:LR_Tom Hit 3.wav
64,192,66344,1,0,0:0:0:30:LR_CymbalQST.wav
320,192,66344,1,0,0:0:0:70:LR_Kick Bass strong.wav
448,192,66344,1,0,0:0:0:70:LR_HiHat Click.wav
192,192,66670,1,0,0:0:0:70:LR_Hat Fast.wav
64,192,66996,128,0,68953:0:0:0:70:LR_Snare Drum .wav
320,192,66996,1,0,0:0:0:0:
448,192,66996,128,0,67159:0:0:0:0:
448,192,67322,128,0,67648:0:0:0:70:LR_Hat Fast.wav
192,192,67485,1,0,0:0:0:70:LR_Kick Bass strong.wav
192,192,67648,1,0,0:0:0:70:LR_Hat Fast.wav
320,192,67648,128,0,67811:0:0:0:0:
320,192,67974,128,0,68300:0:0:0:70:LR_Kick Bass strong.wav
192,192,68300,128,0,68463:0:0:0:70:LR_Snare Drum .wav
448,192,68300,1,0,0:0:0:0:
192,192,68626,128,0,68953:0:0:0:70:LR_Hat Fast.wav
320,192,68790,1,0,0:0:0:0:
320,192,68953,1,0,0:0:0:70:LR_Kick Bass strong.wav
448,192,68953,1,0,0:0:0:70:LR_Hat Fast.wav
192,192,69279,1,0,0:0:0:70:LR_Hat Fast.wav
320,192,69442,1,0,0:0:0:0:
64,192,69605,1,0,0:0:0:70:LR_Snare Drum .wav
448,192,69605,1,0,0:0:0:0:
320,192,69931,1,0,0:0:0:55:C#6S_Db6S.wav
64,192,70094,1,0,0:0:0:55:D#6S_Eb6S.wav
192,192,70094,1,0,0:0:0:70:LR_Kick Bass strong.wav
320,192,70257,1,0,0:0:0:70:LR_Hat Fast.wav
448,192,70257,1,0,0:0:0:0:
448,192,70420,1,0,0:0:0:0:
192,192,70583,1,0,0:0:0:55:F#6S_Gb6S.wav
320,192,70583,1,0,0:0:0:70:LR_Kick Bass strong.wav
64,192,70909,1,0,0:0:0:55:G#6S_Ab6S.wav
192,192,70909,1,0,0:0:0:70:LR_Snare Drum .wav
64,192,71235,1,0,0:0:0:55:C#7S_Db7S.wav
448,192,71235,1,0,0:0:0:70:LR_Hat Fast.wav
192,192,71398,1,0,0:0:0:55:A#6S_Bb6S.wav
320,192,71398,1,0,0:0:0:70:LR_Kick Bass strong.wav
64,192,71561,1,0,0:0:0:50:LR_CymbalQST.wav
192,192,71561,1,0,0:0:0:70:LR_Hat Fast.wav
448,192,71561,1,0,0:0:0:0:
320,192,71887,1,0,0:0:0:70:LR_Hat Fast.wav
64,192,72213,128,0,72376:0:0:0:70:LR_Snare Drum .wav
192,192,72213,1,0,0:0:0:0:
448,192,72213,128,0,74170:0:0:0:0:
64,192,72540,128,0,72866:0:0:0:70:LR_Hat Fast.wav
320,192,72703,1,0,0:0:0:70:LR_Kick Bass strong.wav
192,192,72866,128,0,73029:0:0:0:70:LR_Hat Fast.wav
320,192,72866,1,0,0:0:0:0:
192,192,73192,128,0,73518:0:0:0:70:LR_Kick Bass strong.wav
64,192,73518,1,0,0:0:0:70:LR_Snare Drum .wav
320,192,73518,128,0,73681:0:0:0:0:
320,192,73844,128,0,74170:0:0:0:70:LR_Hat Fast.wav
192,192,74007,1,0,0:0:0:70:LR_Kick Bass strong.wav
64,192,74170,1,0,0:0:0:70:LR_Hat Fast.wav
192,192,74170,1,0,0:0:0:0:
320,192,74496,1,0,0:0:0:70:LR_Kick Bass strong.wav
192,192,74659,1,0,0:0:0:0:
64,192,74822,1,0,0:0:0:70:LR_Snare Drum .wav
448,192,74822,1,0,0:0:0:0:
320,192,75148,1,0,0:0:0:55:C#6S_Db6S.wav
64,192,75311,1,0,0:0:0:55:D#6S_Eb6S.wav
448,192,75311,1,0,0:0:0:70:LR_Kick Bass strong.wav
192,192,75474,1,0,0:0:0:70:LR_Hat Fast.wav
320,192,75637,1,0,0:0:0:70:LR_Snare Drum .wav
448,192,75637,1,0,0:0:0:0:
64,192,75800,1,0,0:0:0:55:F#6S_Gb6S.wav
192,192,75800,1,0,0:0:0:70:LR_Kick Bass strong.wav
320,192,75963,1,0,0:0:0:70:LR_Kick Bass strong.wav
64,192,76126,1,0,0:0:0:55:G#6S_Ab6S.wav
448,192,76126,1,0,0:0:0:70:LR_Tom Hit 2.wav
192,192,76290,1,0,0:0:0:70:LR_Tom Hit 3.wav
320,192,76290,1,0,0:0:0:0:
448,192,76453,1,0,0:0:0:55:F#6S_Gb6S.wav
64,192,76616,1,0,0:0:0:55:A#6S_Bb6S.wav
192,192,76616,1,0,0:0:0:70:LR_Tom Hit 3.wav
64,192,76779,1,0,0:0:0:50:LR_CymbalQST.wav
320,192,76779,1,0,0:0:0:70:LR_Kick Bass strong.wav
448,192,76779,1,0,0:0:0:70:LR_Hat Fast.wav
192,192,77105,1,0,0:0:0:70:LR_Hat Fast.wav
64,192,77431,128,0,79387:0:0:0:70:LR_Snare Drum .wav
320,192,77431,1,0,0:0:0:0:
448,192,77431,128,0,77594:0:0:0:0:
448,192,77757,128,0,78083:0:0:0:70:LR_Hat Fast.wav
192,192,77920,1,0,0:0:0:70:LR_Kick Bass strong.wav
192,192,78083,1,0,0:0:0:70:LR_Hat Fast.wav
320,192,78083,128,0,78246:0:0:0:0:
320,192,78409,128,0,78735:0:0:0:70:LR_Kick Bass strong.wav
192,192,78735,128,0,78898:0:0:0:70:LR_Snare Drum .wav
448,192,78735,1,0,0:0:0:0:
192,192,79061,128,0,79387:0:0:0:70:LR_Hat Fast.wav
320,192,79224,1,0,0:0:0:70:LR_Hat Fast.wav
320,192,79387,1,0,0:0:0:70:LR_Kick Bass strong.wav
448,192,79387,1,0,0:0:0:70:LR_Hat Fast.wav
192,192,79713,1,0,0:0:0:70:LR_Hat Fast.wav
64,192,79876,1,0,0:0:0:0:
320,192,80040,1,0,0:0:0:70:LR_Snare Drum .wav
448,192,80040,1,0,0:0:0:0:
192,192,80366,1,0,0:0:0:55:C#7S_Db7S.wav
320,192,80529,1,0,0:0:0:70:LR_Kick Bass strong.wav
448,192,80529,1,0,0:0:0:0:
64,192,80692,1,0,0:0:0:55:D#7S_Eb7S.wav
192,192,80692,1,0,0:0:0:70:LR_Hat Fast.wav
320,192,80855,1,0,0:0:0:70:LR_Snare Drum .wav
448,192,80855,1,0,0:0:0:0:
64,192,81018,1,0,0:0:0:55:A#6S_Bb6S.wav
448,192,81018,1,0,0:0:0:70:LR_Kick Bass strong.wav
64,192,81344,1,0,0:0:0:55:G#6S_Ab6S.wav
192,192,81344,1,0,0:0:0:70:LR_Snare Drum .wav
64,192,81670,1,0,0:0:0:55:A#6S_Bb6S.wav
448,192,81670,1,0,0:0:0:70:LR_Hat Fast.wav
192,192,81833,1,0,0:0:0:70:LR_Kick Bass strong.wav
320,192,81833,1,0,0:0:0:0:
64,192,81996,128,0,82159:0:0:0:55:B6S.wav
192,192,81996,1,0,0:0:0:50:LR_CymbalQST.wav
448,192,81996,128,0,82485:0:0:0:70:LR_Snare Drum .wav
320,192,82159,128,0,82485:0:0:0:0:
192,192,82322,128,0,82485:0:0:0:70:LR_Hat Fast.wav
64,192,82485,1,0,0:0:0:0:
320,192,82648,1,0,0:0:0:55:A#6S_Bb6S.wav
448,192,82648,1,0,0:0:0:70:LR_Snare Drum .wav
64,192,82974,1,0,0:0:0:55:G#6S_Ab6S.wav
192,192,83137,1,0,0:0:0:70:LR_Kick Bass strong.wav
320,192,83137,1,0,0:0:0:0:
64,192,83300,1,0,0:0:0:70:LR_Snare Drum .wav
448,192,83300,1,0,0:0:0:0:
192,192,83463,1,0,0:0:0:70:LR_Snare Drum .wav
320,192,83626,1,0,0:0:0:55:F#6S_Gb6S.wav
448,192,83626,1,0,0:0:0:70:LR_Kick Bass strong.wav
64,192,83953,1,0,0:0:0:55:F6S.wav
192,192,83953,1,0,0:0:0:70:LR_Tom Hit 2.wav
320,192,84116,1,0,0:0:0:70:LR_Tom Hit 2.wav
448,192,84116,1,0,0:0:0:0:
64,192,84279,1,0,0:0:0:55:F#6S_Gb6S.wav
192,192,84279,1,0,0:0:0:70:LR_Tom Hit 3.wav
320,192,84442,1,0,0:0:0:70:LR_Tom Hit 3.wav
448,192,84442,1,0,0:0:0:0:
192,192,84550,1,0,0:0:0:70:LR_Tom Hit 3.wav
64,192,84605,128,0,87866:0:0:0:50:LR_CymbalQST.wav
448,192,84605,128,0,87866:0:0:0:70:LR_Kick Bass strong.wav
