osu file format v14

[General]
AudioFilename: audio.mp3
AudioLeadIn: 0
PreviewTime: 44581
Countdown: 0
SampleSet: Soft
StackLeniency: 0.5
Mode: 0
LetterboxInBreaks: 0
WidescreenStoryboard: 0

[Editor]
DistanceSpacing: 1
BeatDivisor: 16
GridSize: 16
TimelineZoom: 1.8

[Metadata]
Title:Believe in you (TV Size)
TitleUnicode:Believe in you (TV Size)
Artist:nonoc
ArtistUnicode:nonoc
Creator:fieryrage
Version:I'll always be there for you.
Source:Re:ゼロから始める異世界生活
Tags:re:zero kara hajimeru isekai seikatsu rezero starting life in another world different from zero season two anime ending ed japanese pop rock flask wanpachi cycopton hooni sylas thekoala delis shirohamymommy blastthekidd
BeatmapID:2847753
BeatmapSetID:1378030

[Difficulty]
HPDrainRate:5
CircleSize:4
OverallDifficulty:8.6
ApproachRate:9
SliderMultiplier:3.4
SliderTickRate:1

[Events]
//Background and Video events
0,0,"why i gotta use this damn background.jpg",0,0
Video,-350,"the emilia video.mp4"
//Break Periods
//Storyboard Layer 0 (Background)
//Storyboard Layer 1 (Fail)
//Storyboard Layer 2 (Pass)
//Storyboard Layer 3 (Foreground)
//Storyboard Layer 4 (Overlay)
//Storyboard Sound Samples

[TimingPoints]
472,652.173913043478,4,2,5,35,1,0
472,-166.666666666667,4,2,5,35,0,0
1124,652.173913043478,4,2,5,40,1,0
1124,-250,4,2,5,40,0,0
1287,-250,4,2,2,5,0,0
2102,-250,4,2,5,40,0,0
2754,-166.666666666667,4,2,5,40,0,0
3732,-250,4,2,5,40,0,0
3895,-250,4,2,2,5,0,0
4710,-250,4,2,5,40,0,0
6015,-166.666666666667,4,2,5,40,0,0
6504,-166.666666666667,4,2,2,5,0,0
7645,-250,4,2,5,40,0,0
7808,-250,4,2,2,5,0,0
8950,-500,4,2,5,40,0,0
9113,-500,4,2,2,5,0,0
10580,-166.666666666667,4,2,1,40,0,0
11558,-166.666666666667,4,2,1,45,0,0
15471,-166.666666666667,4,2,1,35,0,0
15797,-166.666666666667,4,2,1,25,0,0
16123,-166.666666666667,4,2,1,45,0,0
19384,-166.666666666667,4,2,5,45,0,0
19873,-166.666666666667,4,2,5,35,0,0
20037,-166.666666666667,4,2,1,45,0,0
20363,-166.666666666667,4,2,5,45,0,0
20689,-166.666666666667,4,2,1,45,0,0
25906,-166.666666666667,4,2,1,35,0,0
26232,-166.666666666667,4,2,1,25,0,0
26558,-166.666666666667,4,2,1,45,0,0
31123,-166.666666666667,4,2,1,30,0,0
32428,-125,4,2,5,50,0,0
35037,-117.647058823529,4,2,5,50,0,0
36015,-117.647058823529,4,2,1,50,0,0
37645,-111.111111111111,4,2,5,55,0,0
39276,-111.111111111111,4,2,1,55,0,0
40254,-105.263157894737,4,2,5,60,0,0
41232,-105.263157894737,4,2,1,60,0,0
41395,-100,4,2,1,60,0,0
41558,-100,4,2,5,60,0,0
44167,-100,4,2,2,5,0,0
44819,-166.666666666667,4,2,1,45,0,0
45145,-166.666666666667,4,2,1,50,0,0
45227,-166.666666666667,4,2,5,35,0,0
45308,-166.666666666667,4,2,5,45,0,0
45471,-83.3333333333333,4,2,5,70,0,1
45634,-83.3333333333333,4,2,1,70,0,1
48080,-83.3333333333333,4,2,5,70,0,1
48243,-83.3333333333333,4,2,1,70,0,1
55580,-83.3333333333333,4,2,1,60,0,1
55825,-83.3333333333333,4,2,1,60,0,0
55906,-83.3333333333333,4,2,5,70,0,1
56069,-83.3333333333333,4,2,1,70,0,1
58515,-83.3333333333333,4,2,5,70,0,1
58678,-83.3333333333333,4,2,1,70,0,1
63732,-83.3333333333333,4,2,5,70,0,1
63895,-83.3333333333333,4,2,1,70,0,1
66341,-90.9090909090909,4,2,5,65,0,0
66504,-90.9090909090909,4,2,1,65,0,0
68950,-90.9090909090909,4,2,5,65,0,0
69113,-90.9090909090909,4,2,1,65,0,0
71558,-90.9090909090909,4,2,5,65,0,0
71721,-90.9090909090909,4,2,1,65,0,0
74167,-90.9090909090909,4,2,5,65,0,0
74330,-90.9090909090909,4,2,1,65,0,0
76776,-90.9090909090909,4,2,5,65,0,0
76939,-90.9090909090909,4,2,1,65,0,0
79384,-90.9090909090909,4,2,5,65,0,0
79547,-90.9090909090909,4,2,1,65,0,0
82156,-90.9090909090909,4,2,5,65,0,0
82645,-90.9090909090909,4,2,1,65,0,0
84602,-250,4,2,5,65,0,0
84765,-250,4,2,2,5,0,0

[Colours]
Combo1 : 106,159,223
Combo2 : 172,172,172
Combo3 : 162,113,206
Combo4 : 135,198,94
Combo5 : 245,148,150

[HitObjects]
229,224,472,6,0,P|229:169|212:93,1,101.999996887207,2|2,0:0|0:0,0:0:0:0:
111,83,961,1,2,0:0:0:0:
111,83,1124,6,0,P|213:101|296:40,1,204,0|2,3:0|0:0,0:0:0:0:
298,33,2428,1,0,3:0:0:0:
456,118,2754,5,2,0:0:0:0:
402,181,3080,2,0,L|322:269,1,101.999996887207,2|2,0:0|0:0,0:0:0:0:
330,342,3569,1,2,0:0:0:0:
330,342,3732,6,0,B|302:285|302:285|153:260,1,204,0|2,3:0|0:0,0:0:0:0:
148,259,5037,1,0,3:0:0:0:
148,259,6015,5,2,0:0:0:0:
159,241,6178,1,2,0:0:0:0:
104,159,6341,6,0,B|156:171|200:155|200:155|235:184|235:184|318:154|399:179,1,305.999990661621,2|0,3:2|0:0,0:0:0:0:
400,55,7645,6,0,P|381:105|468:231,1,204,2|0,3:2|0:0,0:0:0:0:
300,352,8950,6,0,B|306:258|306:258|270:297,1,136,2|0,0:0|0:0,0:0:0:0:
196,383,10580,5,2,0:0:0:0:
96,327,10906,1,2,0:0:0:0:
306,259,11232,1,2,0:0:0:0:
46,187,11558,6,0,P|32:130|29:53,1,101.999996887207,2|2,1:2|0:0,0:0:0:0:
138,20,12047,1,0,0:0:0:0:
138,20,12210,2,0,P|96:48|38:42,1,101.999996887207,6|2,0:3|0:0,0:0:0:0:
147,134,12700,6,0,P|220:106|310:103,1,152.999995330811,2|2,0:0|0:0,0:0:0:0:
381,121,13352,1,0,0:0:0:0:
381,121,13515,2,0,L|375:48,1,50.9999984436036,2|0,0:0|0:0,0:0:0:0:
459,164,13841,2,0,L|465:91,1,50.9999984436036,2|0,0:0|0:0,0:0:0:0:
316,182,14167,6,0,P|297:216|300:282,1,101.999996887207,2|4,0:0|0:3,0:0:0:0:
345,365,14656,1,2,0:0:0:0:
345,365,14819,2,0,L|217:356,1,101.999996887207,8|0,0:1|0:0,0:0:0:0:
81,291,15471,5,8,0:1:0:0:
81,291,15797,1,8,0:1:0:0:
181,273,16123,5,0,0:0:0:0:
116,191,16450,5,2,0:0:0:0:
104,173,16613,1,2,0:0:0:0:
162,112,16776,6,0,L|284:125,1,101.999996887207,2|0,1:2|0:0,0:0:0:0:
405,36,17265,1,0,0:0:0:0:
405,36,17428,2,0,L|283:49,1,101.999996887207,4|2,0:3|0:0,0:0:0:0:
206,169,17917,6,0,P|237:235|321:219,1,152.999995330811,2|2,0:0|0:0,0:0:0:0:
394,164,18569,1,0,0:0:0:0:
394,164,18732,2,0,P|389:201|388:236,1,50.9999984436036,2|0,0:0|0:0,0:0:0:0:
421,290,19058,2,0,P|426:327|427:362,1,50.9999984436036,2|2,0:0|0:0,0:0:0:0:
495,192,19384,5,0,0:0:0:0:
296,104,19710,1,4,0:3:0:0:
371,82,19873,2,0,L|451:57,1,50.9999984436036,0|8,0:0|0:1,0:0:0:0:
198,279,20363,5,0,0:0:0:0:
198,279,20689,1,0,0:0:0:0:
73,236,21015,6,0,P|83:286|88:351,1,101.999996887207,2|2,0:0|0:3,0:0:0:0:
22,169,21667,1,2,0:0:0:0:
181,259,21993,6,0,P|236:257|276:209,1,101.999996887207,2|2,1:2|0:0,0:0:0:0:
339,143,22482,1,2,0:0:0:0:
339,143,22645,2,0,L|373:277,1,101.999996887207,6|0,0:3|0:0,0:0:0:0:
281,381,23134,6,0,L|392:314,1,101.999996887207,2|0,0:0|0:0,0:0:0:0:
442,286,23623,2,0,L|449:342,1,50.9999984436036,2|0,0:0|0:0,0:0:0:0:
274,269,23950,1,2,0:0:0:0:
443,201,24276,1,2,0:0:0:0:
272,72,24602,6,0,P|232:75|184:113,1,101.999996887207,2|4,0:0|0:3,0:0:0:0:
148,244,25091,1,2,0:0:0:0:
148,244,25254,2,0,P|154:194|151:124,1,101.999996887207,8|0,0:1|0:0,0:0:0:0:
78,34,25906,5,8,0:1:0:0:
78,34,26232,1,8,0:1:0:0:
26,159,26558,5,0,0:0:0:0:
208,49,26884,5,2,0:0:0:0:
322,229,27210,2,0,P|339:295|231:314,1,203.999993774414,2|6,1:2|0:3,0:0:0:0:
168,209,28189,2,0,B|146:174|146:174|127:263|93:342,1,203.999993774414,2|0,0:0|0:0,0:0:0:0:
263,200,29167,2,0,P|316:208|358:171,1,101.999996887207,2|0,0:0|0:0,0:0:0:0:
338,79,29656,1,2,0:0:0:0:
338,79,29819,6,0,L|445:110,1,101.999996887207,0|4,0:0|0:3,0:0:0:0:
367,281,30471,2,0,L|352:176,1,101.999996887207,8|0,0:1|0:0,0:0:0:0:
179,52,31123,6,0,B|188:44|188:44|199:47|199:47|245:35,2,67.9999979248048,0|0|0,3:0|3:0|3:0,0:0:0:0:
69,35,31776,5,0,3:0:0:0:
112,99,31993,5,0,3:0:0:0:
74,167,32210,5,0,3:0:0:0:
206,269,32428,6,0,L|214:343,1,68,2|0,1:2|0:0,0:0:0:0:
303,149,32754,2,0,L|295:223,1,68,2|0,1:2|0:0,0:0:0:0:
388,355,33080,2,0,P|452:358|497:290,1,136,10|2,0:3|0:0,0:0:0:0:
449,180,33569,1,0,1:2:0:0:
278,295,33732,6,0,P|275:329|276:371,1,68,2|8,0:0|0:1,0:0:0:0:
200,174,34058,1,2,1:2:0:0:
369,242,34221,1,4,0:3:0:0:
162,310,34384,1,10,0:3:0:0:
162,310,34710,2,0,P|133:303|96:304,1,68,2|8,0:0|0:1,0:0:0:0:
0,227,35037,6,0,P|13:297|15:373,1,144.500002756119,2|2,1:2|1:2,0:0:0:0:
148,148,35526,1,0,0:0:0:0:
148,148,35689,2,0,P|112:159|72:155,1,72.2500013780594,10|0,0:3|0:0,0:0:0:0:
0,67,36015,2,0,P|36:56|76:60,1,72.2500013780594,2|0,0:0|1:2,0:0:0:0:
265,207,36341,5,2,0:0:0:0:
320,67,36504,1,8,0:1:0:0:
148,148,36667,2,0,P|146:191|156:223,1,72.2500013780594,2|4,1:2|0:3,0:0:0:0:
284,314,36993,6,0,B|248:289|248:289|133:318,1,144.500002756119,10|2,0:3|0:0,0:0:0:0:
271,194,37482,1,2,0:0:0:0:
368,345,37645,6,0,P|421:352|456:258,1,152.999995330811,2|2,1:2|1:2,0:0:0:0:
389,174,38134,1,0,0:0:0:0:
389,174,38297,2,0,L|410:65,1,76.4999976654053,10|0,0:3|0:0,0:0:0:0:
285,269,38623,2,0,L|264:160,1,76.4999976654053,2|0,0:0|1:2,0:0:0:0:
158,0,38950,5,2,0:0:0:0:
49,162,39113,1,8,0:1:0:0:
233,94,39276,1,2,1:2:0:0:
43,40,39439,1,4,0:3:0:0:
165,194,39602,6,0,P|172:229|171:279,1,76.4999976654053,10|0,0:3|0:0,0:0:0:0:
233,94,39928,2,0,P|232:55|240:18,1,76.4999976654053,2|0,0:0|0:0,0:0:0:0:
432,184,40254,6,0,B|367:226|367:226|285:201,1,161.499995687485,2|2,1:2|1:2,0:0:0:0:
368,337,40743,1,0,0:0:0:0:
368,337,40906,2,0,P|377:301|367:253,1,80.7499978437424,10|0,0:3|0:0,0:0:0:0:
240,133,41232,1,2,0:0:0:0:
437,89,41395,1,2,1:2:0:0:
240,276,41558,6,0,L|153:351,1,85,2|8,0:0|0:1,0:0:0:0:
152,101,41884,2,0,L|162:203,1,85,2|4,1:2|0:3,0:0:0:0:
0,281,42210,2,0,P|42:368|101:343,1,170,10|2,0:3|0:0,0:0:0:0:
256,192,42618,12,0,44167,0:0:0:0:
254,169,44819,6,0,L|260:240,1,50.9999984436036,2|2,0:0|0:0,0:0:0:0:
249,352,45145,1,2,0:0:0:0:
263,348,45227,1,2,0:0:0:0:
277,344,45308,1,2,0:0:0:0:
292,340,45390,1,2,0:0:0:0:
323,354,45471,6,0,B|425:373|425:373|514:306,1,203.999993774414,6|6,1:2|0:3,0:0:0:0:
286,240,45960,1,2,0:0:0:0:
499,153,46123,2,0,L|511:20,1,101.999996887207,10|0,0:0|0:0,0:0:0:0:
235,118,46450,5,6,0:3:0:0:
472,230,46613,1,2,1:2:0:0:
214,269,46776,2,0,L|204:370,1,101.999996887207,6|0,0:3|1:2,0:0:0:0:
369,146,47102,5,6,1:3:0:0:
130,213,47265,1,2,0:0:0:0:
378,288,47428,2,0,L|492:325,1,101.999996887207,10|0,0:0|0:0,0:0:0:0:
305,222,47754,1,6,0:3:0:0:
305,222,47917,1,0,0:0:0:0:
203,370,48080,6,0,P|145:381|81:267,1,203.999993774414,6|6,1:3|0:3,0:0:0:0:
220,146,48569,1,2,0:0:0:0:
25,112,48732,2,0,L|11:-12,1,101.999996887207,10|0,0:0|0:0,0:0:0:0:
239,50,49058,5,6,0:3:0:0:
61,243,49221,1,2,1:2:0:0:
315,114,49384,2,0,L|418:66,1,101.999996887207,6|0,0:3|1:2,0:0:0:0:
229,288,49710,5,6,1:3:0:0:
136,109,49873,1,2,0:0:0:0:
340,266,50037,2,0,P|423:257|438:152,1,203.999993774414,10|6,0:0|0:3,0:0:0:0:
365,91,50526,1,0,0:0:0:0:
215,250,50689,6,0,P|205:303|205:359,1,101.999996887207,6|0,1:3|0:0,0:0:0:0:
136,109,51015,1,6,0:3:0:0:
322,278,51178,2,0,P|332:225|332:169,1,101.999996887207,2|8,0:0|0:0,0:0:0:0:
251,9,51504,5,2,0:0:0:0:
150,196,51667,1,6,0:3:0:0:
365,91,51830,1,2,1:2:0:0:
170,287,51993,6,0,P|83:269|64:164,1,203.999993774414,6|6,0:3|1:3,0:0:0:0:
134,21,52482,1,2,0:0:0:0:
264,213,52645,2,0,L|281:335,1,101.999996887207,8|0,0:0|0:0,0:0:0:0:
381,80,52971,2,0,L|364:202,1,101.999996887207,6|0,0:3|0:0,0:0:0:0:
458,344,53297,6,0,B|408:292|408:292|254:317,1,203.999993774414,6|6,1:3|0:3,0:0:0:0:
81,236,53787,1,0,0:0:0:0:
267,100,53950,2,0,P|256:146|253:215,1,101.999996887207,10|0,0:0|0:0,0:0:0:0:
297,384,54276,1,6,0:3:0:0:
166,174,54439,5,0,1:2:0:0:
369,247,54602,1,4,0:3:0:0:
133,313,54765,5,8,0:0:0:0:
349,157,54928,1,4,1:3:0:0:
94,232,55091,1,2,0:0:0:0:
389,337,55254,5,10,0:0:0:0:
72,234,55417,1,10,0:0:0:0:
348,136,55580,2,0,L|385:14,1,101.999996887207,10|0,0:3|0:0,0:0:0:0:
175,329,55906,6,0,P|95:336|73:231,1,203.999993774414,6|6,1:2|0:3,0:0:0:0:
220,68,56395,1,2,0:0:0:0:
275,283,56558,2,0,P|284:340|287:402,1,101.999996887207,10|0,0:0|0:0,0:0:0:0:
129,133,56884,5,6,0:3:0:0:
368,196,57047,1,2,1:2:0:0:
118,277,57210,2,0,P|105:335|100:391,1,101.999996887207,6|0,0:3|1:2,0:0:0:0:
261,84,57537,5,6,1:3:0:0:
329,326,57700,1,2,0:0:0:0:
129,133,57863,2,0,L|39:48,1,101.999996887207,10|0,0:0|0:0,0:0:0:0:
227,187,58189,1,6,0:3:0:0:
227,187,58352,1,0,0:0:0:0:
379,27,58515,6,0,B|412:-9|412:-9|447:50|422:141,1,203.999993774414,6|6,1:3|0:3,0:0:0:0:
227,187,59004,1,2,0:0:0:0:
449,249,59167,2,0,P|449:302|460:378,1,101.999996887207,10|0,0:0|0:0,0:0:0:0:
241,285,59493,5,6,0:3:0:0:
417,151,59656,1,2,1:2:0:0:
160,249,59819,2,0,P|160:302|149:378,1,101.999996887207,6|0,0:3|1:2,0:0:0:0:
118,106,60145,5,6,1:3:0:0:
325,187,60308,1,2,0:0:0:0:
56,240,60471,2,0,P|44:329|157:340,1,203.999993774414,10|6,0:0|0:3,0:0:0:0:
213,291,60960,1,0,0:0:0:0:
5,118,61123,6,0,B|123:82|88:154|208:121,1,203.999993774414,6|6,1:2|0:3,0:0:0:0:
420,0,61613,1,2,0:0:0:0:
344,242,61776,1,8,0:0:0:0:
249,7,61939,5,2,0:0:0:0:
482,107,62102,1,6,0:3:0:0:
185,163,62265,1,2,0:0:0:0:
500,257,62428,6,0,L|510:383,1,101.999996887207,6|0,1:2|0:0,0:0:0:0:
386,79,62754,1,6,1:3:0:0:
316,290,62917,2,0,P|275:315|192:308,1,101.999996887207,2|8,0:0|0:0,0:0:0:0:
94,130,63243,5,2,0:0:0:0:
45,351,63406,1,6,0:3:0:0:
91,109,63569,1,2,0:0:0:0:
222,318,63732,6,0,L|329:357,1,101.999996887207,6|0,1:3|0:0,0:0:0:0:
102,214,64058,2,0,L|-5:253,1,101.999996887207,8|0,0:0|0:0,0:0:0:0:
290,24,64384,2,0,L|305:196,1,101.999996887207,12|0,0:0|0:0,0:0:0:0:
317,352,64710,5,6,1:3:0:0:
168,114,64873,1,10,0:0:0:0:
428,219,65037,1,4,0:3:0:0:
156,287,65200,1,8,0:0:0:0:
336,72,65363,2,0,L|411:-30,1,101.999996887207,6|0,1:3|0:0,0:0:0:0:
481,305,65689,5,10,0:0:0:0:
197,106,65852,1,8,0:3:0:0:
438,64,66015,1,10,1:3:0:0:
240,348,66178,1,2,1:2:0:0:
90,35,66341,6,0,P|104:133|101:233,1,187.000005706787,6|0,1:2|0:0,0:0:0:0:
80,319,66830,1,0,0:0:0:0:
202,139,66993,2,0,P|248:122|297:122,1,93.5000028533936,10|0,0:0|0:0,0:0:0:0:
309,230,67319,2,0,P|263:247|214:247,1,93.5000028533936,2|0,0:0|1:2,0:0:0:0:
405,75,67645,6,0,P|451:100|492:138,1,93.5000028533936,2|0,0:0|0:0,0:0:0:0:
385,281,67971,2,0,P|339:256|298:218,1,93.5000028533936,2|0,1:2|0:0,0:0:0:0:
213,31,68297,2,0,L|190:147,1,93.5000028533936,10|0,0:0|0:0,0:0:0:0:
163,273,68623,1,2,0:0:0:0:
163,273,68787,1,0,0:0:0:0:
349,368,68950,6,0,P|429:333|418:240,1,187.000005706787,2|0,1:2|0:0,0:0:0:0:
288,172,69439,1,0,0:0:0:0:
288,172,69602,2,0,L|389:142,1,93.5000028533936,8|0,0:0|0:0,0:0:0:0:
263,289,69928,5,2,0:0:0:0:
194,204,70091,2,0,P|114:183|-20:173,1,187.000005706787,2|0,1:2|0:0,0:0:0:0:
139,15,70580,2,0,P|128:42|147:101,1,93.5000028533936,2|0,1:2|0:0,0:0:0:0:
263,289,70906,2,0,L|272:156,1,93.5000028533936,10|0,0:0|0:0,0:0:0:0:
283,0,71232,1,2,0:0:0:0:
157,185,71395,1,2,0:0:0:0:
375,34,71558,6,0,B|415:4|415:4|392:59|390:152,1,187.000005706787,6|0,1:2|0:0,0:0:0:0:
409,236,72047,1,0,0:0:0:0:
178,308,72210,2,0,P|136:291|70:292,1,93.5000028533936,10|0,0:0|0:0,0:0:0:0:
233,161,72537,2,0,P|239:205|273:262,1,93.5000028533936,2|0,0:0|1:2,0:0:0:0:
79,189,72863,6,0,P|114:161|146:103,1,93.5000028533936,2|0,0:0|0:0,0:0:0:0:
169,11,73189,1,2,1:2:0:0:
169,11,73352,1,0,0:0:0:0:
325,126,73515,2,0,P|317:202|210:201,1,187.000005706787,10|2,0:0|0:0,0:0:0:0:
336,9,74004,1,0,1:0:0:0:
336,9,74167,6,0,B|411:64|411:64|517:34,1,187.000005706787,2|0,1:2|1:2,0:0:0:0:
325,126,74656,1,0,0:0:0:0:
481,234,74819,2,0,L|511:343,1,93.5000028533936,8|0,0:0|0:0,0:0:0:0:
411,85,75145,5,2,0:0:0:0:
294,301,75308,2,0,P|255:306|199:193,1,187.000005706787,2|8,1:2|0:0,0:0:0:0:
292,41,75797,1,2,1:2:0:0:
325,126,75960,1,0,0:0:0:0:
133,37,76123,5,10,0:0:0:0:
358,211,76287,2,0,P|376:274|382:328,1,93.5000028533936,8|2,0:0|0:0,0:0:0:0:
95,216,76613,1,10,0:0:0:0:
379,49,76776,6,0,P|452:84|444:192,1,187.000005706787,6|0,1:2|0:0,0:0:0:0:
393,260,77265,1,0,0:0:0:0:
190,168,77428,2,0,L|78:116,1,93.5000028533936,10|0,0:0|0:0,0:0:0:0:
214,360,77754,2,0,L|233:246,1,93.5000028533936,2|0,0:0|1:2,0:0:0:0:
292,41,78080,6,0,L|307:133,1,93.5000028533936,2|0,0:0|0:0,0:0:0:0:
397,310,78406,2,0,P|330:262|218:273,1,187.000005706787,2|10,1:2|0:0,0:0:0:0:
117,372,78895,1,0,0:0:0:0:
89,221,79058,2,0,L|68:96,1,93.5000028533936,2|4,0:0|0:3,0:0:0:0:
286,22,79384,6,0,P|274:91|158:104,1,187.000005706787,2|0,1:2|0:0,0:0:0:0:
107,41,79873,1,0,0:0:0:0:
248,198,80037,2,0,P|257:233|261:304,1,93.5000028533936,8|0,0:0|0:0,0:0:0:0:
296,4,80363,1,2,0:0:0:0:
114,159,80526,1,0,1:2:0:0:
362,249,80689,6,0,P|414:235|460:237,1,93.5000028533936,2|0,0:0|0:0,0:0:0:0:
468,368,81015,2,0,P|416:382|370:380,1,93.5000028533936,2|0,1:2|0:0,0:0:0:0:
202,173,81341,6,0,P|160:155|114:159,1,93.5000028533936,10|0,0:0|0:0,0:0:0:0:
91,321,81667,2,0,P|133:339|179:335,1,93.5000028533936,2|8,0:0|0:3,0:0:0:0:
329,143,81993,5,6,1:2:0:0:
367,333,82156,1,0,0:0:0:0:
325,126,82319,1,2,0:0:0:0:
211,312,82482,1,2,0:0:0:0:
427,203,82645,6,0,L|529:153,1,93.5000028533936,8|0,0:0|0:0,0:0:0:0:
244,61,82971,2,0,P|229:97|231:159,1,93.5000028533936,2|0,0:0|1:2,0:0:0:0:
303,344,83297,6,0,B|224:296|224:296|133:331,1,187.000005706787,0|0,0:0|1:2,0:0:0:0:
2,248,83787,1,0,0:0:0:0:
190,105,83950,5,10,0:0:0:0:
135,329,84113,1,8,0:3:0:0:
1,140,84276,1,10,1:3:0:0:
235,224,84439,1,0,1:2:0:0:
235,224,84520,1,0,1:0:0:0:
235,224,84602,6,0,B|260:219|284:185|309:150|309:150|332:116|361:111|391:105|426:130|430:159|435:188|412:222|412:222|446:246|451:275|456:305|432:339|403:343|374:349|340:325|340:325|305:300|271:277|237:253|207:258,1,680,6|0,1:2|0:0,0:0:0:0:
