osu file format v14

[General]
AudioFilename: audio.mp3
AudioLeadIn: 0
PreviewTime: 44581
Countdown: 0
SampleSet: Soft
StackLeniency: 0.5
Mode: 0
LetterboxInBreaks: 0
WidescreenStoryboard: 1

[Editor]
Bookmarks: 11564,21999,32434,42869,45477,55912,66347,76782,87216
DistanceSpacing: 1
BeatDivisor: 4
GridSize: 32
TimelineZoom: 1.2

[Metadata]
Title:Believe in you (TV Size)
TitleUnicode:Believe in you (TV Size)
Artist:nonoc
ArtistUnicode:nonoc
Creator:fieryrage
Version:Wanpachi's Normal
Source:Re:ゼロから始める異世界生活
Tags:re:zero kara hajimeru isekai seikatsu rezero starting life in another world different from zero season two anime ending ed japanese pop rock flask wanpachi cycopton hooni sylas thekoala delis shirohamymommy blastthekidd
BeatmapID:2849353
BeatmapSetID:1378030

[Difficulty]
HPDrainRate:4
CircleSize:3
OverallDifficulty:4.4
ApproachRate:5
SliderMultiplier:1.8
SliderTickRate:1

[Events]
//Background and Video events
0,0,"why i gotta use this damn background.jpg",0,0
Video,-350,"the emilia video.mp4"
//Break Periods
2,42863,44271
//Storyboard Layer 0 (Background)
//Storyboard Layer 1 (Fail)
//Storyboard Layer 2 (Pass)
//Storyboard Layer 3 (Foreground)
//Storyboard Layer 4 (Overlay)
//Storyboard Sound Samples

[TimingPoints]
472,652.173913043478,4,2,5,35,1,0
472,-100,4,2,5,35,0,0
1124,652.173913043478,4,2,5,40,1,0
1124,-100,4,2,5,40,0,0
1287,-100,4,2,2,5,0,0
2102,-100,4,2,5,40,0,0
2754,-100,4,2,5,40,0,0
3732,-100,4,2,5,40,0,0
3895,-100,4,2,2,5,0,0
4710,-100,4,2,5,40,0,0
6015,-100,4,2,5,40,0,0
6504,-100,4,2,2,5,0,0
7645,-100,4,2,5,40,0,0
7808,-100,4,2,2,5,0,0
8950,-100,4,2,5,40,0,0
9113,-100,4,2,2,5,0,0
10580,-100,4,2,1,40,0,0
11558,-100,4,2,1,45,0,0
15471,-100,4,2,1,35,0,0
15797,-100,4,2,1,25,0,0
16123,-100,4,2,1,45,0,0
25906,-100,4,2,1,35,0,0
26232,-100,4,2,1,25,0,0
26558,-100,4,2,1,45,0,0
31123,-100,4,2,0,30,0,0
32428,-100,4,2,5,50,0,0
35037,-100,4,2,5,50,0,0
36015,-100,4,2,1,50,0,0
37645,-100,4,2,5,55,0,0
39276,-100,4,2,1,55,0,0
40254,-100,4,2,5,60,0,0
41232,-100,4,2,1,60,0,0
41395,-100,4,2,1,60,0,0
41558,-100,4,2,5,60,0,0
44167,-100,4,2,2,5,0,0
44819,-100,4,2,1,45,0,0
45145,-100,4,2,1,50,0,0
45471,-90.9090909090909,4,2,5,70,0,1
45634,-90.9090909090909,4,2,1,70,0,1
48080,-90.9090909090909,4,2,5,70,0,1
48243,-90.9090909090909,4,2,1,70,0,1
55580,-90.9090909090909,4,2,1,60,0,1
55825,-90.9090909090909,4,2,1,60,0,0
55906,-90.9090909090909,4,2,5,70,0,1
56069,-90.9090909090909,4,2,1,70,0,1
58515,-90.9090909090909,4,2,5,70,0,1
58678,-90.9090909090909,4,2,1,70,0,1
63732,-90.9090909090909,4,2,5,70,0,1
63895,-90.9090909090909,4,2,1,70,0,1
66341,-100,4,2,5,65,0,0
66504,-100,4,2,1,65,0,0
68950,-100,4,2,5,65,0,0
69113,-100,4,2,1,65,0,0
71558,-100,4,2,5,65,0,0
71721,-100,4,2,1,65,0,0
74167,-100,4,2,5,65,0,0
74330,-100,4,2,1,65,0,0
76776,-100,4,2,5,65,0,0
76939,-100,4,2,1,65,0,0
79384,-100,4,2,5,65,0,0
79547,-100,4,2,1,65,0,0
84602,-100,4,2,5,65,0,0
84765,-100,4,2,2,5,0,0

[Colours]
Combo1 : 106,159,223
Combo2 : 172,172,172
Combo3 : 162,113,206
Combo4 : 135,198,94
Combo5 : 245,148,150

[HitObjects]
122,62,10580,6,0,L|18:47,2,90,2|2|2,0:0|0:0|0:0,0:0:0:0:
209,81,11558,6,0,P|265:66|294:49,1,90,2|2,1:2|0:0,0:0:0:0:
383,44,12210,2,0,L|420:137,1,90,6|2,0:3|0:0,0:0:0:0:
456,149,12700,2,0,P|438:222|438:291,1,135,2|2,0:0|0:0,0:0:0:0:
368,338,13515,1,2,0:0:0:0:
286,298,13841,1,2,0:0:0:0:
204,334,14167,6,0,L|91:317,1,90,2|4,0:0|0:3,0:0:0:0:
70,314,14656,2,0,P|42:203|47:56,1,225,2|8,0:0|0:1,0:0:0:0:
294,3,16450,2,0,L|312:57,1,45,2|2,0:0|0:0,0:0:0:0:
277,78,16776,6,0,P|237:145|198:252,1,180,2|4,1:2|0:3,0:0:0:0:
254,315,17754,2,0,L|324:310,1,45,2|2,0:0|0:0,0:0:0:0:
339,330,18080,2,0,P|383:330|430:301,1,90,0|2,0:0|0:0,0:0:0:0:
467,231,18732,1,2,0:0:0:0:
457,141,19058,2,0,L|443:86,1,45,2|2,0:0|0:0,0:0:0:0:
451,52,19384,6,0,P|279:23|75:36,1,360
23,88,21015,2,0,L|31:188,2,90,2|2|2,0:0|0:3|0:0,0:0:0:0:
94,32,21993,6,0,P|136:51|206:37,1,90,2|2,1:2|0:0,0:0:0:0:
217,24,22482,1,2,0:0:0:0:
217,24,22645,2,0,L|312:41,1,90,6|0,0:3|0:0,0:0:0:0:
346,58,23134,2,0,P|404:98|421:183,1,135,2|2,0:0|0:0,0:0:0:0:
394,242,23950,1,2,0:0:0:0:
413,329,24276,1,2,0:0:0:0:
331,363,24602,6,0,L|219:343,1,90,2|4,0:0|0:3,0:0:0:0:
197,350,25091,2,0,P|71:327|55:212,1,225,2|8,0:0|0:1,0:0:0:0:
217,42,26884,1,2,0:0:0:0:
275,110,27210,6,0,L|256:227,1,90,2|0,1:2|0:0,0:0:0:0:
175,230,27863,1,6,0:3:0:0:
217,309,28189,2,0,P|306:317|407:287,1,180,2|0,0:0|0:0,0:0:0:0:
462,239,29167,2,0,L|442:131,1,90,2|0,0:0|0:0,0:0:0:0:
459,110,29656,1,2,0:0:0:0:
459,110,29819,6,0,B|445:53|359:22|299:62|303:65|298:78|306:83|249:124|177:110|132:53,1,360,0|0,0:0|3:0,0:0:0:0:
329,372,32428,6,0,L|335:269,1,90,2|2,1:2|1:2,0:0:0:0:
278,211,33080,2,0,P|248:171|253:116,1,90,10|2,0:3|0:0,0:0:0:0:
252,87,33569,2,0,L|354:65,1,90,0|8,1:2|0:1,0:0:0:0:
364,30,34058,1,2,1:2:0:0:
444,70,34384,2,0,P|490:109|491:148,1,90,10|2,0:3|0:0,0:0:0:0:
428,197,35037,6,0,L|441:289,1,90,2|2,1:2|1:2,0:0:0:0:
366,333,35689,2,0,P|327:306|273:301,1,90,10|2,0:3|0:0,0:0:0:0:
249,323,36178,1,0,1:2:0:0:
249,323,36341,2,0,L|118:340,1,90,2|2,0:0|1:2,0:0:0:0:
72,354,36993,2,0,P|37:312|57:243,1,90,10|2,0:3|0:0,0:0:0:0:
49,238,37482,1,2,0:0:0:0:
49,238,37645,6,0,L|42:127,1,90,2|2,1:2|1:2,0:0:0:0:
104,81,38297,2,0,P|160:97|226:68,1,90,10|2,0:3|0:0,0:0:0:0:
233,104,38787,2,0,L|232:204,1,90,0|8,1:2|0:1,0:0:0:0:
230,238,39276,1,2,1:2:0:0:
285,308,39602,2,0,P|326:330|394:329,1,90,10|2,0:3|0:0,0:0:0:0:
437,276,40254,6,0,L|447:173,1,90,2|2,1:2|1:2,0:0:0:0:
404,106,40906,2,0,P|351:100|301:119,1,90,10|2,0:3|0:0,0:0:0:0:
279,133,41395,1,2,1:2:0:0:
279,133,41558,2,0,L|180:115,1,90,2|2,0:0|1:2,0:0:0:0:
103,92,42210,1,10,0:3:0:0:
38,154,42537,1,2,0:0:0:0:
49,361,45471,6,0,P|47:300|29:260,1,99.0000030212403,6|6,1:2|0:3,0:0:0:0:
16,218,45960,1,2,0:0:0:0:
33,171,46123,2,0,L|138:114,1,99.0000030212403,10|6,0:0|0:3,0:0:0:0:
159,93,46613,1,2,1:2:0:0:
208,95,46776,1,6,0:3:0:0:
295,48,47102,2,0,P|331:54|359:61,1,49.5000015106202,6|2,1:3|0:0,0:0:0:0:
389,38,47428,1,10,0:0:0:0:
487,51,47754,1,6,0:3:0:0:
461,149,48080,6,0,L|478:259,1,99.0000030212403,6|6,1:3|0:3,0:0:0:0:
443,284,48569,1,2,0:0:0:0:
399,308,48732,2,0,P|332:326|283:294,1,99.0000030212403,10|6,0:0|0:3,0:0:0:0:
265,289,49221,1,2,1:2:0:0:
217,302,49384,1,6,0:3:0:0:
122,273,49710,2,0,L|109:195,1,49.5000015106202,6|2,1:3|0:0,0:0:0:0:
108,174,50037,1,10,0:0:0:0:
45,96,50363,1,6,0:3:0:0:
112,20,50689,6,0,P|166:13|238:37,1,99.0000030212403,6|6,1:3|0:3,0:0:0:0:
255,40,51178,2,0,L|241:159,1,99.0000030212403,2|2,0:0|0:0,0:0:0:0:
272,178,51667,1,6,0:3:0:0:
217,260,51993,2,0,P|239:316|285:335,1,99.0000030212403,6|6,0:3|1:3,0:0:0:0:
320,331,52482,2,0,L|423:313,1,99.0000030212403,2|0,0:0|0:0,0:0:0:0:
465,302,52971,1,6,0:3:0:0:
493,207,53297,6,0,P|499:158|481:113,1,99.0000030212403,6|6,1:3|0:3,0:0:0:0:
392,69,53950,1,10,0:0:0:0:
293,80,54276,2,0,L|184:61,1,99.0000030212403,6|4,0:3|0:3,0:0:0:0:
146,69,54765,1,8,0:0:0:0:
108,100,54928,1,4,1:3:0:0:
95,198,55254,2,0,P|96:234|110:286,1,49.5000015106202,10|10,0:0|0:0,0:0:0:0:
139,274,55580,2,0,L|200:258,1,49.5000015106202,10|0,0:3|0:0,0:0:0:0:
230,238,55906,6,0,P|251:185|234:116,1,99.0000030212403,6|6,1:2|0:3,0:0:0:0:
222,101,56395,1,2,0:0:0:0:
253,62,56558,2,0,L|362:30,1,99.0000030212403,10|6,0:0|0:3,0:0:0:0:
396,43,57047,1,2,1:2:0:0:
430,77,57210,1,6,0:3:0:0:
397,170,57537,2,0,P|410:203|421:239,1,49.5000015106202,6|2,1:3|0:0,0:0:0:0:
407,265,57863,1,10,0:0:0:0:
330,327,58189,1,6,0:3:0:0:
237,291,58515,6,0,L|128:311,1,99.0000030212403,6|6,1:3|0:3,0:0:0:0:
96,284,59004,1,2,0:0:0:0:
107,235,59167,2,0,P|122:185|85:108,1,99.0000030212403,10|6,0:0|0:3,0:0:0:0:
72,109,59656,1,2,1:2:0:0:
80,60,59819,1,6,0:3:0:0:
176,37,60145,2,0,L|194:115,1,49.5000015106202,6|2,1:3|0:0,0:0:0:0:
231,107,60471,1,10,0:0:0:0:
205,202,60797,1,6,0:3:0:0:
283,262,61123,6,0,P|304:308|302:371,1,99.0000030212403,6|6,1:2|0:3,0:0:0:0:
349,378,61613,2,0,L|464:358,1,99.0000030212403,2|2,0:0|0:0,0:0:0:0:
484,328,62102,1,6,0:3:0:0:
431,243,62428,2,0,P|433:194|461:154,1,99.0000030212403,6|6,1:2|1:3,0:0:0:0:
455,105,62917,2,0,L|329:90,1,99.0000030212403,2|2,0:0|0:0,0:0:0:0:
307,96,63406,1,6,0:3:0:0:
229,34,63732,6,0,P|176:27|123:58,1,99.0000030212403,6|8,1:3|0:0,0:0:0:0:
56,104,64384,2,0,L|74:214,1,99.0000030212403,12|6,0:0|1:3,0:0:0:0:
73,251,64873,1,10,0:0:0:0:
113,280,65037,2,0,P|173:267|221:265,1,99.0000030212403,4|6,0:3|1:3,0:0:0:0:
301,226,65689,2,0,L|304:154,1,49.5000015106202,10|8,0:0|0:3,0:0:0:0:
268,141,66015,2,0,P|273:112|290:80,1,49.5000015106202,10|2,1:3|1:2,0:0:0:0:
313,62,66341,6,0,L|426:69,1,90,6|0,1:2|0:0,0:0:0:0:
467,129,66993,1,10,0:0:0:0:
411,199,67319,2,0,P|418:235|421:275,1,45,2|0,0:0|1:2,0:0:0:0:
399,283,67645,1,2,0:0:0:0:
316,319,67971,1,2,1:2:0:0:
229,294,68297,2,0,L|115:303,1,90,10|2,0:0|0:0,0:0:0:0:
97,285,68787,1,0,0:0:0:0:
97,285,68950,6,0,P|62:243|72:179,1,90,2|0,1:2|0:0,0:0:0:0:
116,139,69602,2,0,L|127:37,1,90,8|2,0:0|0:0,0:0:0:0:
170,34,70091,1,2,1:2:0:0:
170,34,70254,1,0,0:0:0:0:
247,79,70580,1,2,1:2:0:0:
325,34,70906,2,0,P|393:29|436:50,1,90,10|2,0:0|0:0,0:0:0:0:
441,77,71395,1,2,0:0:0:0:
441,77,71558,6,0,L|422:172,1,90,6|0,1:2|0:0,0:0:0:0:
350,218,72210,1,10,0:0:0:0:
273,170,72537,2,0,P|240:165|201:165,1,45,2|0,0:0|1:2,0:0:0:0:
185,176,72863,1,2,0:0:0:0:
101,142,73189,1,2,1:2:0:0:
32,199,73515,2,0,L|54:301,1,90,10|2,0:0|0:0,0:0:0:0:
85,324,74004,1,0,1:0:0:0:
85,324,74167,6,0,P|131:327|175:304,1,90,2|0,1:2|1:2,0:0:0:0:
255,336,74819,1,8,0:0:0:0:
331,286,75145,1,2,0:0:0:0:
331,286,75308,2,0,L|424:272,1,90,2|8,1:2|0:0,0:0:0:0:
445,235,75797,1,2,1:2:0:0:
423,147,76123,2,0,P|422:124|424:102,1,45,10|8,0:0|0:0,0:0:0:0:
410,59,76450,2,0,L|337:41,1,45,2|10,0:0|0:0,0:0:0:0:
324,65,76776,6,0,P|273:83|220:79,1,90,6|0,1:2|0:0,0:0:0:0:
183,155,77428,1,10,0:0:0:0:
231,232,77754,2,0,L|216:295,1,45,2|0,0:0|1:2,0:0:0:0:
221,320,78080,1,2,0:0:0:0:
138,354,78406,1,2,1:2:0:0:
72,292,78732,2,0,P|47:250|51:191,1,90,10|2,0:0|0:0,0:0:0:0:
39,170,79221,1,4,0:3:0:0:
39,170,79384,6,0,L|69:75,1,90,2|0,1:2|0:0,0:0:0:0:
146,39,80037,1,8,0:0:0:0:
214,95,80363,2,0,P|236:100|259:103,1,45,2|0,0:0|1:2,0:0:0:0:
301,116,80689,1,2,0:0:0:0:
382,76,81015,1,2,1:2:0:0:
453,130,81341,2,0,L|464:235,1,90,10|2,0:0|0:0,0:0:0:0:
440,258,81830,1,8,0:3:0:0:
440,258,81993,6,0,P|393:280|318:258,1,90,6|0,1:2|0:0,0:0:0:0:
285,222,82645,1,8,0:0:0:0:
302,134,82971,2,0,L|293:81,1,45,2|0,0:0|1:2,0:0:0:0:
262,59,83297,2,0,P|216:38|151:55,1,90,0|0,0:0|1:2,0:0:0:0:
106,96,83950,2,0,L|116:168,1,45,10|8,0:0|0:3,0:0:0:0:
133,180,84276,2,0,P|127:207|115:253,1,45,10|0,1:3|1:2,0:0:0:0:
117,268,84602,5,6,1:2:0:0:
256,192,84765,12,0,87863,0:0:0:0:
