osu file format v14

[General]
AudioFilename: audio.mp3
AudioLeadIn: 0
PreviewTime: 44581
Countdown: 0
SampleSet: Soft
StackLeniency: 0.7
Mode: 0
LetterboxInBreaks: 0
WidescreenStoryboard: 1

[Editor]
DistanceSpacing: 0.1
BeatDivisor: 8
GridSize: 16
TimelineZoom: 1.6

[Metadata]
Title:Believe in you (TV Size)
TitleUnicode:Believe in you (TV Size)
Artist:nonoc
ArtistUnicode:nonoc
Creator:fieryrage
Version:Sylas' Insane
Source:Re:ゼロから始める異世界生活
Tags:re:zero kara hajimeru isekai seikatsu rezero starting life in another world different from zero season two anime ending ed japanese pop rock flask wanpachi cycopton hooni sylas thekoala delis shirohamymommy blastthekidd
BeatmapID:2847754
BeatmapSetID:1378030

[Difficulty]
HPDrainRate:5
CircleSize:4
OverallDifficulty:8
ApproachRate:8.8
SliderMultiplier:2.2
SliderTickRate:1

[Events]
//Background and Video events
0,0,"sylas bg.jpg",0,0
Video,-350,"the emilia video.mp4"
//Break Periods
//Storyboard Layer 0 (Background)
//Storyboard Layer 1 (Fail)
//Storyboard Layer 2 (Pass)
//Storyboard Layer 3 (Foreground)
//Storyboard Layer 4 (Overlay)
//Storyboard Sound Samples

[TimingPoints]
472,652.173913043478,4,2,5,35,1,0
472,-100,4,2,5,35,0,0
1124,652.173913043478,4,2,5,40,1,0
1124,-100,4,2,5,40,0,0
10580,-125,4,2,1,40,0,0
11558,-125,4,2,1,45,0,0
15471,-125,4,2,1,35,0,0
15797,-125,4,2,1,25,0,0
16123,-125,4,2,1,45,0,0
19384,-125,4,2,5,45,0,0
19873,-125,4,2,5,35,0,0
20363,-125,4,2,5,45,0,0
21015,-125,4,2,1,45,0,0
24602,-111.111111111111,4,2,1,45,0,0
25906,-111.111111111111,4,2,1,35,0,0
26232,-111.111111111111,4,2,1,25,0,0
26558,-111.111111111111,4,2,1,45,0,0
26884,-125,4,2,1,45,0,0
29819,-125,4,2,5,45,0,0
29982,-125,4,2,1,45,0,0
31123,-125,4,2,0,30,0,0
32428,-100,4,2,5,50,0,0
34873,-100,4,2,5,35,0,0
35037,-100,4,2,5,50,0,0
36015,-100,4,2,1,50,0,0
37645,-86.9565217391304,4,2,5,55,0,0
39276,-86.9565217391304,4,2,1,55,0,0
39602,-76.9230769230769,4,2,1,55,0,0
40254,-83.3333333333333,4,2,5,60,0,0
41232,-83.3333333333333,4,2,1,60,0,0
41558,-83.3333333333333,4,2,5,60,0,0
44167,-83.3333333333333,4,2,2,5,0,0
44819,-83.3333333333333,4,2,5,45,0,0
45145,-83.3333333333333,4,2,5,35,0,0
45308,-83.3333333333333,4,2,5,45,0,0
45471,-66.6666666666667,4,2,5,70,0,1
45634,-66.6666666666667,4,2,1,70,0,1
48080,-66.6666666666667,4,2,5,70,0,1
48243,-66.6666666666667,4,2,1,70,0,1
55580,-66.6666666666667,4,2,1,60,0,1
55906,-66.6666666666667,4,2,5,70,0,1
56069,-66.6666666666667,4,2,1,70,0,1
58515,-66.6666666666667,4,2,5,70,0,1
58678,-66.6666666666667,4,2,1,70,0,1
63732,-66.6666666666667,4,2,5,70,0,1
63895,-66.6666666666667,4,2,1,70,0,1
66341,-76.9230769230769,4,2,5,65,0,0
66504,-76.9230769230769,4,2,1,65,0,0
68950,-76.9230769230769,4,2,5,65,0,0
69113,-76.9230769230769,4,2,1,65,0,0
71558,-76.9230769230769,4,2,5,65,0,0
71721,-76.9230769230769,4,2,1,65,0,0
74167,-76.9230769230769,4,2,5,65,0,0
75145,-76.9230769230769,4,2,1,65,0,0
76776,-76.9230769230769,4,2,5,65,0,0
76939,-76.9230769230769,4,2,1,65,0,0
79384,-76.9230769230769,4,2,5,65,0,0
79547,-76.9230769230769,4,2,1,65,0,0
84602,-76.9230769230769,4,2,5,65,0,0
84765,-76.9230769230769,4,2,2,5,0,0

[Colours]
Combo1 : 220,175,210
Combo2 : 154,183,211
Combo3 : 180,171,209

[HitObjects]
325,108,10580,6,0,P|306:56|302:11,2,88,2|2|2,0:0|0:0|0:0,0:0:0:0:
489,227,11558,5,2,1:2:0:0:
405,122,11884,1,2,0:0:0:0:
277,169,12210,2,0,P|258:221|254:266,1,88,6|2,0:3|0:0,0:0:0:0:
271,324,12700,6,0,B|236:336|207:311|207:311|179:287|129:303,1,132,2|2,0:0|0:0,0:0:0:0:
16,350,13515,1,2,0:0:0:0:
101,227,13841,1,2,0:0:0:0:
25,79,14167,6,0,P|44:131|48:176,1,88,2|4,0:0|0:3,0:0:0:0:
17,234,14656,2,0,P|93:183|244:146,1,220,2|8,0:0|0:1,0:0:0:0:
215,147,16450,1,2,0:0:0:0:
287,178,16613,1,2,0:0:0:0:
351,132,16776,6,0,P|355:68|281:112,1,176,2|4,1:2|0:3,0:0:0:0:
327,327,17754,1,2,0:0:0:0:
260,295,17917,6,0,B|273:260|310:253|310:253|349:244|363:198,1,132,2|2,0:0|0:0,0:0:0:0:
413,48,18732,1,2,0:0:0:0:
298,135,19058,2,0,P|289:176|300:190,1,44,2|2,0:0|0:0,0:0:0:0:
426,184,19384,6,0,P|390:145|366:99,1,88,0|4,0:0|0:3,0:0:0:0:
298,135,19873,2,0,P|300:81|315:32,1,88,2|0,0:0|0:0,0:0:0:0:
377,12,20363,1,2,0:0:0:0:
383,287,21015,6,0,P|427:290|466:264,2,88,2|2|2,0:0|0:3|0:0,0:0:0:0:
282,374,21993,6,0,P|288:330|304:289,1,88,2|2,1:2|0:0,0:0:0:0:
270,218,22482,1,2,0:0:0:0:
209,302,22645,2,0,P|165:305|126:279,1,88,6|0,0:3|0:0,0:0:0:0:
97,214,23134,1,2,0:0:0:0:
97,214,23297,6,0,L|89:151,1,44,0|0,0:0|0:0,0:0:0:0:
174,109,23623,2,0,L|166:171,1,44,2|0,0:0|0:0,0:0:0:0:
235,201,23950,1,2,0:0:0:0:
25,129,24276,1,2,0:0:0:0:
302,152,24602,6,0,P|344:137|357:84,1,98.9999969787599,2|4,0:0|0:3,0:0:0:0:
346,0,25091,2,0,P|335:82|319:259,1,247.4999924469,2|8,0:0|0:1,0:0:0:0:
319,246,26884,2,0,P|308:265|303:286,1,44,2|0,0:0|0:0,0:0:0:0:
273,178,27210,6,0,B|238:174|217:204|217:204|196:240|142:235,1,132,2|0,1:2|0:0,0:0:0:0:
99,184,27863,2,0,P|93:162|84:143,1,44,6|0,0:3|0:0,0:0:0:0:
189,56,28189,6,0,P|263:82|380:147,1,176,2|0,0:0|0:0,0:0:0:0:
428,309,29167,2,0,P|449:265|452:219,1,88,2|0,0:0|0:0,0:0:0:0:
452,226,29656,1,2,0:0:0:0:
370,363,29819,6,0,B|242:337|232:235|258:128|383:172|369:247,1,352,2|0,0:0|3:0,0:0:0:0:
89,80,32428,6,0,L|182:94,1,82.5,2|0,1:2|0:0,0:0:0:0:
170,92,32754,2,0,L|161:38,1,55,2|0,1:2|0:0,0:0:0:0:
39,204,33080,1,10,0:3:0:0:
39,204,33406,5,2,0:0:0:0:
122,187,33569,2,0,L|114:241,1,55,0|2,1:2|0:0,0:0:0:0:
67,129,33895,1,8,0:1:0:0:
47,286,34058,2,0,L|56:339,1,55,2|4,1:2|0:3,0:0:0:0:
199,222,34384,6,0,L|303:205,1,82.5,10|0,0:3|0:0,0:0:0:0:
280,209,34710,1,2,0:0:0:0:
381,136,34873,1,8,0:1:0:0:
381,136,34955,1,8,0:1:0:0:
381,136,35037,6,0,L|372:190,1,55,2|0,1:2|0:0,0:0:0:0:
287,67,35363,2,0,L|296:121,1,55,2|0,1:2|0:0,0:0:0:0:
337,291,35689,1,10,0:3:0:0:
337,291,36015,5,2,0:0:0:0:
458,220,36178,1,0,1:2:0:0:
403,374,36341,2,0,L|416:292,1,82.5,2|0,0:0|0:0,0:0:0:0:
416,292,36667,1,2,1:2:0:0:
377,219,36830,1,4,0:3:0:0:
259,321,36993,6,0,L|177:307,1,82.5,10|0,0:3|0:0,0:0:0:0:
178,308,37319,1,2,0:0:0:0:
276,235,37482,1,2,0:0:0:0:
97,297,37645,6,0,P|95:328|107:357,1,63.250001206398,2|0,1:2|0:0,0:0:0:0:
203,201,37971,2,0,P|216:158|209:130,1,63.250001206398,2|0,1:2|0:0,0:0:0:0:
108,50,38297,1,10,0:3:0:0:
108,50,38623,5,2,0:0:0:0:
15,119,38787,2,0,P|77:127|131:159,1,126.500002412796,0|8,1:2|0:1,0:0:0:0:
252,45,39276,2,0,P|224:59|191:64,1,63.250001206398,2|4,1:2|0:3,0:0:0:0:
235,291,39602,6,0,P|252:230|284:178,1,107.249995090485,10|0,0:3|0:0,0:0:0:0:
273,191,39928,1,2,0:0:0:0:
213,140,40091,1,0,0:0:0:0:
320,319,40254,6,0,P|385:315|412:284,1,98.9999969787599,2|0,1:2|0:0,0:0:0:0:
406,293,40580,2,0,P|408:254|418:222,1,65.9999979858399,2|0,1:2|0:0,0:0:0:0:
472,112,40906,1,10,0:3:0:0:
472,112,41232,1,2,0:0:0:0:
490,273,41395,1,2,1:2:0:0:
370,159,41558,6,0,P|337:160|305:169,1,65.9999979858399,2|8,0:0|0:1,0:0:0:0:
184,258,41884,1,2,1:2:0:0:
189,107,42047,1,4,0:3:0:0:
269,242,42210,6,0,P|269:274|260:306,1,65.9999979858399,10|0,0:3|0:0,0:0:0:0:
114,148,42537,2,0,P|104:116|103:83,1,65.9999979858399,2|0,0:0|0:0,0:0:0:0:
256,192,42863,12,0,44167,0:0:0:0:
211,127,45145,5,2,0:0:0:0:
212,141,45227,1,2,0:0:0:0:
214,155,45308,1,2,0:0:0:0:
216,169,45390,1,2,0:0:0:0:
218,184,45471,6,0,P|172:151|79:164,1,123.750004720688,6|0,1:2|0:0,0:0:0:0:
96,155,45797,5,6,0:3:0:0:
234,270,45960,1,2,0:0:0:0:
394,193,46123,2,0,P|399:132|376:90,1,82.5000031471254,10|0,0:0|0:0,0:0:0:0:
215,88,46450,5,6,0:3:0:0:
153,234,46613,1,2,1:2:0:0:
262,344,46776,2,0,P|323:349|365:326,1,82.5000031471254,6|0,0:3|1:2,0:0:0:0:
469,201,47102,5,6,1:3:0:0:
392,114,47265,1,2,0:0:0:0:
281,138,47428,2,0,P|283:194|305:287,1,123.750004720688,10|0,0:0|0:0,0:0:0:0:
303,269,47754,2,0,P|353:234|353:189,1,82.5000031471254,6|0,0:3|0:0,0:0:0:0:
304,43,48080,1,6,1:3:0:0:
304,43,48406,5,6,0:3:0:0:
182,198,48569,1,2,0:0:0:0:
107,15,48732,1,10,0:0:0:0:
255,167,48895,2,0,P|253:241|181:279,1,123.750004720688,2|0,0:0|0:0,0:0:0:0:
210,276,49221,1,2,1:2:0:0:
62,102,49384,6,0,B|95:91|124:109|124:109|157:131|199:112,1,123.750004720688,6|0,0:3|0:0,0:0:0:0:
190,114,49710,1,6,1:3:0:0:
107,15,49873,1,2,0:0:0:0:
83,180,50037,6,0,P|89:223|104:261,1,82.5000031471254,10|0,0:0|0:0,0:0:0:0:
321,149,50363,2,0,P|335:108|347:16,1,123.750004720688,6|0,0:3|0:0,0:0:0:0:
340,19,50689,6,0,P|296:14|258:57,1,82.5000031471254,6|0,1:3|0:0,0:0:0:0:
432,82,51015,1,6,0:3:0:0:
191,114,51178,2,0,P|248:122|312:144,1,123.750004720688,2|0,0:0|0:0,0:0:0:0:
321,149,51504,5,2,0:0:0:0:
356,241,51667,1,6,0:3:0:0:
281,311,51830,1,2,1:2:0:0:
413,173,51993,6,0,P|456:168|494:211,1,82.5000031471254,6|0,0:3|1:2,0:0:0:0:
260,217,52319,1,6,1:3:0:0:
503,274,52482,2,0,B|453:269|432:306|432:306|408:347|356:344,1,165.000006294251,2|0,0:0|0:0,0:0:0:0:
192,276,52971,1,6,0:3:0:0:
356,241,53134,1,0,0:0:0:0:
208,359,53297,6,0,P|167:359|131:338,1,82.5000031471254,6|0,1:3|0:0,0:0:0:0:
260,217,53623,2,0,P|280:253|270:315,1,82.5000031471254,6|0,0:3|0:0,0:0:0:0:
49,315,53950,2,0,P|74:269|90:184,1,123.750004720688,10|0,0:0|0:0,0:0:0:0:
91,190,54276,1,6,0:3:0:0:
34,135,54439,1,0,1:2:0:0:
205,65,54602,5,4,0:3:0:0:
173,191,54765,1,8,0:0:0:0:
132,114,54928,2,0,P|118:74|123:33,1,82.5000031471254,4|2,1:3|0:0,0:0:0:0:
291,0,55254,5,10,0:0:0:0:
239,142,55417,1,10,0:0:0:0:
91,190,55580,2,0,P|49:184|15:161,1,82.5000031471254,10|0,0:3|0:0,0:0:0:0:
314,96,55906,6,0,P|355:94|422:141,1,123.750004720688,6|0,1:2|0:0,0:0:0:0:
426,149,56232,5,6,0:3:0:0:
239,142,56395,1,2,0:0:0:0:
177,309,56558,2,0,P|193:349|217:384,1,82.5000031471254,10|0,0:0|0:0,0:0:0:0:
427,225,56884,5,6,0:3:0:0:
314,96,57047,1,2,1:2:0:0:
154,147,57210,2,0,P|131:181|116:219,1,82.5000031471254,6|0,0:3|1:2,0:0:0:0:
283,352,57537,5,6,1:3:0:0:
359,296,57700,1,2,0:0:0:0:
338,200,57863,2,0,P|297:190|206:221,1,123.750004720688,10|0,0:0|0:0,0:0:0:0:
212,217,58189,2,0,P|248:262|287:267,1,82.5000031471254,6|0,0:3|0:0,0:0:0:0:
489,149,58515,1,6,1:3:0:0:
489,149,58841,5,6,0:3:0:0:
359,296,59004,1,2,0:0:0:0:
295,109,59167,2,0,P|293:57|315:21,1,82.5000031471254,10|0,0:0|0:0,0:0:0:0:
359,296,59493,5,6,0:3:0:0:
223,198,59656,1,2,1:2:0:0:
370,132,59819,2,0,P|409:162|421:198,1,82.5000031471254,6|0,0:3|1:2,0:0:0:0:
171,275,60145,5,6,1:3:0:0:
223,198,60308,1,2,0:0:0:0:
260,279,60471,2,0,P|247:327|218:352,1,82.5000031471254,10|0,0:0|0:0,0:0:0:0:
51,255,60797,2,0,P|32:198|23:117,1,123.750004720688,6|0,0:3|0:0,0:0:0:0:
27,125,61123,6,0,P|76:118|110:135,1,82.5000031471254,6|0,1:2|0:0,0:0:0:0:
8,43,61450,1,6,0:3:0:0:
124,204,61613,2,0,B|158:204|176:170|176:170|194:138|242:143,1,123.750004720688,2|0,0:0|0:0,0:0:0:0:
235,143,61939,5,2,0:0:0:0:
303,219,62102,1,6,0:3:0:0:
406,200,62265,1,2,0:0:0:0:
351,55,62428,6,0,P|331:116|320:170,1,82.5000031471254,6|0,1:2|0:0,0:0:0:0:
263,18,62754,1,6,1:3:0:0:
217,236,62917,2,0,P|237:297|248:351,1,82.5000031471254,2|8,0:0|0:0,0:0:0:0:
406,200,63243,5,2,0:0:0:0:
235,142,63406,1,6,0:3:0:0:
119,273,63569,1,2,0:0:0:0:
328,333,63732,6,0,P|352:277|327:232,1,82.5000031471254,6|0,1:3|0:0,0:0:0:0:
158,122,64058,2,0,P|133:177|158:222,1,82.5000031471254,8|0,0:0|0:0,0:0:0:0:
362,70,64384,1,12,0:0:0:0:
362,70,64710,5,6,1:3:0:0:
304,172,64873,2,0,L|185:184,1,82.5000031471254,10|4,0:0|0:3,0:0:0:0:
95,68,65200,5,8,0:0:0:0:
237,95,65363,1,6,1:3:0:0:
158,122,65526,1,0,0:0:0:0:
7,64,65689,5,10,0:0:0:0:
174,40,65852,1,8,0:3:0:0:
278,175,66015,1,10,1:3:0:0:
108,197,66178,1,2,1:2:0:0:
275,27,66341,6,0,P|315:70|311:114,1,71.4999967269899,6|0,1:2|0:0,0:0:0:0:
391,102,66667,2,0,P|388:160|354:188,1,71.4999967269899,0|0,0:0|0:0,0:0:0:0:
277,259,66993,6,0,P|191:280|111:331,1,142.99999345398,10|2,0:0|0:0,0:0:0:0:
143,305,67482,1,0,1:2:0:0:
29,213,67645,2,0,P|57:232|100:243,1,71.4999967269899,2|0,0:0|0:0,0:0:0:0:
206,363,67971,2,0,P|239:357|278:334,1,71.4999967269899,2|0,1:2|0:0,0:0:0:0:
374,244,68297,6,0,P|360:156|316:72,1,142.99999345398,10|2,0:0|0:0,0:0:0:0:
338,106,68787,1,0,0:0:0:0:
467,79,68950,6,0,B|429:85|402:55|402:55|368:16|307:33,1,142.99999345398,2|0,1:2|0:0,0:0:0:0:
133,197,69602,2,0,B|170:203|197:173|197:173|231:133|292:151,1,142.99999345398,8|2,0:0|0:0,0:0:0:0:
260,145,70091,1,2,1:2:0:0:
136,121,70254,6,0,P|130:85|142:52,1,71.4999967269899,0|0,0:0|0:0,0:0:0:0:
261,225,70580,2,0,P|266:260|254:293,1,71.4999967269899,2|0,1:2|0:0,0:0:0:0:
151,371,70906,5,10,0:0:0:0:
151,371,71232,1,2,0:0:0:0:
73,273,71395,1,2,0:0:0:0:
191,215,71558,6,0,L|310:233,1,71.4999967269899,6|0,1:2|0:0,0:0:0:0:
333,241,71884,2,0,L|452:259,1,71.4999967269899,0|0,0:0|0:0,0:0:0:0:
496,167,72210,6,0,L|425:177,1,71.4999967269899,10|0,0:0|0:0,0:0:0:0:
261,204,72537,2,0,L|190:214,1,71.4999967269899,2|0,0:0|1:2,0:0:0:0:
99,163,72863,6,0,P|69:101|103:28,1,142.99999345398,2|2,0:0|1:2,0:0:0:0:
323,143,73515,2,0,P|348:207|318:270,1,142.99999345398,10|2,0:0|0:0,0:0:0:0:
318,270,74004,1,0,1:0:0:0:
250,334,74167,6,0,P|183:346|81:384,1,142.99999345398,2|0,1:2|1:2,0:0:0:0:
19,229,74656,2,0,P|86:251|156:264,1,142.99999345398,2|0,0:0|0:0,0:0:0:0:
260,204,75145,2,0,P|277:152|268:114,1,71.4999967269899,2|2,0:0|1:2,0:0:0:0:
170,38,75471,5,0,0:0:0:0:
193,153,75634,1,8,0:0:0:0:
257,53,75797,2,0,P|292:53|324:68,1,71.4999967269899,2|0,1:2|0:0,0:0:0:0:
115,108,76123,5,10,0:0:0:0:
244,222,76287,2,0,P|211:236|176:237,1,71.4999967269899,8|2,0:0|0:0,0:0:0:0:
257,53,76613,1,10,0:0:0:0:
351,181,76776,6,0,L|338:258,1,71.4999967269899,6|0,1:2|0:0,0:0:0:0:
274,296,77102,2,0,L|261:373,1,71.4999967269899,0|0,0:0|0:0,0:0:0:0:
232,151,77428,6,0,L|245:228,1,71.4999967269899,10|0,0:0|0:0,0:0:0:0:
346,347,77754,2,0,L|423:360,1,71.4999967269899,2|0,0:0|1:2,0:0:0:0:
495,209,78080,6,0,B|513:174|491:139|491:139|462:99|493:41,1,142.99999345398,2|2,0:0|1:2,0:0:0:0:
232,151,78732,2,0,B|250:186|228:221|228:221|199:261|230:319,1,142.99999345398,10|2,0:0|0:0,0:0:0:0:
217,286,79221,1,4,0:3:0:0:
317,139,79384,6,0,P|283:83|185:85,2,142.99999345398,2|0|8,1:2|0:0|0:0,0:0:0:0:
127,287,80363,2,0,P|101:225|105:201,1,71.4999967269899,2|0,0:0|1:2,0:0:0:0:
144,148,80689,5,2,0:0:0:0:
186,221,80852,1,0,0:0:0:0:
23,205,81015,2,0,P|58:148|80:137,1,71.4999967269899,2|0,1:2|0:0,0:0:0:0:
227,149,81341,1,10,0:0:0:0:
227,149,81667,1,2,0:0:0:0:
111,72,81830,1,8,0:3:0:0:
288,101,81993,6,0,P|335:94|366:73,1,71.4999967269899,6|0,1:2|0:0,0:0:0:0:
210,5,82319,2,0,P|191:49|195:86,1,71.4999967269899,0|0,0:0|0:0,0:0:0:0:
254,226,82645,1,8,0:0:0:0:
254,226,82971,1,2,0:0:0:0:
346,178,83134,1,0,1:2:0:0:
269,307,83297,6,0,P|233:304|201:289,1,71.4999967269899,0|0,0:0|0:0,0:0:0:0:
119,285,83623,2,0,P|95:258|84:224,1,71.4999967269899,0|0,1:2|0:0,0:0:0:0:
39,159,83950,5,10,0:0:0:0:
167,220,84113,1,8,0:3:0:0:
148,361,84276,1,10,1:3:0:0:
119,285,84439,1,0,1:2:0:0:
163,139,84602,1,6,1:2:0:0:
256,192,84765,12,0,87863,0:0:0:0:
