osu file format v14

[General]
AudioFilename: audio.mp3
AudioLeadIn: 0
PreviewTime: 44581
Countdown: 0
SampleSet: Soft
StackLeniency: 0.3
Mode: 0
LetterboxInBreaks: 0
WidescreenStoryboard: 1

[Editor]
DistanceSpacing: 0.4
BeatDivisor: 8
GridSize: 16
TimelineZoom: 1.1

[Metadata]
Title:Believe in you (TV Size)
TitleUnicode:Believe in you (TV Size)
Artist:nonoc
ArtistUnicode:nonoc
Creator:fieryrage
Version:Hooni's Expert
Source:Re:ゼロから始める異世界生活
Tags:re:zero kara hajimeru isekai seikatsu rezero starting life in another world different from zero season two anime ending ed japanese pop rock flask wanpachi cycopton hooni sylas thekoala delis shirohamymommy blastthekidd
BeatmapID:2853012
BeatmapSetID:1378030

[Difficulty]
HPDrainRate:5
CircleSize:3.6
OverallDifficulty:8.4
ApproachRate:9
SliderMultiplier:2
SliderTickRate:1

[Events]
//Background and Video events
0,0,"HOONI EMILIA BG PART 548.jpg",0,0
Video,-350,"the emilia video.mp4"
//Break Periods
//Storyboard Layer 0 (Background)
//Storyboard Layer 1 (Fail)
//Storyboard Layer 2 (Pass)
//Storyboard Layer 3 (Foreground)
//Storyboard Layer 4 (Overlay)
//Storyboard Sound Samples

[TimingPoints]
472,652.173913043478,4,2,5,35,1,0
1124,652.173913043478,4,2,5,40,1,0
10580,-100,4,2,1,40,0,0
11558,-100,4,2,1,45,0,0
15471,-100,4,2,1,35,0,0
15797,-100,4,2,1,25,0,0
16123,-100,4,2,1,45,0,0
25906,-100,4,2,1,35,0,0
26232,-100,4,2,1,25,0,0
26558,-100,4,2,1,45,0,0
29819,-125,4,2,5,45,0,0
29982,-125,4,2,1,45,0,0
31123,-125,4,2,0,30,0,0
32428,-83.3333333333333,4,2,5,50,0,0
36015,-83.3333333333333,4,2,1,50,0,0
37645,-83.3333333333333,4,2,5,55,0,0
39276,-83.3333333333333,4,2,1,55,0,0
40254,-71.4285714285714,4,2,5,60,0,0
41232,-71.4285714285714,4,2,1,60,0,0
41558,-62.5,4,2,5,60,0,0
42537,-166.666666666667,4,2,5,60,0,0
42700,-166.666666666667,4,2,2,5,0,0
44819,-166.666666666667,4,2,1,45,0,0
45145,-166.666666666667,4,2,1,50,0,0
45471,-50,4,2,5,70,0,1
45634,-50,4,2,1,70,0,1
45797,-55.5555555555556,4,2,1,70,0,1
47428,-41.6666666666667,4,2,1,70,0,1
47754,-83.3333333333333,4,2,1,70,0,1
48080,-55.5555555555556,4,2,5,70,0,1
48243,-55.5555555555556,4,2,1,70,0,1
50037,-41.6666666666667,4,2,1,70,0,1
50689,-55.5555555555556,4,2,1,70,0,1
54276,-50,4,2,1,70,0,1
54765,-55.5555555555556,4,2,1,70,0,1
55580,-55.5555555555556,4,2,1,60,0,1
55743,-55.5555555555556,4,2,1,60,0,0
55906,-50,4,2,5,70,0,1
56069,-50,4,2,1,70,0,1
56232,-55.5555555555556,4,2,1,70,0,1
57863,-41.6666666666667,4,2,1,70,0,1
58189,-83.3333333333333,4,2,1,70,0,1
58515,-55.5555555555556,4,2,5,70,0,1
58678,-55.5555555555556,4,2,1,70,0,1
60471,-41.6666666666667,4,2,1,70,0,1
61123,-45.4545454545455,4,2,1,70,0,1
61450,-55.5555555555556,4,2,1,70,0,1
62428,-45.4545454545455,4,2,1,70,0,1
62754,-55.5555555555556,4,2,1,70,0,1
63732,-55.5555555555556,4,2,5,70,0,1
63895,-55.5555555555556,4,2,1,70,0,1
64384,-45.4545454545455,4,2,1,70,0,1
64710,-55.5555555555556,4,2,1,70,0,1
65200,-55.5555555555556,4,2,1,70,0,1
66341,-45.4545454545455,4,2,5,65,0,0
66504,-45.4545454545455,4,2,1,65,0,0
66667,-55.5555555555556,4,2,1,65,0,0
68950,-55.5555555555556,4,2,5,65,0,0
69113,-55.5555555555556,4,2,1,65,0,0
71558,-45.4545454545455,4,2,5,65,0,0
71721,-45.4545454545455,4,2,1,65,0,0
71884,-55.5555555555556,4,2,1,65,0,0
74167,-55.5555555555556,4,2,5,65,0,0
74330,-55.5555555555556,4,2,1,65,0,0
76776,-45.4545454545455,4,2,5,65,0,0
76939,-45.4545454545455,4,2,1,65,0,0
77102,-55.5555555555556,4,2,1,65,0,0
79384,-55.5555555555556,4,2,5,65,0,0
79547,-55.5555555555556,4,2,1,65,0,0
81993,-41.6666666666667,4,2,1,65,0,0
82319,-55.5555555555556,4,2,1,65,0,0
84602,-55.5555555555556,4,2,5,65,0,0
84765,-55.5555555555556,4,2,2,5,0,0

[Colours]
Combo1 : 153,51,255
Combo2 : 172,172,172
Combo3 : 157,157,255
Combo4 : 90,55,255

[HitObjects]
41,47,11558,6,0,P|84:24|133:34,1,100,2|2,1:2|0:0,0:0:0:0:
266,184,12210,2,0,P|224:156|208:110,1,100,6|2,0:3|0:0,0:0:0:0:
237,9,12700,1,2,0:0:0:0:
378,60,12863,2,0,L|397:177,1,100,0|2,0:0|0:0,0:0:0:0:
485,314,13515,2,0,L|501:215,1,100,2|2,0:0|0:0,0:0:0:0:
292,353,14167,6,0,P|335:376|384:366,1,100,2|4,0:0|0:3,0:0:0:0:
217,256,14819,2,0,B|164:224|125:284|134:282|99:339|43:310,2,200,8|8|0,0:1|0:1|0:0,0:0:0:0:
53,194,16450,1,2,0:0:0:0:
50,182,16613,1,2,0:0:0:0:
149,53,16776,6,0,B|165:29|192:19|192:19|230:48|234:90|219:119|188:140,1,200,2|4,1:2|0:3,0:0:0:0:
75,280,17754,2,0,L|124:288,1,50,2|2,0:0|0:0,0:0:0:0:
236,355,18080,6,0,P|226:306|249:263,1,100,0|2,0:0|0:0,0:0:0:0:
427,293,18732,2,0,P|436:341|413:384,1,100,2|2,0:0|0:0,0:0:0:0:
334,324,19221,1,2,0:0:0:0:
306,187,19384,6,0,B|289:162|275:128|293:89|318:68|349:65|376:85|379:122,2,200,0|8|0,0:0|0:1|0:0,0:0:0:0:
244,356,21015,1,2,0:0:0:0:
146,273,21341,1,2,0:3:0:0:
26,322,21667,1,2,0:0:0:0:
127,83,21993,6,0,P|174:72|218:95,1,100,2|2,1:2|0:0,0:0:0:0:
284,171,22482,1,2,0:0:0:0:
396,30,22645,2,0,L|380:129,1,100,6|0,0:3|0:0,0:0:0:0:
446,204,23134,1,2,0:0:0:0:
292,288,23297,2,0,B|239:318|200:258|209:260|176:202|119:230,1,200,0|2,0:0|0:0,0:0:0:0:
284,171,24276,1,2,0:0:0:0:
389,359,24602,6,0,L|405:260,1,100,2|4,0:0|0:3,0:0:0:0:
358,87,25254,2,0,B|412:86|426:147|426:147|461:98|513:118,2,200,8|8|0,0:1|0:1|0:0,0:0:0:0:
406,255,26884,1,2,0:0:0:0:
235,358,27210,6,0,P|165:379|105:338,1,150,2|0,1:2|0:0,0:0:0:0:
80,241,27863,2,0,L|91:176,1,50,6|0,0:3|0:0,0:0:0:0:
0,83,28189,2,0,L|9:132,1,50,2|0,0:0|0:0,0:0:0:0:
182,284,28515,6,0,L|201:174,1,100,0|0,0:0|0:0,0:0:0:0:
271,20,29167,2,0,P|227:-2|179:7,1,100,2|0,0:0|0:0,0:0:0:0:
216,96,29656,1,2,0:0:0:0:
392,58,29819,6,0,B|347:100|340:165|365:219|404:248|446:249|500:193|450:141,1,320,2|0,0:0|3:0,0:0:0:0:
7,41,32428,5,2,1:2:0:0:
113,21,32754,1,2,1:2:0:0:
204,78,33080,1,10,0:3:0:0:
310,58,33406,1,2,0:0:0:0:
376,264,33732,5,2,0:0:0:0:
393,144,34058,1,2,1:2:0:0:
512,160,34384,1,10,0:3:0:0:
495,280,34710,1,2,0:0:0:0:
255,361,35037,5,2,1:2:0:0:
173,187,35363,1,2,1:2:0:0:
64,345,35689,1,10,0:3:0:0:
167,295,36015,1,2,0:0:0:0:
28,57,36341,6,0,P|57:54|85:66,1,59.9999981689454,2|8,0:0|0:1,0:0:0:0:
67,185,36667,2,0,P|37:187|9:175,1,59.9999981689454,2|4,1:2|0:3,0:0:0:0:
194,88,36993,2,0,L|315:109,1,119.999996337891,10|2,0:3|0:0,0:0:0:0:
402,60,37482,1,2,0:0:0:0:
448,203,37645,6,0,L|458:143,1,59.9999981689454,2|0,1:2|0:0,0:0:0:0:
357,254,37971,2,0,L|367:313,1,59.9999981689454,2|0,1:2|0:0,0:0:0:0:
260,200,38297,2,0,P|231:197|203:209,1,59.9999981689454,10|0,0:3|0:0,0:0:0:0:
86,302,38623,2,0,P|115:304|142:293,1,59.9999981689454,2|0,0:0|1:2,0:0:0:0:
0,244,38950,1,2,0:0:0:0:
67,77,39276,6,0,L|78:144,1,59.9999981689454,2|4,1:2|0:3,0:0:0:0:
215,20,39602,2,0,L|150:-3,1,59.9999981689454,10|0,0:3|0:0,0:0:0:0:
187,177,39928,2,0,L|239:132,1,59.9999981689454,2|0,0:0|0:0,0:0:0:0:
440,36,40254,6,0,P|408:20|374:25,1,69.9999978637696,2|0,1:2|0:0,0:0:0:0:
353,164,40580,2,0,P|384:179|418:174,1,69.9999978637696,2|0,1:2|0:0,0:0:0:0:
254,44,40906,2,0,P|184:52|116:70,1,139.999995727539,10|2,0:3|0:0,0:0:0:0:
36,137,41395,1,2,1:2:0:0:
138,260,41558,6,0,L|240:241,1,80,2|8,0:0|0:1,0:0:0:0:
364,350,41884,2,0,L|285:336,1,80,2|4,1:2|0:3,0:0:0:0:
476,226,42210,2,0,P|481:264|463:299,1,80,10|0,0:3|0:0,0:0:0:0:
347,168,42537,6,0,B|311:122|301:77|322:22|384:-3|384:-3|424:27|428:73,1,299.999990844727,2|0,0:0|0:0,0:0:0:0:
35,63,45471,6,0,B|43:113|43:113|81:141|81:141|90:192,1,150,6|0,1:2|0:0,0:0:0:0:
110,281,45797,5,6,0:3:0:0:
207,88,45960,1,2,0:0:0:0:
307,339,46123,2,0,L|325:231,1,89.9999972534181,10|0,0:0|0:0,0:0:0:0:
134,274,46450,5,6,0:3:0:0:
215,106,46613,1,2,1:2:0:0:
321,352,46776,2,0,L|339:244,1,89.9999972534181,6|0,0:3|1:2,0:0:0:0:
369,73,47102,1,6,1:3:0:0:
476,234,47265,1,2,0:0:0:0:
207,88,47428,6,0,B|158:90|143:145|143:145|114:100|70:104,1,179.999994506836,10|0,0:0|0:0,0:0:0:0:
54,212,47754,2,0,P|59:256|72:299,1,89.9999972534181,6|0,0:3|0:0,0:0:0:0:
164,339,48080,6,0,P|207:345|247:324,1,89.9999972534181,6|0,1:3|0:0,0:0:0:0:
437,133,48406,5,6,0:3:0:0:
380,341,48569,1,2,0:0:0:0:
267,116,48732,2,0,P|223:110|183:131,1,89.9999972534181,10|0,0:0|0:0,0:0:0:0:
422,146,49058,5,6,0:3:0:0:
365,354,49221,1,2,1:2:0:0:
252,129,49384,2,0,P|207:131|172:158,1,89.9999972534181,6|0,0:3|1:2,0:0:0:0:
80,343,49710,1,6,1:3:0:0:
13,138,49873,1,2,0:0:0:0:
250,304,50037,6,0,B|294:266|338:313|330:315|371:352|414:318,1,179.999994506836,10|0,0:0|0:0,0:0:0:0:
445,164,50363,2,0,B|438:137|418:121|418:121|376:133|360:168|363:198|383:226,1,179.999994506836,6|0,0:3|0:0,0:0:0:0:
250,304,50689,6,0,P|186:321|133:283,1,134.999995880127,6|0,1:3|0:0,0:0:0:0:
106,207,51015,1,6,0:3:0:0:
283,142,51178,1,2,0:0:0:0:
75,85,51341,2,0,P|118:78|158:99,1,89.9999972534181,8|2,0:0|0:0,0:0:0:0:
250,304,51667,1,6,0:3:0:0:
379,131,51830,1,2,1:2:0:0:
448,369,51993,6,0,L|471:236,1,134.999995880127,6|0,0:3|0:0,0:0:0:0:
486,156,52319,1,6,1:3:0:0:
352,321,52482,1,2,0:0:0:0:
275,110,52645,2,0,L|186:95,1,89.9999972534181,8|0,0:0|0:0,0:0:0:0:
76,238,52971,2,0,L|164:223,1,89.9999972534181,6|0,0:3|0:0,0:0:0:0:
440,289,53297,6,0,P|424:330|388:357,1,89.9999972534181,6|0,1:3|0:0,0:0:0:0:
425,158,53623,2,0,P|468:153|507:175,1,89.9999972534181,6|0,0:3|0:0,0:0:0:0:
294,303,53950,2,0,L|272:181,1,89.9999972534181,10|0,0:0|0:0,0:0:0:0:
248,17,54276,6,0,B|279:21|297:44|297:44|283:91|244:109|210:106|184:84,1,200,6|4,0:3|0:3,0:0:0:0:
57,0,54765,1,8,0:0:0:0:
94,222,54928,2,0,L|108:310,1,89.9999972534181,4|2,1:3|0:0,0:0:0:0:
278,131,55254,5,10,0:0:0:0:
357,351,55417,1,10,0:0:0:0:
508,172,55580,1,10,0:3:0:0:
375,227,55743,5,0,0:0:0:0:
185,34,55906,6,0,P|114:15|56:57,1,150,6|0,1:2|0:0,0:0:0:0:
18,135,56232,5,6,0:3:0:0:
224,201,56395,1,2,0:0:0:0:
0,316,56558,2,0,L|88:302,1,89.9999972534181,10|0,0:0|0:0,0:0:0:0:
29,151,56884,5,6,0:3:0:0:
235,217,57047,1,2,1:2:0:0:
11,332,57210,2,0,L|99:318,1,89.9999972534181,6|0,0:3|1:2,0:0:0:0:
315,290,57537,1,6,1:3:0:0:
155,152,57700,1,2,0:0:0:0:
447,262,57863,6,0,B|464:236|467:206|451:172|408:159|408:159|388:175|381:202,1,179.999994506836,10|0,0:0|0:0,0:0:0:0:
426,363,58189,2,0,P|469:369|509:348,1,89.9999972534181,6|0,0:3|0:0,0:0:0:0:
315,290,58515,6,0,L|227:304,1,89.9999972534181,6|0,1:3|0:0,0:0:0:0:
34,206,58841,5,6,0:3:0:0:
249,182,59004,1,2,0:0:0:0:
5,46,59167,2,0,P|48:38|89:56,1,89.9999972534181,10|0,0:0|0:0,0:0:0:0:
36,223,59493,5,6,0:3:0:0:
251,199,59656,1,2,1:2:0:0:
14,60,59819,2,0,P|57:58|95:81,1,89.9999972534181,6|0,0:3|1:2,0:0:0:0:
148,277,60145,1,6,1:3:0:0:
219,73,60308,1,2,0:0:0:0:
359,324,60471,6,0,B|401:320|430:365|430:365|444:312|494:308,1,179.999994506836,10|0,0:0|0:0,0:0:0:0:
457,156,60797,2,0,B|448:131|427:116|392:118|374:144|367:184|389:212|413:229,1,179.999994506836,6|0,0:3|0:0,0:0:0:0:
265,315,61123,6,0,B|257:273|257:273|233:240|233:240|243:198|243:198|236:160,1,165.000005035401,6|0,1:2|0:0,0:0:0:0:
219,73,61450,1,6,0:3:0:0:
148,277,61613,1,2,0:0:0:0:
12,54,61776,2,0,L|26:142,1,89.9999972534181,8|2,0:0|0:0,0:0:0:0:
55,348,62102,1,6,0:3:0:0:
127,144,62265,1,2,0:0:0:0:
271,352,62428,6,0,B|297:310|297:310|363:299|363:299|402:328,1,165.000005035401,6|0,1:2|0:0,0:0:0:0:
479,376,62754,2,0,L|493:288,1,89.9999972534181,6|2,1:3|0:0,0:0:0:0:
311,188,63080,2,0,L|325:276,1,89.9999972534181,8|2,0:0|0:0,0:0:0:0:
293,63,63406,1,6,0:3:0:0:
200,238,63569,1,2,0:0:0:0:
91,28,63732,6,0,L|223:4,1,134.999995880127,6|0,1:3|0:0,0:0:0:0:
293,63,64058,2,0,L|381:77,1,89.9999972534181,8|0,0:0|0:0,0:0:0:0:
512,288,64384,6,0,B|454:298|454:298|409:268|409:268|357:277,1,165.000005035401,12|0,0:0|0:0,0:0:0:0:
292,341,64710,1,6,1:3:0:0:
215,149,64873,2,0,L|201:237,1,89.9999972534181,10|4,0:0|0:3,0:0:0:0:
68,325,65200,5,8,0:0:0:0:
44,201,65363,1,6,1:3:0:0:
19,76,65526,1,0,0:0:0:0:
198,254,65689,5,10,0:0:0:0:
229,49,65852,1,8,0:3:0:0:
434,80,66015,1,10,1:3:0:0:
403,285,66178,1,2,1:2:0:0:
229,49,66341,6,0,B|190:20|190:20|124:31|124:31|98:73,1,165.000005035401,6|0,1:2|0:0,0:0:0:0:
49,149,66667,2,0,L|63:237,1,89.9999972534181,0|0,0:0|0:0,0:0:0:0:
182,351,66993,2,0,L|196:263,1,89.9999972534181,10|0,0:0|0:0,0:0:0:0:
225,75,67319,1,2,0:0:0:0:
319,239,67482,1,0,1:2:0:0:
454,88,67645,6,0,P|419:68|367:72,1,89.9999972534181,2|0,0:0|0:0,0:0:0:0:
438,260,67971,2,0,P|472:239|490:190,1,89.9999972534181,2|0,1:2|0:0,0:0:0:0:
292,156,68297,2,0,P|294:200|318:238,1,89.9999972534181,10|0,0:0|0:0,0:0:0:0:
200,48,68623,1,2,0:0:0:0:
166,226,68787,1,0,0:0:0:0:
44,26,68950,6,0,L|59:114,1,89.9999972534181,2|0,1:2|0:0,0:0:0:0:
150,314,69276,2,0,L|165:225,1,89.9999972534181,0|0,0:0|0:0,0:0:0:0:
200,48,69602,2,0,P|263:31|319:65,1,134.999995880127,8|0,0:0|0:0,0:0:0:0:
368,131,69928,1,2,0:0:0:0:
456,0,70091,1,2,1:2:0:0:
497,212,70254,6,0,L|512:123,1,89.9999972534181,0|0,0:0|0:0,0:0:0:0:
396,294,70580,2,0,L|411:382,1,89.9999972534181,2|0,1:2|0:0,0:0:0:0:
282,221,70906,2,0,L|137:246,1,134.999995880127,10|0,0:0|0:0,0:0:0:0:
64,257,71232,1,2,0:0:0:0:
235,338,71395,1,2,0:0:0:0:
41,128,71558,6,0,B|83:120|83:120|116:96|116:96|158:106|158:106|196:99,1,165.000005035401,6|0,1:2|0:0,0:0:0:0:
303,115,71884,2,0,P|282:75|287:31,1,89.9999972534181,0|0,0:0|0:0,0:0:0:0:
466,7,72210,2,0,P|486:46|481:90,1,89.9999972534181,10|0,0:0|0:0,0:0:0:0:
416,246,72537,1,2,0:0:0:0:
384,69,72700,1,0,1:2:0:0:
301,268,72863,6,0,L|212:283,1,89.9999972534181,2|0,0:0|0:0,0:0:0:0:
60,171,73189,2,0,L|149:186,1,89.9999972534181,2|0,1:2|0:0,0:0:0:0:
305,284,73515,2,0,L|216:299,1,89.9999972534181,10|0,0:0|0:0,0:0:0:0:
401,155,73841,1,2,0:0:0:0:
433,350,74004,1,0,1:0:0:0:
284,170,74167,6,0,L|269:82,1,89.9999972534181,2|0,1:2|0:0,0:0:0:0:
129,0,74493,2,0,L|114:88,1,89.9999972534181,0|0,1:2|0:0,0:0:0:0:
26,245,74819,2,0,P|89:228|145:262,1,134.999995880127,8|0,0:0|0:0,0:0:0:0:
201,330,75145,1,2,0:0:0:0:
284,170,75308,2,0,L|269:82,1,89.9999972534181,2|0,1:2|0:0,0:0:0:0:
453,141,75634,1,8,0:0:0:0:
431,256,75797,2,0,L|416:344,1,89.9999972534181,2|0,1:2|0:0,0:0:0:0:
205,361,76123,5,10,0:0:0:0:
66,191,76287,1,8,0:0:0:0:
87,316,76450,1,2,0:0:0:0:
163,110,76613,1,10,0:0:0:0:
318,324,76776,6,0,B|327:270|327:270|298:225|298:225|308:169,1,165.000005035401,6|0,1:2|0:0,0:0:0:0:
372,105,77102,2,0,L|460:120,1,89.9999972534181,0|0,0:0|0:0,0:0:0:0:
276,9,77428,2,0,L|188:24,1,89.9999972534181,10|0,0:0|0:0,0:0:0:0:
10,55,77754,1,2,0:0:0:0:
170,137,77917,1,0,1:2:0:0:
94,325,78080,6,0,P|133:331|181:310,1,89.9999972534181,2|0,0:0|0:0,0:0:0:0:
50,157,78406,2,0,P|25:188|25:240,1,89.9999972534181,2|0,1:2|0:0,0:0:0:0:
222,205,78732,2,0,P|205:164|169:136,1,89.9999972534181,10|0,0:0|0:0,0:0:0:0:
294,312,79058,1,2,0:0:0:0:
329,131,79221,1,4,0:3:0:0:
486,292,79384,6,0,P|442:298|401:279,1,89.9999972534181,2|0,1:2|0:0,0:0:0:0:
428,102,79710,2,0,P|471:95|512:114,1,89.9999972534181,0|0,0:0|0:0,0:0:0:0:
311,218,80037,2,0,L|167:192,1,134.999995880127,8|0,0:0|0:0,0:0:0:0:
89,181,80363,1,2,0:0:0:0:
227,310,80526,1,0,1:2:0:0:
264,106,80689,6,0,L|279:18,1,89.9999972534181,2|0,0:0|0:0,0:0:0:0:
73,92,81015,2,0,L|88:180,1,89.9999972534181,2|0,1:2|0:0,0:0:0:0:
227,310,81341,2,0,L|242:222,1,89.9999972534181,10|0,0:0|0:0,0:0:0:0:
417,80,81667,1,2,0:0:0:0:
382,279,81830,1,8,0:3:0:0:
279,17,81993,6,0,B|229:21|215:74|215:74|186:29|144:33,1,179.999994506836,6|0,1:2|0:0,0:0:0:0:
73,92,82319,2,0,P|78:136|91:179,1,89.9999972534181,0|0,0:0|0:0,0:0:0:0:
228,329,82645,2,0,P|234:261|250:196,1,134.999995880127,8|0,0:0|0:0,0:0:0:0:
301,121,82971,1,2,0:0:0:0:
382,279,83134,1,0,1:2:0:0:
487,80,83297,6,0,P|431:45|367:62,1,134.999995880127,0|0,0:0|0:0,0:0:0:0:
301,121,83623,2,0,P|257:116|214:103,1,89.9999972534181,0|0,1:2|0:0,0:0:0:0:
2,52,83950,5,10,0:0:0:0:
67,244,84113,1,8,0:3:0:0:
213,103,84276,1,10,1:3:0:0:
260,309,84439,5,0,1:2:0:0:
260,309,84520,1,0,1:0:0:0:
260,309,84602,1,6,1:2:0:0:
256,192,84683,12,0,87863,0:0:0:0:
