osu file format v14

[General]
AudioFilename: audio.mp3
AudioLeadIn: 0
PreviewTime: 44581
Countdown: 0
SampleSet: Soft
StackLeniency: 0.5
Mode: 0
LetterboxInBreaks: 0
WidescreenStoryboard: 1

[Editor]
Bookmarks: 66347
DistanceSpacing: 1.4
BeatDivisor: 8
GridSize: 4
TimelineZoom: 1.1

[Metadata]
Title:Believe in you (TV Size)
TitleUnicode:Believe in you (TV Size)
Artist:nonoc
ArtistUnicode:nonoc
Creator:fieryrage
Version:Flask's Hard
Source:Re:ゼロから始める異世界生活
Tags:re:zero kara hajimeru isekai seikatsu rezero starting life in another world different from zero season two anime ending ed japanese pop rock flask wanpachi cycopton hooni sylas thekoala delis shirohamymommy blastthekidd
BeatmapID:2849182
BeatmapSetID:1378030

[Difficulty]
HPDrainRate:5
CircleSize:3.7
OverallDifficulty:7
ApproachRate:8
SliderMultiplier:2.2
SliderTickRate:1

[Events]
//Background and Video events
0,0,"why i gotta use this damn background.jpg",0,0
Video,-350,"the emilia video.mp4"
//Break Periods
//Storyboard Layer 0 (Background)
//Storyboard Layer 1 (Fail)
//Storyboard Layer 2 (Pass)
//Storyboard Layer 3 (Foreground)
//Storyboard Layer 4 (Overlay)
//Storyboard Sound Samples

[TimingPoints]
472,652.173913043478,4,2,5,35,1,0
472,-100,4,2,5,35,0,0
1124,652.173913043478,4,2,5,40,1,0
1124,-100,4,2,5,40,0,0
10580,-166.666666666667,4,2,1,40,0,0
11558,-166.666666666667,4,2,1,45,0,0
12210,-166.666666666667,4,2,1,45,0,0
15471,-166.666666666667,4,2,1,35,0,0
15797,-166.666666666667,4,2,1,25,0,0
16123,-166.666666666667,4,2,1,45,0,0
21993,-166.666666666667,4,2,1,45,0,0
25906,-166.666666666667,4,2,1,35,0,0
26232,-166.666666666667,4,2,1,25,0,0
26558,-166.666666666667,4,2,1,45,0,0
31123,-166.666666666667,4,2,0,30,0,0
31776,-133.333333333333,4,2,0,30,0,0
32428,-111.111111111111,4,2,5,50,0,0
34873,-111.111111111111,4,2,5,35,0,0
35037,-111.111111111111,4,2,5,50,0,0
36015,-111.111111111111,4,2,1,50,0,0
37645,-111.111111111111,4,2,5,55,0,0
38950,-111.111111111111,4,2,5,55,0,0
39276,-111.111111111111,4,2,1,55,0,0
40254,-111.111111111111,4,2,5,60,0,0
41232,-111.111111111111,4,2,1,60,0,0
41558,-111.111111111111,4,2,5,60,0,0
44167,-111.111111111111,4,2,2,5,0,0
44819,-111.111111111111,4,2,1,45,0,0
45145,-80,4,2,5,35,0,0
45308,-80,4,2,5,45,0,0
45471,-80,4,2,5,70,0,0
45634,-80,4,2,1,70,0,0
48080,-80,4,2,5,70,0,0
48243,-80,4,2,1,70,0,0
55580,-80,4,2,1,60,0,0
55906,-80,4,2,5,70,0,0
56069,-80,4,2,1,70,0,0
58515,-80,4,2,5,70,0,0
58678,-80,4,2,1,70,0,0
63732,-80,4,2,5,70,0,0
63895,-80,4,2,1,70,0,0
66341,-80,4,2,5,65,0,0
66504,-80,4,2,1,65,0,0
68950,-80,4,2,5,65,0,0
69113,-80,4,2,1,65,0,0
71558,-80,4,2,5,65,0,0
71721,-80,4,2,1,65,0,0
74167,-80,4,2,5,65,0,0
74330,-80,4,2,1,65,0,0
76776,-80,4,2,5,65,0,0
76939,-80,4,2,1,65,0,0
79384,-80,4,2,5,65,0,0
79547,-80,4,2,1,65,0,0
84602,-80,4,2,5,65,0,0
84765,-80,4,2,2,5,0,0

[Colours]
Combo1 : 106,159,223
Combo2 : 172,172,172
Combo3 : 162,113,206
Combo4 : 135,198,94
Combo5 : 245,148,150

[HitObjects]
129,69,10580,6,0,L|60:56,2,65.9999979858399,2|2|2,0:0|0:0|0:0,0:0:0:0:
184,125,11558,6,0,P|219:130|248:115,1,65.9999979858399,2|2,1:2|0:0,0:0:0:0:
300,59,12210,1,6,0:3:0:0:
369,97,12537,1,2,0:0:0:0:
369,97,12700,2,0,L|354:195,1,98.9999969787599,2|2,0:0|0:0,0:0:0:0:
373,271,13515,1,2,0:0:0:0:
324,333,13841,1,2,0:0:0:0:
246,318,14167,6,0,P|213:313|177:332,1,65.9999979858399,2|4,0:0|0:3,0:0:0:0:
161,340,14656,1,2,0:0:0:0:
161,340,14819,2,0,L|170:267,1,65.9999979858399,8|0,0:1|0:0,0:0:0:0:
220,214,15471,2,0,L|209:148,2,65.9999979858399,8|8|0,0:1|0:1|0:0,0:0:0:0:
291,247,16450,1,2,0:0:0:0:
329,257,16613,1,2,0:0:0:0:
365,242,16776,6,0,P|411:225|465:236,1,98.9999969787599,2|0,1:2|0:0,0:0:0:0:
495,249,17428,1,4,0:3:0:0:
504,170,17754,1,2,0:0:0:0:
504,170,17917,2,0,L|478:72,1,98.9999969787599,2|2,0:0|0:0,0:0:0:0:
400,60,18732,1,2,0:0:0:0:
343,114,19058,1,2,0:0:0:0:
343,114,19221,6,0,P|296:117|249:98,1,98.9999969787599,2|4,0:0|0:3,0:0:0:0:
183,53,20037,2,0,L|105:68,2,65.9999979858399,8|0|0,0:1|0:0|0:0,0:0:0:0:
249,98,21015,1,2,0:0:0:0:
210,167,21341,1,2,0:3:0:0:
252,234,21667,1,2,0:0:0:0:
206,298,21993,6,0,P|177:314|146:312,1,65.9999979858399,2|2,1:2|0:0,0:0:0:0:
106,303,22482,1,2,0:0:0:0:
72,323,22645,2,0,L|58:257,1,65.9999979858399,6|0,0:3|0:0,0:0:0:0:
28,232,23134,2,0,L|38:160,1,65.9999979858399,2|0,0:0|0:0,0:0:0:0:
56,131,23623,1,2,0:0:0:0:
124,171,23950,1,2,0:0:0:0:
186,121,24276,1,2,0:0:0:0:
171,43,24602,6,0,L|99:24,1,65.9999979858399,2|4,0:0|0:3,0:0:0:0:
67,26,25091,1,2,0:0:0:0:
34,47,25254,2,0,P|18:82|23:114,1,65.9999979858399,8|0,0:1|0:0,0:0:0:0:
79,161,25906,2,0,L|60:236,2,65.9999979858399,8|8|0,0:1|0:1|0:0,0:0:0:0:
157,154,26884,2,0,L|190:146,1,32.99999899292,2|0,0:0|0:0,0:0:0:0:
226,159,27210,6,0,P|278:166|319:140,1,98.9999969787599,2|0,1:2|0:0,0:0:0:0:
338,110,27863,1,6,0:3:0:0:
402,63,28189,2,0,L|432:97,1,32.99999899292,2|0,0:0|0:0,0:0:0:0:
461,100,28515,2,0,L|446:207,1,98.9999969787599,0|0,0:0|0:0,0:0:0:0:
461,234,29167,1,2,0:0:0:0:
424,304,29493,1,0,0:0:0:0:
345,295,29819,6,0,L|270:281,1,65.9999979858399,0|4,0:0|0:3,0:0:0:0:
212,241,30471,1,8,0:1:0:0:
157,298,30797,1,0,0:0:0:0:
212,241,31123,6,0,P|225:221|229:194,2,43.9999986572266,0|0|0,3:0|3:0|3:0,0:0:0:0:
149,196,31776,6,0,P|134:167|133:136,2,55.0000020980836,0|0|0,3:0|3:0|3:0,0:0:0:0:
196,92,32428,6,0,L|301:115,1,98.9999969787599,2|2,1:2|1:2,0:0:0:0:
370,130,32917,1,0,0:0:0:0:
439,92,33080,2,0,P|450:67|457:35,2,49.4999984893799,10|0|2,0:3|0:0|0:0,0:0:0:0:
370,130,33569,1,0,1:2:0:0:
402,202,33732,2,0,P|389:233|387:262,1,49.4999984893799,2|8,0:0|0:1,0:0:0:0:
426,317,34058,2,0,L|486:306,1,49.4999984893799,2|4,1:2|0:3,0:0:0:0:
354,351,34384,2,0,B|311:344|311:344|300:347|300:347|252:340,1,98.9999969787599,10|2,0:3|0:0,0:0:0:0:
174,360,34873,1,8,0:1:0:0:
174,360,34955,1,8,0:1:0:0:
174,360,35037,6,0,P|207:350|235:292,1,98.9999969787599,2|2,1:2|1:2,0:0:0:0:
210,220,35526,1,0,0:0:0:0:
133,238,35689,2,0,L|71:220,1,49.4999984893799,10|0,0:3|0:0,0:0:0:0:
210,220,36015,6,0,P|223:192|224:166,1,49.4999984893799,2|0,0:0|1:2,0:0:0:0:
288,127,36341,2,0,P|305:152|327:166,1,49.4999984893799,2|8,0:0|0:1,0:0:0:0:
329,241,36667,2,0,P|298:243|275:255,1,49.4999984893799,2|4,1:2|0:3,0:0:0:0:
367,311,36993,2,0,P|398:280|406:216,1,98.9999969787599,10|2,0:3|0:0,0:0:0:0:
484,207,37482,1,2,0:0:0:0:
420,84,37645,6,0,B|365:74|365:74|323:97,1,98.9999969787599,2|2,1:2|1:2,0:0:0:0:
263,142,38134,1,0,0:0:0:0:
210,82,38297,2,0,P|200:57|198:25,2,49.4999984893799,10|0|2,0:3|0:0|0:0,0:0:0:0:
248,151,38787,1,0,1:2:0:0:
197,211,38950,2,0,L|142:200,1,49.4999984893799,2|8,0:0|0:1,0:0:0:0:
93,258,39276,6,0,L|110:311,1,49.4999984893799,2|4,1:2|0:3,0:0:0:0:
186,325,39602,2,0,L|223:282,1,49.4999984893799,10|0,0:3|0:0,0:0:0:0:
197,211,39928,2,0,L|142:200,1,49.4999984893799,2|0,0:0|0:0,0:0:0:0:
73,174,40254,6,0,B|65:127|65:127|58:119|58:119|52:71,2,98.9999969787599,2|2|10,1:2|1:2|0:3,0:0:0:0:
145,141,41069,1,0,0:0:0:0:
209,186,41232,2,0,P|241:182|267:160,1,49.4999984893799,2|2,0:0|1:2,0:0:0:0:
316,123,41558,2,0,L|300:65,1,49.4999984893799,2|8,0:0|0:1,0:0:0:0:
378,52,41884,2,0,L|394:110,1,49.4999984893799,2|4,1:2|0:3,0:0:0:0:
422,172,42210,2,0,L|403:230,1,49.4999984893799,10|0,0:3|0:0,0:0:0:0:
480,248,42537,2,0,L|499:190,1,49.4999984893799,2|0,0:0|0:0,0:0:0:0:
256,192,42863,12,0,44167,0:0:0:0:
383,68,45145,6,0,L|393:35,3,34.375,2|2|2|2,0:0|0:0|0:0|0:0,0:0:0:0:
394,86,45471,6,0,P|417:127|387:223,1,137.5,6|6,1:2|0:3,0:0:0:0:
329,279,45960,1,2,0:0:0:0:
243,234,46123,2,0,L|91:217,1,137.5,10|6,0:0|0:3,0:0:0:0:
63,131,46613,1,2,1:2:0:0:
126,58,46776,6,0,P|163:55|221:106,1,103.125,6|0,0:3|0:0,0:0:0:0:
214,91,47102,1,6,1:3:0:0:
292,34,47265,1,2,0:0:0:0:
373,85,47428,2,0,P|370:127|356:167,1,68.75,10|0,0:0|0:0,0:0:0:0:
457,220,47754,2,0,P|460:178|474:138,1,68.75,6|0,0:3|0:0,0:0:0:0:
363,263,48080,5,6,1:3:0:0:
363,263,48406,1,6,0:3:0:0:
424,336,48569,1,2,0:0:0:0:
329,351,48732,2,0,B|278:344|278:344|271:350|271:350|190:340,1,137.5,10|6,0:0|0:3,0:0:0:0:
102,368,49221,1,2,1:2:0:0:
194,340,49384,6,0,B|213:303|213:303|223:257|179:216,1,137.5,6|6,0:3|1:3,0:0:0:0:
105,157,49873,1,2,0:0:0:0:
32,221,50037,2,0,P|30:259|19:294,1,68.75,10|0,0:0|0:0,0:0:0:0:
105,157,50363,2,0,P|107:119|118:84,1,68.75,6|0,0:3|0:0,0:0:0:0:
287,202,50689,6,0,B|252:213|215:198|215:198|211:234|166:257,1,137.5,6|6,1:3|0:3,0:0:0:0:
135,334,51178,2,0,P|175:348|216:337,1,68.75,2|8,0:0|0:0,0:0:0:0:
283,296,51504,1,2,0:0:0:0:
356,357,51667,2,0,P|390:336|409:302,1,68.75,6|2,0:3|1:2,0:0:0:0:
424,218,51993,6,0,L|443:77,1,137.5,6|6,0:3|1:3,0:0:0:0:
367,21,52482,1,2,0:0:0:0:
442,81,52645,2,0,P|481:74|509:37,1,68.75,8|0,0:0|0:0,0:0:0:0:
348,119,52971,2,0,L|278:103,1,68.75,6|0,0:3|0:0,0:0:0:0:
207,165,53297,6,0,P|190:121|224:34,1,137.5,6|6,1:3|0:3,0:0:0:0:
280,103,53787,1,0,0:0:0:0:
207,165,53950,2,0,L|97:153,1,103.125,10|0,0:0|0:0,0:0:0:0:
80,153,54276,2,0,P|59:196|66:230,1,68.75,6|0,0:3|1:2,0:0:0:0:
128,284,54602,2,0,L|212:274,2,68.75,4|8|4,0:3|0:0|1:3,0:0:0:0:
64,356,55091,1,2,0:0:0:0:
60,215,55254,5,10,0:0:0:0:
128,284,55417,1,10,0:0:0:0:
210,185,55580,2,0,L|224:106,1,68.75,10|0,0:3|0:0,0:0:0:0:
336,30,55906,6,0,P|369:31|430:108,1,137.5,6|6,1:2|0:3,0:0:0:0:
376,186,56395,1,2,0:0:0:0:
280,171,56558,2,0,L|258:319,1,137.5,10|6,0:0|0:3,0:0:0:0:
184,366,57047,1,2,1:2:0:0:
100,318,57210,6,0,P|58:296|41:238,1,103.125,6|0,0:3|0:0,0:0:0:0:
40,245,57537,1,6,1:3:0:0:
108,178,57700,1,2,0:0:0:0:
189,228,57863,2,0,P|228:230|270:216,1,68.75,10|0,0:0|0:0,0:0:0:0:
320,326,58189,2,0,P|281:324|239:338,1,68.75,6|0,0:3|0:0,0:0:0:0:
369,232,58515,5,6,1:3:0:0:
369,232,58841,1,6,0:3:0:0:
449,284,59004,1,2,0:0:0:0:
504,205,59167,2,0,B|517:165|517:165|484:69,1,137.5,10|6,0:0|0:3,0:0:0:0:
415,9,59656,1,2,1:2:0:0:
485,74,59819,6,0,B|423:103|423:103|336:77,1,137.5,6|6,0:3|1:3,0:0:0:0:
283,145,60308,1,2,0:0:0:0:
206,86,60471,2,0,L|192:6,1,68.75,10|0,0:0|0:0,0:0:0:0:
94,139,60797,2,0,L|108:59,1,68.75,6|0,0:3|0:0,0:0:0:0:
187,185,61123,6,0,B|204:225|204:225|175:324,1,137.5,6|6,1:2|0:3,0:0:0:0:
260,364,61613,2,0,L|334:346,1,68.75,2|8,0:0|0:0,0:0:0:0:
177,315,61939,1,2,0:0:0:0:
87,350,62102,2,0,P|50:339|30:295,1,68.75,6|2,0:3|0:0,0:0:0:0:
34,221,62428,6,0,B|46:149|86:178|94:92,1,137.5,6|6,1:2|1:3,0:0:0:0:
121,8,62917,2,0,P|157:18|179:53,1,68.75,2|8,0:0|0:0,0:0:0:0:
259,89,63243,1,2,0:0:0:0:
180,144,63406,1,6,0:3:0:0:
93,100,63569,1,2,0:0:0:0:
259,89,63732,6,0,L|369:109,1,103.125,6|0,1:3|0:0,0:0:0:0:
377,121,64058,2,0,B|400:89|400:89|397:49,1,68.75,8|0,0:0|0:0,0:0:0:0:
283,180,64384,2,0,B|260:212|260:212|263:252,1,68.75,12|0,0:0|0:0,0:0:0:0:
404,305,64710,2,0,L|474:292,1,68.75,6|10,1:3|0:0,0:0:0:0:
325,367,65037,5,4,0:3:0:0:
325,367,65200,1,8,0:0:0:0:
230,347,65363,2,0,L|158:361,1,68.75,6|0,1:3|0:0,0:0:0:0:
66,364,65689,1,10,0:0:0:0:
113,280,65852,1,8,0:3:0:0:
53,204,66015,2,0,L|39:128,1,68.75,10|2,1:3|1:2,0:0:0:0:
198,141,66341,6,0,P|215:108|219:64,2,68.75,6|0|0,1:2|0:0|0:0,0:0:0:0:
203,237,66830,1,0,0:0:0:0:
281,293,66993,2,0,L|428:318,1,137.5,10|2,0:0|0:0,0:0:0:0:
416,316,67482,1,0,1:2:0:0:
500,268,67645,2,0,P|516:235|514:199,1,68.75,2|0,0:0|0:0,0:0:0:0:
439,143,67971,2,0,P|423:176|425:212,1,68.75,2|0,1:2|0:0,0:0:0:0:
327,201,68297,2,0,P|265:186|226:124,1,137.5,10|2,0:0|0:0,0:0:0:0:
256,34,68787,1,0,0:0:0:0:
135,123,68950,6,0,B|52:138|79:95|-17:98,2,137.5,2|0|8,1:2|0:0|0:0,0:0:0:0:
326,101,69928,1,2,0:0:0:0:
404,45,70091,2,0,P|365:91|373:178,1,137.5,2|0,1:2|0:0,0:0:0:0:
443,222,70580,2,0,L|523:210,1,68.75,2|0,1:2|0:0,0:0:0:0:
387,289,70906,2,0,B|352:299|352:299|305:278,1,68.75,10|0,0:0|0:0,0:0:0:0:
255,216,71232,1,2,0:0:0:0:
205,341,71395,1,2,0:0:0:0:
111,320,71558,6,0,P|103:360|84:391,2,68.75,6|0|0,1:2|0:0|0:0,0:0:0:0:
60,237,72047,1,0,0:0:0:0:
132,172,72210,2,0,P|148:113|184:45,1,137.5,10|2,0:0|0:0,0:0:0:0:
183,45,72700,1,0,1:2:0:0:
278,37,72863,2,0,L|351:70,1,68.75,2|0,0:0|0:0,0:0:0:0:
310,156,73189,2,0,L|237:123,1,68.75,2|0,1:2|0:0,0:0:0:0:
246,235,73515,2,0,P|305:207|383:246,1,137.5,10|2,0:0|0:0,0:0:0:0:
331,318,74004,1,0,1:0:0:0:
451,293,74167,6,0,L|475:154,1,137.5,2|0,1:2|1:2,0:0:0:0:
474,157,74656,1,0,0:0:0:0:
452,63,74819,2,0,P|414:74|385:107,1,68.75,8|0,0:0|0:0,0:0:0:0:
378,188,75145,1,2,0:0:0:0:
287,154,75308,6,0,L|148:135,1,137.5,2|8,1:2|0:0,0:0:0:0:
65,179,75797,2,0,L|52:103,1,68.75,2|0,1:2|0:0,0:0:0:0:
139,67,76123,2,0,L|152:143,1,68.75,10|8,0:0|0:0,0:0:0:0:
154,231,76450,1,2,0:0:0:0:
289,139,76613,1,10,0:0:0:0:
140,67,76776,6,0,P|104:60|75:35,2,68.75,6|0|0,1:2|0:0|0:0,0:0:0:0:
194,146,77265,1,0,0:0:0:0:
154,231,77428,2,0,L|136:376,1,137.5,10|2,0:0|0:0,0:0:0:0:
137,367,77917,1,0,1:2:0:0:
228,336,78080,6,0,B|265:322|265:322|293:336,1,68.75,2|0,0:0|0:0,0:0:0:0:
376,378,78406,2,0,L|388:309,1,68.75,2|0,1:2|0:0,0:0:0:0:
482,292,78732,2,0,B|466:237|466:237|470:220|470:220|455:154,1,137.5,10|2,0:0|0:0,0:0:0:0:
493,70,79221,1,4,0:3:0:0:
365,164,79384,6,0,P|316:164|269:92,2,137.5,2|0|8,1:2|0:0|0:0,0:0:0:0:
354,260,80200,1,0,0:0:0:0:
280,322,80363,2,0,L|166:301,1,103.125,2|0,0:0|0:0,0:0:0:0:
155,312,80689,6,0,P|141:278|116:260,1,68.75,2|0,0:0|0:0,0:0:0:0:
41,321,81015,2,0,P|55:355|80:373,1,68.75,2|0,1:2|0:0,0:0:0:0:
28,231,81341,2,0,L|11:86,1,137.5,10|2,0:0|0:0,0:0:0:0:
57,9,81830,1,8,0:3:0:0:
189,85,81993,6,0,L|268:94,2,68.75,6|0|0,1:2|0:0|0:0,0:0:0:0:
117,149,82482,1,0,0:0:0:0:
168,230,82645,2,0,L|148:301,1,68.75,8|0,0:0|0:0,0:0:0:0:
223,357,82971,2,0,P|260:362|291:341,1,68.75,2|0,0:0|1:2,0:0:0:0:
349,274,83297,6,0,P|388:283|432:368,1,137.5,0|0,0:0|1:2,0:0:0:0:
502,295,83787,1,0,0:0:0:0:
447,215,83950,2,0,L|467:143,1,68.75,10|8,0:0|0:3,0:0:0:0:
423,62,84276,1,10,1:3:0:0:
348,122,84439,1,0,1:2:0:0:
269,22,84602,5,6,1:2:0:0:
256,192,84765,12,0,88515,0:0:0:0:
