osu file format v14

[General]
AudioFilename: audio.mp3
AudioLeadIn: 0
PreviewTime: 44581
Countdown: 0
SampleSet: Soft
StackLeniency: 0.5
Mode: 0
LetterboxInBreaks: 0
WidescreenStoryboard: 1

[Editor]
DistanceSpacing: 0.4
BeatDivisor: 8
GridSize: 4
TimelineZoom: 1.1

[Metadata]
Title:Believe in you (TV Size)
TitleUnicode:Believe in you (TV Size)
Artist:nonoc
ArtistUnicode:nonoc
Creator:fieryrage
Version:Delis' Insane
Source:Re:ゼロから始める異世界生活
Tags:re:zero kara hajimeru isekai seikatsu rezero starting life in another world different from zero season two anime ending ed japanese pop rock flask wanpachi cycopton hooni sylas thekoala delis shirohamymommy blastthekidd
BeatmapID:2848244
BeatmapSetID:1378030

[Difficulty]
HPDrainRate:7
CircleSize:4
OverallDifficulty:8
ApproachRate:9
SliderMultiplier:2.7
SliderTickRate:1

[Events]
//Background and Video events
0,0,"why i gotta use this damn background.jpg",0,0
Video,-350,"the emilia video.mp4"
//Break Periods
//Storyboard Layer 0 (Background)
//Storyboard Layer 1 (Fail)
//Storyboard Layer 2 (Pass)
//Storyboard Layer 3 (Foreground)
//Storyboard Layer 4 (Overlay)
//Storyboard Sound Samples

[TimingPoints]
472,652.173913043478,4,2,5,35,1,0
472,-100,4,2,5,35,0,0
1124,652.173913043478,4,2,5,40,1,0
1124,-100,4,2,5,40,0,0
10580,-100,4,2,1,40,0,0
11558,-100,4,2,1,45,0,0
12210,-166.666666666667,4,2,1,45,0,0
15471,-166.666666666667,4,2,1,35,0,0
15797,-166.666666666667,4,2,1,25,0,0
16123,-166.666666666667,4,2,1,45,0,0
21993,-125,4,2,1,45,0,0
25906,-125,4,2,1,35,0,0
26232,-125,4,2,1,25,0,0
26558,-125,4,2,1,45,0,0
31123,-125,4,2,0,30,0,0
31776,-166.666666666667,4,2,0,30,0,0
32428,-100,4,2,5,50,0,0
36015,-100,4,2,1,50,0,0
37645,-100,4,2,5,55,0,0
38950,-133.333333333333,4,2,5,55,0,0
39276,-100,4,2,1,55,0,0
40254,-100,4,2,5,60,0,0
41232,-100,4,2,1,60,0,0
41558,-100,4,2,5,60,0,0
44167,-100,4,2,2,5,0,0
44819,-100,4,2,1,45,0,0
45145,-100,4,2,1,50,0,0
45471,-76.9230769230769,4,2,5,70,0,0
45634,-76.9230769230769,4,2,1,70,0,0
48080,-76.9230769230769,4,2,5,70,0,0
48243,-76.9230769230769,4,2,1,70,0,0
55580,-76.9230769230769,4,2,1,60,0,0
55906,-76.9230769230769,4,2,5,70,0,0
56069,-76.9230769230769,4,2,1,70,0,0
58515,-76.9230769230769,4,2,5,70,0,0
58678,-76.9230769230769,4,2,1,70,0,0
63732,-76.9230769230769,4,2,5,70,0,0
63895,-76.9230769230769,4,2,1,70,0,0
66341,-76.9230769230769,4,2,5,65,0,0
66504,-76.9230769230769,4,2,1,65,0,0
68950,-76.9230769230769,4,2,5,65,0,0
69113,-76.9230769230769,4,2,1,65,0,0
71558,-76.9230769230769,4,2,5,65,0,0
71721,-76.9230769230769,4,2,1,65,0,0
74167,-76.9230769230769,4,2,5,65,0,0
74330,-76.9230769230769,4,2,1,65,0,0
76776,-76.9230769230769,4,2,5,65,0,0
76939,-76.9230769230769,4,2,1,65,0,0
79384,-76.9230769230769,4,2,5,65,0,0
79547,-76.9230769230769,4,2,1,65,0,0
84602,-76.9230769230769,4,2,5,65,0,0
84765,-76.9230769230769,4,2,2,5,0,0

[Colours]
Combo1 : 106,159,223
Combo2 : 172,172,172
Combo3 : 162,113,206
Combo4 : 135,198,94
Combo5 : 245,148,150

[HitObjects]
128,272,472,5,2,0:0:0:0:
128,272,798,1,2,0:0:0:0:
88,184,961,1,2,0:0:0:0:
168,124,1124,1,0,3:0:0:0:
168,124,2102,5,2,0:0:0:0:
408,216,2428,1,0,3:0:0:0:
176,216,2754,1,2,0:0:0:0:
400,92,3080,1,2,0:0:0:0:
400,92,3406,1,2,0:0:0:0:
308,112,3569,1,2,0:0:0:0:
236,56,3732,1,0,3:0:0:0:
236,56,4710,5,2,0:0:0:0:
236,56,6015,5,2,0:0:0:0:
164,112,6178,1,2,0:0:0:0:
204,196,6341,1,2,3:2:0:0:
204,196,7645,1,2,3:2:0:0:
204,196,8950,1,2,0:0:0:0:
412,284,10580,5,2,0:0:0:0:
412,284,10906,1,2,0:0:0:0:
412,284,11232,1,2,0:0:0:0:
412,284,11558,1,2,1:2:0:0:
412,284,12210,6,0,P|364:292|332:304,1,80.9999975280763,6|2,0:3|0:0,0:0:0:0:
260,284,12700,1,2,0:0:0:0:
184,304,12863,2,0,P|144:320|96:332,1,80.9999975280763,0|2,0:0|0:0,0:0:0:0:
220,216,13515,2,0,P|184:212|132:196,1,80.9999975280763,2|2,0:0|0:0,0:0:0:0:
72,232,14004,1,0,0:0:0:0:
156,120,14167,6,0,P|152:72|144:32,1,80.9999975280763,2|4,0:0|0:3,0:0:0:0:
80,88,14656,1,2,0:0:0:0:
224,68,14819,2,0,P|272:64|316:56,1,80.9999975280763,8|0,0:1|0:0,0:0:0:0:
304,58,15471,5,8,0:1:0:0:
384,116,15797,1,8,0:1:0:0:
376,212,16123,1,0,0:0:0:0:
296,280,16450,1,2,0:0:0:0:
296,280,16613,1,2,0:0:0:0:
296,280,16776,2,0,P|208:288|200:288,1,80.9999975280763,2|0,1:2|0:0,0:0:0:0:
136,280,17265,2,0,P|144:312|136:332,1,40.4999987640381,0|4,0:0|0:3,0:0:0:0:
200,156,17754,6,0,P|168:140|156:128,1,40.4999987640381,2|2,0:0|0:0,0:0:0:0:
200,156,18080,2,0,P|248:128|288:120,1,80.9999975280763,0|2,0:0|0:0,0:0:0:0:
336,72,18569,1,0,0:0:0:0:
364,148,18732,2,0,L|336:72,1,80.9999975280763,2|2,0:0|0:0,0:0:0:0:
240,240,19221,5,2,0:0:0:0:
304,192,19384,2,0,P|316:232|312:272,1,80.9999975280763,0|4,0:0|0:3,0:0:0:0:
176,288,20037,2,0,P|164:248|168:208,1,80.9999975280763,8|0,0:1|0:0,0:0:0:0:
304,96,20689,5,0,0:0:0:0:
216,116,21015,1,2,0:0:0:0:
128,136,21341,1,2,0:3:0:0:
40,156,21667,1,2,0:0:0:0:
256,328,21993,5,2,1:2:0:0:
256,328,22156,1,0,0:0:0:0:
344,296,22319,1,2,0:0:0:0:
344,296,22482,1,2,0:0:0:0:
260,240,22645,2,0,P|244:192|272:132,1,108,6|0,0:3|0:0,0:0:0:0:
168,236,23134,5,2,0:0:0:0:
263,140,23297,2,0,L|191:164,1,54,0|0,0:0|0:0,0:0:0:0:
32,128,23623,2,0,P|80:156|144:148,1,108,2|2,0:0|0:0,0:0:0:0:
312,76,24276,1,2,0:0:0:0:
204,340,24602,6,0,L|144:312,1,54,2|0,0:0|0:0,0:0:0:0:
304,296,24928,2,0,L|364:324,1,54,4|2,0:3|0:0,0:0:0:0:
200,148,25254,2,0,L|232:264,1,108,8|0,0:1|0:0,0:0:0:0:
272,372,25743,1,0,0:0:0:0:
349,276,25906,6,0,P|317:280|301:300,1,54,8|0,0:1|0:0,0:0:0:0:
368,268,26232,2,0,P|352:296|352:328,1,54,8|0,0:1|0:0,0:0:0:0:
384,252,26558,2,0,P|400:292|424:304,1,54,0|0,0:0|0:0,0:0:0:0:
392,152,26884,2,0,L|372:52,1,81,2|0,0:0|0:0,0:0:0:0:
360,96,27210,6,0,P|280:120|228:48,1,162,2|0,1:2|0:0,0:0:0:0:
208,104,27863,2,0,P|168:136|120:136,1,81,6|0,0:3|0:0,0:0:0:0:
139,139,28189,2,0,L|191:187,1,54,2|0,0:0|0:0,0:0:0:0:
56,112,28515,6,0,P|32:188|44:272,1,162,0|0,0:0|0:0,0:0:0:0:
188,328,29167,2,0,P|196:296|184:204,1,108,2|0,0:0|0:0,0:0:0:0:
120,264,29656,1,2,0:0:0:0:
272,240,29819,1,0,0:0:0:0:
272,240,30145,2,0,L|336:256,1,54,4|0,0:3|0:0,0:0:0:0:
148,148,30471,1,8,0:1:0:0:
148,148,30797,2,0,L|96:180,1,54,0|0,0:0|0:0,0:0:0:0:
260,76,31123,6,0,L|344:60,2,72,0|0|0,3:0|3:0|3:0,0:0:0:0:
272,164,31776,2,0,L|252:232,2,53.9999983520508,0|0|0,3:0|3:0|3:0,0:0:0:0:
328,336,32428,5,2,1:2:0:0:
328,336,32754,1,2,1:2:0:0:
328,336,33080,1,10,0:3:0:0:
328,336,33406,1,2,0:0:0:0:
224,352,33569,1,0,1:2:0:0:
132,288,33732,5,2,0:0:0:0:
104,380,33895,1,8,0:1:0:0:
200,340,34058,1,2,1:2:0:0:
144,264,34221,1,4,0:3:0:0:
56,280,34384,2,0,P|48:240|52:196,1,67.5,10|0,0:3|0:0,0:0:0:0:
168,60,34710,2,0,P|176:100|172:144,1,67.5,2|8,0:0|0:1,0:0:0:0:
72,104,35037,5,2,1:2:0:0:
72,104,35363,1,2,1:2:0:0:
72,104,35689,1,10,0:3:0:0:
72,104,36015,1,2,0:0:0:0:
164,176,36178,1,0,1:2:0:0:
276,120,36341,2,0,P|320:104|348:104,1,67.5,2|8,0:0|0:1,0:0:0:0:
448,164,36667,2,0,P|404:180|376:180,1,67.5,2|4,1:2|0:3,0:0:0:0:
332,248,36993,1,10,0:3:0:0:
332,248,37319,1,2,0:0:0:0:
296,100,37482,1,2,0:0:0:0:
224,308,37645,6,0,P|248:272|244:196,1,101.25,2|0,1:2|0:0,0:0:0:0:
176,200,37971,2,0,P|152:236|156:312,1,101.25,2|0,1:2|0:0,0:0:0:0:
224,308,38297,6,0,P|212:260|160:216,1,101.25,10|0,0:3|0:0,0:0:0:0:
112,264,38623,2,0,P|124:312|176:356,1,101.25,2|0,0:0|0:0,0:0:0:0:
224,308,38950,6,0,L|248:224,1,75.9375028967858,2|0,0:0|0:0,0:0:0:0:
244,328,39276,6,0,L|276:208,1,101.25,2|0,1:2|0:0,0:0:0:0:
316,40,39602,5,10,0:3:0:0:
316,40,39928,1,2,0:0:0:0:
296,128,40091,1,0,0:0:0:0:
408,60,40254,6,0,P|448:68|484:72,1,67.5,2|0,1:2|0:0,0:0:0:0:
392,144,40580,2,0,P|432:152|468:156,1,67.5,2|0,1:2|0:0,0:0:0:0:
260,212,40906,2,0,P|208:220|168:224,1,67.5,10|0,0:3|0:0,0:0:0:0:
272,300,41232,2,0,P|220:308|180:312,1,67.5,2|2,0:0|1:2,0:0:0:0:
120,308,41558,5,2,0:0:0:0:
156,232,41721,1,8,0:1:0:0:
104,168,41884,1,2,1:2:0:0:
212,72,42210,1,10,0:3:0:0:
364,120,42537,1,2,0:0:0:0:
332,204,42700,1,0,0:0:0:0:
256,192,42863,12,0,44167,0:0:0:0:
152,324,45471,5,6,1:2:0:0:
152,324,45797,2,0,L|136:216,1,87.749995983124,6|2,0:3|0:0,0:0:0:0:
200,44,46123,2,0,L|156:128,1,87.749995983124,10|0,0:0|0:0,0:0:0:0:
88,176,46450,5,6,0:3:0:0:
228,236,46613,1,2,1:2:0:0:
228,236,46694,1,0,1:0:0:0:
228,236,46776,2,0,P|248:200|236:156,1,87.749995983124,6|0,0:3|1:2,0:0:0:0:
236,156,47102,5,6,1:3:0:0:
304,276,47265,1,2,0:0:0:0:
376,156,47428,2,0,P|416:136|476:128,1,87.749995983124,10|0,0:0|0:0,0:0:0:0:
312,196,47754,1,6,0:3:0:0:
388,244,47917,5,0,0:0:0:0:
348,128,48080,1,6,1:3:0:0:
268,220,48243,1,0,0:0:0:0:
420,168,48406,6,0,P|464:180|504:212,1,87.749995983124,6|2,0:3|0:0,0:0:0:0:
348,128,48732,2,0,P|260:124|204:52,1,175.499991966248,10|6,0:0|0:3,0:0:0:0:
292,40,49221,1,2,1:2:0:0:
216,160,49384,6,0,P|168:184|112:188,1,87.749995983124,6|0,0:3|1:2,0:0:0:0:
48,136,49710,1,6,1:3:0:0:
128,88,49873,1,2,0:0:0:0:
100,260,50037,2,0,L|80:360,1,87.749995983124,10|0,0:0|0:0,0:0:0:0:
172,316,50363,5,6,0:3:0:0:
12,284,50526,1,0,0:0:0:0:
172,316,50689,2,0,P|264:300|344:252,1,175.499991966248,6|6,1:3|0:3,0:0:0:0:
380,148,51178,1,2,0:0:0:0:
264,200,51341,1,8,0:0:0:0:
424,244,51504,5,2,0:0:0:0:
416,112,51667,1,6,0:3:0:0:
336,228,51830,1,2,1:2:0:0:
324,100,51993,2,0,P|276:96|220:92,1,87.749995983124,6|0,0:3|1:2,0:0:0:0:
116,84,52319,1,6,1:3:0:0:
216,248,52482,5,2,1:2:0:0:
216,248,52564,1,0,1:0:0:0:
216,248,52645,1,8,0:0:0:0:
96,160,52808,1,0,0:0:0:0:
200,72,52971,2,0,P|272:64|348:48,1,131.624993974686,6|0,0:3|0:0,0:0:0:0:
372,80,53297,6,0,P|288:112|248:200,1,175.499991966248,6|6,1:3|0:3,0:0:0:0:
292,260,53787,1,0,0:0:0:0:
180,152,53950,2,0,P|128:116|72:96,1,87.749995983124,10|0,0:0|0:0,0:0:0:0:
196,248,54276,1,6,0:3:0:0:
340,180,54439,1,0,1:2:0:0:
180,152,54602,5,4,0:3:0:0:
256,32,54765,2,0,P|268:76|268:124,1,87.749995983124,8|4,0:0|1:3,0:0:0:0:
144,44,55091,1,2,0:0:0:0:
252,220,55254,5,10,0:0:0:0:
348,128,55417,1,10,0:0:0:0:
180,152,55580,1,10,0:3:0:0:
320,292,55743,1,0,0:0:0:0:
128,352,55906,1,6,1:2:0:0:
128,352,56232,6,0,P|124:304|124:256,1,87.749995983124,6|2,0:3|0:0,0:0:0:0:
236,140,56558,2,0,P|240:216|244:320,1,175.499991966248,10|6,0:0|0:3,0:0:0:0:
320,228,57047,1,2,1:2:0:0:
152,176,57210,5,6,0:3:0:0:
152,176,57373,2,0,P|96:180|48:188,1,87.749995983124,0|6,1:2|1:3,0:0:0:0:
192,92,57700,1,2,0:0:0:0:
208,252,57863,2,0,P|252:248|300:240,1,87.749995983124,10|0,0:0|0:0,0:0:0:0:
368,136,58189,1,6,0:3:0:0:
276,52,58352,1,0,0:0:0:0:
292,168,58515,1,6,1:3:0:0:
408,152,58678,1,0,0:0:0:0:
296,108,58841,5,6,0:3:0:0:
424,80,59004,1,2,0:0:0:0:
396,232,59167,2,0,P|348:240|292:248,1,87.749995983124,10|0,0:0|0:0,0:0:0:0:
196,264,59493,5,6,0:3:0:0:
316,320,59656,1,2,1:2:0:0:
292,136,59819,2,0,P|240:184|128:160,1,175.499991966248,6|6,0:3|1:3,0:0:0:0:
220,92,60308,1,2,0:0:0:0:
380,176,60471,2,0,P|436:160|468:148,1,87.749995983124,10|0,0:0|0:0,0:0:0:0:
396,88,60797,5,6,0:3:0:0:
340,244,60960,1,0,0:0:0:0:
276,80,61123,1,6,1:2:0:0:
276,80,61450,1,6,0:3:0:0:
212,168,61613,2,0,P|280:156|312:148,1,87.749995983124,2|8,0:0|0:0,0:0:0:0:
184,88,61939,5,2,0:0:0:0:
136,228,62102,1,6,0:3:0:0:
64,96,62265,1,2,0:0:0:0:
212,204,62428,5,6,1:2:0:0:
212,204,62754,1,6,1:3:0:0:
212,204,63080,1,8,0:0:0:0:
364,248,63243,1,2,1:2:0:0:
364,248,63325,1,0,1:0:0:0:
364,248,63406,1,6,0:3:0:0:
192,284,63569,1,2,0:0:0:0:
336,328,63732,2,0,P|384:328|424:296,1,87.749995983124,6|0,1:3|0:0,0:0:0:0:
460,64,64058,6,0,P|424:132|428:192,1,131.624993974686,8|0,0:0|0:0,0:0:0:0:
426,185,64384,2,0,P|384:156|336:144,1,87.749995983124,12|0,0:0|0:0,0:0:0:0:
356,232,64710,5,6,1:3:0:0:
292,88,64873,1,10,0:0:0:0:
196,212,65037,1,4,0:3:0:0:
276,184,65200,5,8,0:0:0:0:
116,240,65363,1,6,1:3:0:0:
112,72,65526,1,0,0:0:0:0:
196,212,65689,5,10,0:0:0:0:
200,224,65852,1,8,0:3:0:0:
204,236,66015,1,10,1:3:0:0:
208,248,66178,1,2,1:2:0:0:
212,260,66341,1,6,1:2:0:0:
344,344,66504,6,0,P|360:308|360:248,2,87.749995983124,0|0|0,0:0|0:0|0:0,0:0:0:0:
176,352,66993,1,10,0:0:0:0:
268,288,67156,1,0,0:0:0:0:
176,352,67319,2,0,P|124:344|76:316,1,87.749995983124,2|0,0:0|1:2,0:0:0:0:
212,216,67645,2,0,P|208:132|180:28,1,175.499991966248,2|2,0:0|1:2,0:0:0:0:
108,160,68134,1,0,0:0:0:0:
108,160,68297,2,0,P|112:224|120:260,1,87.749995983124,10|0,0:0|0:0,0:0:0:0:
300,224,68623,5,2,0:0:0:0:
212,296,68787,1,0,0:0:0:0:
196,148,68950,1,2,1:2:0:0:
196,148,69276,2,0,P|192:108|188:32,1,87.749995983124,0|0,0:0|0:0,0:0:0:0:
280,96,69602,1,8,0:0:0:0:
280,96,69928,2,0,P|284:136|288:208,1,87.749995983124,2|2,0:0|1:2,0:0:0:0:
372,128,70254,5,0,0:0:0:0:
472,176,70417,1,0,0:0:0:0:
364,228,70580,1,2,1:2:0:0:
452,148,70743,1,0,0:0:0:0:
424,320,70906,2,0,P|360:336|288:284,1,131.624993974686,10|0,0:0|0:0,0:0:0:0:
304,307,71232,2,0,P|292:243|276:195,1,87.749995983124,2|2,0:0|0:0,0:0:0:0:
208,308,71558,6,0,P|148:364|56:340,1,175.499991966248,6|0,1:2|0:0,0:0:0:0:
104,268,72047,1,0,0:0:0:0:
24,220,72210,2,0,P|32:172|32:108,1,87.749995983124,10|0,0:0|0:0,0:0:0:0:
44,40,72537,1,2,0:0:0:0:
112,96,72700,1,0,1:2:0:0:
268,40,72863,5,2,0:0:0:0:
268,40,73026,2,0,P|216:52|168:60,1,87.749995983124,0|2,0:0|1:2,0:0:0:0:
264,152,73352,1,0,1:0:0:0:
264,152,73433,1,0,1:0:0:0:
264,152,73515,2,0,P|332:132|412:120,1,131.624993974686,10|0,0:0|0:0,0:0:0:0:
404,112,73841,2,0,P|464:100|500:88,1,87.749995983124,2|0,0:0|1:0,0:0:0:0:
352,216,74167,5,2,1:2:0:0:
428,316,74330,1,0,0:0:0:0:
456,192,74493,1,0,1:2:0:0:
308,288,74656,1,0,1:0:0:0:
308,288,74738,1,0,1:0:0:0:
308,288,74819,2,0,P|260:280|204:276,1,87.749995983124,8|0,0:0|0:0,0:0:0:0:
88,256,75145,5,2,0:0:0:0:
212,188,75308,1,2,1:2:0:0:
168,340,75471,2,0,P|116:356|64:364,1,87.749995983124,0|8,0:0|0:0,0:0:0:0:
212,188,75797,2,0,P|264:172|316:164,1,87.749995983124,2|0,1:2|0:0,0:0:0:0:
356,92,76123,5,10,0:0:0:0:
240,64,76287,1,8,0:0:0:0:
304,252,76450,1,2,0:0:0:0:
416,168,76613,1,10,0:0:0:0:
284,132,76776,1,6,1:2:0:0:
284,132,77102,6,0,P|220:152|184:160,1,87.749995983124,0|0,0:0|0:0,0:0:0:0:
36,132,77428,1,10,0:0:0:0:
36,132,77754,2,0,P|100:112|136:104,1,87.749995983124,2|0,0:0|1:2,0:0:0:0:
244,216,78080,1,2,0:0:0:0:
164,348,78243,2,0,P|80:332|56:240,1,175.499991966248,0|0,0:0|1:0,0:0:0:0:
52,254,78651,1,0,1:0:0:0:
52,254,78732,1,10,0:0:0:0:
196,176,78895,5,0,0:0:0:0:
152,260,79058,1,2,0:0:0:0:
112,144,79221,1,4,0:3:0:0:
240,184,79384,2,0,P|316:196|380:116,1,175.499991966248,2|0,1:2|0:0,0:0:0:0:
364,48,79873,1,0,0:0:0:0:
464,100,80037,2,0,P|448:168|444:224,1,87.749995983124,8|0,0:0|0:0,0:0:0:0:
440,320,80363,6,0,P|376:296|308:304,1,131.624993974686,2|0,0:0|0:0,0:0:0:0:
296,312,80689,1,2,0:0:0:0:
192,260,80852,2,0,P|240:252|288:224,1,87.749995983124,0|2,0:0|1:2,0:0:0:0:
192,344,81178,1,0,0:0:0:0:
208,172,81341,2,0,P|200:120|184:64,1,87.749995983124,10|0,0:0|0:0,0:0:0:0:
76,136,81667,1,2,0:0:0:0:
96,256,81830,1,8,0:3:0:0:
208,172,81993,6,0,P|296:152|384:136,1,175.499991966248,6|0,1:2|0:0,0:0:0:0:
348,64,82482,1,0,0:0:0:0:
456,136,82645,1,8,0:0:0:0:
352,216,82808,2,0,P|340:264|328:320,1,87.749995983124,0|2,0:0|0:0,0:0:0:0:
432,280,83134,1,0,1:2:0:0:
432,280,83297,1,0,0:0:0:0:
312,132,83460,5,0,1:0:0:0:
312,132,83542,1,0,1:0:0:0:
312,132,83623,2,0,P|260:140|216:148,1,87.749995983124,0|0,1:2|0:0,0:0:0:0:
84,200,83950,1,10,0:0:0:0:
152,64,84113,1,8,0:3:0:0:
208,236,84276,1,10,1:3:0:0:
120,160,84439,1,0,1:2:0:0:
204,140,84602,1,6,1:2:0:0:
256,192,84765,12,0,87863,0:0:0:0:
