osu file format v14

[General]
AudioFilename: audio.mp3
AudioLeadIn: 0
PreviewTime: 44581
Countdown: 0
SampleSet: Soft
StackLeniency: 0.5
Mode: 0
LetterboxInBreaks: 0
WidescreenStoryboard: 1

[Editor]
Bookmarks: 11564,21999,32434,42869,45477,55912,66347,76782,87216
DistanceSpacing: 1
BeatDivisor: 2
GridSize: 16
TimelineZoom: 1.2

[Metadata]
Title:Believe in you (TV Size)
TitleUnicode:Believe in you (TV Size)
Artist:nonoc
ArtistUnicode:nonoc
Creator:fieryrage
Version:Blast's Easy
Source:Re:ゼロから始める異世界生活
Tags:re:zero kara hajimeru isekai seikatsu rezero starting life in another world different from zero season two anime ending ed japanese pop rock flask wanpachi cycopton hooni sylas thekoala delis shirohamymommy blastthekidd
BeatmapID:2858360
BeatmapSetID:1378030

[Difficulty]
HPDrainRate:3
CircleSize:2.5
OverallDifficulty:2
ApproachRate:2
SliderMultiplier:1.4
SliderTickRate:1

[Events]
//Background and Video events
0,0,"why i gotta use this damn background.jpg",0,0
Video,-350,"the emilia video.mp4"
//Break Periods
//Storyboard Layer 0 (Background)
//Storyboard Layer 1 (Fail)
//Storyboard Layer 2 (Pass)
//Storyboard Layer 3 (Foreground)
//Storyboard Layer 4 (Overlay)
//Storyboard Sound Samples

[TimingPoints]
472,652.173913043478,4,2,5,35,1,0
472,-100,4,2,5,35,0,0
1124,652.173913043478,4,2,5,40,1,0
1124,-100,4,2,5,40,0,0
10580,-100,4,2,1,40,0,0
11558,-100,4,2,1,45,0,0
15471,-100,4,2,1,35,0,0
15797,-100,4,2,1,25,0,0
16123,-100,4,2,1,45,0,0
25906,-100,4,2,1,35,0,0
26232,-100,4,2,1,25,0,0
26558,-100,4,2,1,45,0,0
31123,-100,4,2,0,30,0,0
32428,-100,4,2,5,50,0,0
36015,-100,4,2,1,50,0,0
37645,-100,4,2,5,55,0,0
39276,-100,4,2,1,55,0,0
40254,-100,4,2,5,60,0,0
41232,-100,4,2,1,60,0,0
41558,-100,4,2,5,60,0,0
44819,-100,4,2,1,45,0,0
45145,-100,4,2,1,50,0,0
45471,-90.9090909090909,4,2,5,70,0,1
45634,-90.9090909090909,4,2,1,70,0,1
48080,-90.9090909090909,4,2,5,70,0,1
48243,-90.9090909090909,4,2,1,70,0,1
53297,-90.9090909090909,4,2,1,70,0,0
55580,-90.9090909090909,4,2,1,60,0,0
55906,-90.9090909090909,4,2,5,70,0,1
56069,-90.9090909090909,4,2,1,70,0,1
58515,-90.9090909090909,4,2,5,70,0,1
58678,-90.9090909090909,4,2,1,70,0,1
63732,-90.9090909090909,4,2,5,70,0,1
63895,-90.9090909090909,4,2,1,70,0,1
66341,-100,4,2,5,65,0,0
66504,-100,4,2,1,65,0,0
68950,-100,4,2,5,65,0,0
69113,-100,4,2,1,65,0,0
71558,-100,4,2,5,65,0,0
71721,-100,4,2,1,65,0,0
74167,-100,4,2,5,65,0,0
74330,-100,4,2,1,65,0,0
76776,-100,4,2,5,65,0,0
76939,-100,4,2,1,65,0,0
79384,-100,4,2,5,65,0,0
79547,-100,4,2,1,65,0,0
84602,-100,4,2,5,65,0,0
87210,-100,4,2,5,45,0,0
87863,-100,4,2,5,25,0,0
88515,-100,4,2,2,5,0,0

[Colours]
Combo1 : 106,159,223
Combo2 : 172,172,172
Combo3 : 162,113,206
Combo4 : 135,198,94
Combo5 : 245,148,150

[HitObjects]
32,304,1124,6,0,B|72:335|191:298|139:262|273:238|312:266,1,280,0|0,3:0|3:0,0:0:0:0:
427,315,3080,1,2,0:0:0:0:
395,178,3732,2,0,B|376:130|253:102|280:160|153:114|133:70,1,280,0|0,3:0|3:0,0:0:0:0:
73,354,6341,6,0,P|129:226|291:202,1,280,2|2,3:2|3:2,0:0:0:0:
256,192,8950,1,2,0:0:0:0:
256,192,11558,6,0,P|227:149|144:127,1,140,2|2,1:2|0:0,0:0:0:0:
8,155,12863,1,0,0:0:0:0:
0,295,13515,1,2,0:0:0:0:
138,320,14167,2,0,B|148:349|148:349|196:373,2,70,2|0|8,0:0|0:0|0:1,0:0:0:0:
108,184,15471,1,8,0:1:0:0:
153,51,16123,1,0,0:0:0:0:
291,75,16776,6,0,B|370:29|456:149|325:174|366:283,1,280,2|0,1:2|0:0,0:0:0:0:
500,247,18732,1,2,0:0:0:0:
476,109,19384,2,0,B|479:71|479:71|512:32,2,70,0|0|8,0:0|0:0|0:1,0:0:0:0:
359,186,20689,1,0,0:0:0:0:
222,153,21341,1,2,0:3:0:0:
93,208,21993,6,0,P|54:145|-1:65,2,140,2|2|0,1:2|0:0|0:0,0:0:0:0:
143,338,23950,1,2,0:0:0:0:
283,345,24602,2,0,B|312:370|312:370|364:382,2,70,2|0|8,0:0|0:0|0:1,0:0:0:0:
233,214,25906,1,8,0:1:0:0:
334,117,26558,1,0,0:0:0:0:
469,80,27210,6,0,P|466:167|440:214,1,140,2|2,1:2|0:0,0:0:0:0:
309,260,28515,1,0,0:0:0:0:
252,132,29167,1,2,0:0:0:0:
112,123,29819,2,0,B|89:95|89:95|49:74,2,70,0|0|8,0:0|0:0|0:1,0:0:0:0:
134,261,31123,2,0,B|107:297|107:297|108:302|108:302|83:333|83:333|84:339|84:339|48:384,2,140,0|0|2,3:0|3:0|1:2,0:0:0:0:
256,192,33080,5,10,0:3:0:0:
370,272,33732,2,0,B|444:280|444:280|490:195,1,140,2|10,0:0|0:3,0:0:0:0:
377,122,35037,1,2,1:2:0:0:
256,192,35689,1,10,0:3:0:0:
126,137,36341,2,0,P|64:149|6:225,2,140,2|10|2,0:0|0:3|1:2,0:0:0:0:
256,192,38297,5,10,0:3:0:0:
365,280,38950,1,2,0:0:0:0:
256,368,39602,1,10,0:3:0:0:
147,280,40254,2,0,B|84:250|9:236,1,140,2|10,1:2|0:3,0:0:0:0:
64,106,41558,2,0,B|127:136|202:150,2,140,2|10|0,0:0|0:3|0:0,0:0:0:0:
256,192,45471,6,0,B|334:167|302:238|431:214,1,154.000004699707,6|10,1:2|0:0,0:0:0:0:
479,84,46776,1,2,0:0:0:0:
327,56,47428,1,10,0:0:0:0:
256,192,48080,2,0,B|183:215|176:145|106:137,1,154.000004699707,2|10,1:2|0:0,0:0:0:0:
0,238,49384,1,2,0:0:0:0:
142,296,50037,1,10,0:0:0:0:
256,192,50689,6,0,B|319:132|423:147|423:147,2,154.000004699707,2|8|2,1:2|0:0|0:0,0:0:0:0:
293,341,52645,1,8,0:0:0:0:
444,315,53297,2,0,B|469:186|493:155|493:155,1,154.000004699707,2|10,1:2|0:0,0:0:0:0:
364,72,54602,2,0,B|288:51|214:40|214:40,1,154.000004699707,0|10,0:0|0:0,0:0:0:0:
115,158,55906,6,0,P|70:94|-9:71,2,154.000004699707,6|10|2,1:2|0:0|0:0,0:0:0:0:
19,278,57863,1,10,0:0:0:0:
154,350,58515,2,0,B|244:301|188:271|322:212,1,154.000004699707,2|10,1:2|0:0,0:0:0:0:
397,167,59819,1,2,0:0:0:0:
505,276,60471,1,10,0:0:0:0:
365,339,61123,6,0,P|284:300|265:222,1,154.000004699707,6|8,1:2|0:0,0:0:0:0:
117,193,62428,2,0,P|161:122|243:94,1,154.000004699707,6|8,1:2|0:0,0:0:0:0:
359,23,63732,2,0,B|393:44|413:81|413:81|503:98,2,154.000004699707,2|12|0,1:2|0:0|0:0,0:0:0:0:
274,152,65689,1,10,0:0:0:0:
143,69,66341,6,0,P|61:115|-7:159,1,140,6|10,1:2|0:0,0:0:0:0:
4,278,67645,1,2,0:0:0:0:
115,364,68297,1,10,0:0:0:0:
239,298,68950,2,0,B|351:314|399:346|399:346,2,140,2|8|0,1:2|0:0|0:0,0:0:0:0:
124,217,70906,1,10,0:0:0:0:
235,132,71558,6,0,B|322:112|369:168|345:166|402:233|496:194,1,280,6|2,1:2|0:0,0:0:0:0:
465,58,73515,1,10,0:0:0:0:
325,74,74167,2,0,B|346:143|346:143|323:248,2,140,2|8|0,1:2|0:0|0:0,0:0:0:0:
187,51,76123,1,10,0:0:0:0:
65,121,76776,6,0,P|27:249|144:237,1,280,6|2,1:2|0:0,0:0:0:0:
217,138,78732,1,10,0:0:0:0:
345,194,79384,2,0,P|442:167|517:176,1,140,2|8,1:2|0:0,0:0:0:0:
510,305,80689,2,0,P|413:332|338:323,1,140,2|10,0:0|0:0,0:0:0:0:
255,257,81993,6,0,B|126:203|78:334|78:334,2,210,6|2|10,1:2|0:0|0:0,0:0:0:0:
374,330,84602,1,6,1:2:0:0:
256,192,84928,12,0,88515,0:0:0:0:
