osu file format v14

[General]
AudioFilename: audio.mp3
AudioLeadIn: 0
PreviewTime: 44662
Countdown: 0
SampleSet: Soft
StackLeniency: 0.5
Mode: 0
LetterboxInBreaks: 0
WidescreenStoryboard: 1

[Editor]
Bookmarks: 738,30737
DistanceSpacing: 1
BeatDivisor: 4
GridSize: 32
TimelineZoom: 0.7000017

[Metadata]
Title:Believe in you (TV Size)
TitleUnicode:Believe in you (TV Size)
Artist:nonoc
ArtistUnicode:nonoc
Creator:GodKei
Version:never FC's Normal
Source:Re:ゼロから始める異世界生活
Tags:re:zero kara hajimeru isekai seikatsu rezero starting life in another world different from zero season two 2nd KADOKAWA anime ending ed japanese J-pop Jpop pop rock never_FC_on_osu never FC on osu Kyle_Y Kyle Y climbx3145
BeatmapID:2849833
BeatmapSetID:1378618

[Difficulty]
HPDrainRate:4
CircleSize:3
OverallDifficulty:4.5
ApproachRate:5.5
SliderMultiplier:1.8
SliderTickRate:1

[Events]
//Background and Video events
0,0,"BG.jpg",0,0
Video,0,"RE ED2.mp4"
//Break Periods
//Storyboard Layer 0 (Background)
//Storyboard Layer 1 (Fail)
//Storyboard Layer 2 (Pass)
//Storyboard Layer 3 (Foreground)
//Storyboard Layer 4 (Overlay)
//Storyboard Sound Samples

[TimingPoints]
478,652.173913043478,4,2,1,40,1,0
1130,652.173913043478,4,2,1,40,1,0
1130,-100,4,2,1,40,0,0
10260,-100,4,2,1,50,0,0
10586,-100,4,2,1,60,0,0
10912,-100,4,2,1,40,0,0
11564,-100,4,2,1,50,0,0
32434,-100,4,2,1,55,0,0
37649,-100,4,2,1,60,0,0
40260,-100,4,2,1,65,0,0
41564,-100,4,2,1,70,0,0
42869,-100,4,2,1,50,0,0
44173,-100,4,2,1,10,0,0
45314,-100,4,2,1,60,0,0
45477,-100,4,2,1,80,0,1
53222,-100,4,2,1,80,0,1
53303,-100,4,2,1,80,0,1
63738,-100,4,2,1,80,0,1
63983,-100,4,2,1,80,0,1
64064,-100,4,2,1,80,0,1
64309,-100,4,2,1,80,0,1
64390,-100,4,2,1,80,0,1
64635,-100,4,2,1,80,0,1
64716,-100,4,2,1,80,0,1
66347,-100,4,2,1,70,0,0
70831,-100,4,2,1,5,0,0
70912,-100,4,2,1,70,0,0
85912,-100,4,2,1,60,0,0
86564,-100,4,2,1,50,0,0
87216,-100,4,2,1,40,0,0
87869,-100,4,2,1,30,0,0
88521,-100,4,2,1,15,0,0

[Colours]
Combo1 : 244,146,11
Combo2 : 21,234,234
Combo3 : 235,77,37
Combo4 : 137,63,54

[HitObjects]
508,62,1130,6,0,B|317:15|317:15|274:74,1,270,2|2,0:0|0:0,0:0:0:0:
185,63,2434,2,0,L|132:135,1,90,2|2,0:0|0:0,0:0:0:0:
42,126,3086,1,2,0:0:0:0:
79,208,3412,2,0,L|105:244,1,45,2|2,0:0|0:0,0:0:0:0:
131,280,3738,6,0,B|179:375|286:375|286:375|359:333,1,270,2|2,0:0|0:0,0:0:0:0:
353,336,6021,2,0,L|391:358,2,45,2|2|2,0:0|0:0|0:0,0:0:0:0:
252,192,7651,1,2,0:0:0:0:
256,192,8956,12,2,10912,0:0:0:0:
435,33,11564,6,0,L|347:52,1,90,2|2,1:2|0:0,0:0:0:0:
320,138,12216,2,0,L|232:118,1,90,2|2,0:0|0:0,0:0:0:0:
218,75,12706,2,0,L|86:45,1,135,2|2,0:0|0:0,0:0:0:0:
25,111,13521,1,2,0:0:0:0:
52,197,13847,1,2,0:0:0:0:
79,283,14173,6,0,P|130:324|196:321,1,135,2|2,0:0|0:0,0:0:0:0:
230,292,14825,2,0,L|317:311,1,90,2|0,0:0|0:0,0:0:0:0:
378,245,15477,2,0,L|465:225,1,90,2|2,0:0|0:0,0:0:0:0:
492,139,16129,1,2,0:0:0:0:
404,158,16456,2,0,L|360:167,1,45,2|2,0:0|0:0,0:0:0:0:
312,175,16782,6,0,B|265:161|213:194|233:204|200:231|144:216,1,180,2|0,1:2|0:0,0:0:0:0:
59,187,17760,2,0,P|65:165|67:143,1,45,2|2,0:0|0:0,0:0:0:0:
57,98,18086,2,0,P|101:101|142:85,1,90,2|2,0:0|0:0,0:0:0:0:
175,1,18738,1,2,0:0:0:0:
232,72,19064,2,0,P|254:69|276:63,1,45,2|2,0:0|0:0,0:0:0:0:
319,75,19390,6,0,P|363:71|404:87,2,90,2|2|2,0:0|0:0|0:0,0:0:0:0:
262,145,20369,2,0,P|265:189|249:230,1,90,2|0,0:0|0:0,0:0:0:0:
235,319,21021,1,2,0:0:0:0:
152,352,21347,1,2,0:0:0:0:
81,296,21673,1,2,0:0:0:0:
9,240,21999,5,2,1:2:0:0:
93,206,22325,2,0,L|134:188,1,45,2|2,0:0|0:0,0:0:0:0:
157,149,22651,2,0,P|187:207|254:232,2,135,2|2|2,0:0|0:0|0:0,0:0:0:0:
247,141,23956,1,0,0:0:0:0:
286,60,24282,1,2,0:0:0:0:
375,53,24608,6,0,P|371:118|414:168,1,135,2|0,0:0|0:0,0:0:0:0:
451,194,25260,2,0,L|421:279,1,90,2|0,0:0|0:0,0:0:0:0:
332,295,25912,2,0,L|244:313,2,90,2|2|2,0:0|0:0|0:0,0:0:0:0:
390,364,26890,1,2,0:0:0:0:
421,279,27216,6,0,L|451:194,1,90,2|0,1:2|0:0,0:0:0:0:
392,125,27869,1,2,0:0:0:0:
334,56,28195,2,0,B|315:5|315:5|257:-12|178:20,1,180,2|0,0:0|0:0,0:0:0:0:
125,75,29173,2,0,P|83:138|95:197,1,135,2|2,0:0|0:0,0:0:0:0:
120,228,29825,6,0,L|207:249,1,90,2|0,0:0|0:0,0:0:0:0:
269,184,30477,2,0,L|356:205,1,90,2|0,0:0|0:0,0:0:0:0:
256,192,31129,12,0,32434,1:2:0:0:
187,145,33086,6,0,P|180:189|195:232,1,90,0|0,1:2|1:2,0:0:0:0:
121,283,33738,2,0,P|128:327|112:370,1,90,8|0,0:0|1:2,0:0:0:0:
39,320,34390,1,0,1:2:0:0:
45,232,34716,1,0,1:2:0:0:
51,144,35043,6,0,L|59:54,2,90,0|0|0,1:2|1:2|1:2,0:0:0:0:
45,232,36021,1,2,1:2:0:0:
124,193,36347,2,0,L|197:245,1,90,10|2,0:2|0:0,0:0:0:0:
270,297,36999,1,2,1:2:0:0:
279,207,37325,2,0,L|283:162,1,45,2|2,1:2|0:0,0:0:0:0:
278,117,37651,6,0,L|269:27,1,90,2|0,1:2|1:2,0:0:0:0:
359,20,38303,2,0,L|367:109,1,90,0|0,1:2|1:2,0:0:0:0:
419,183,38956,1,8,0:2:0:0:
471,257,39282,2,0,L|479:346,2,90,2|2|2,1:2|1:2|1:2,0:0:0:0:
379,264,40260,6,0,P|348:239|328:185,1,90,2|0,1:2|1:2,0:0:0:0:
419,183,40912,1,0,1:2:0:0:
367,110,41238,1,2,1:2:0:0:
367,110,41401,1,2,1:2:0:0:
256,192,41564,12,0,44173,0:0:0:0:
89,58,45477,6,0,L|177:76,1,90,4|2,1:2|0:0,0:0:0:0:
190,119,45966,1,2,0:0:0:0:
190,119,46129,1,10,0:0:0:0:
217,204,46456,2,0,L|261:213,1,45,2|2,0:0|1:2,0:0:0:0:
274,256,46782,2,0,L|362:237,1,90,2|0,0:0|1:2,0:0:0:0:
406,227,47271,1,2,0:0:0:0:
406,227,47434,1,8,0:0:0:0:
433,141,47760,1,2,0:0:0:0:
458,52,48086,6,0,P|413:51|372:70,1,90,0|2,1:2|0:0,0:0:0:0:
358,112,48575,1,2,0:0:0:0:
358,112,48738,1,8,0:0:0:0:
294,48,49064,2,0,L|250:57,1,45,0|0,0:0|1:2,0:0:0:0:
238,101,49390,2,0,L|150:120,1,90,2|2,0:0|1:2,0:0:0:0:
106,129,49879,1,2,0:0:0:0:
106,129,50043,1,10,0:0:0:0:
20,146,50369,1,2,0:0:0:0:
78,211,50695,5,6,1:2:0:0:
136,276,51021,2,0,L|122:318,2,45,2|2|8,0:0|0:0|0:0,0:0:0:0:
179,265,51510,1,2,0:0:0:0:
179,265,51673,2,0,L|193:223,1,45,2|0,0:0|1:2,0:0:0:0:
205,180,51999,1,2,0:0:0:0:
291,160,52325,2,0,L|305:203,1,45,0|0,1:2|0:0,0:0:0:0:
348,212,52651,2,0,P|322:246|317:305,1,90,10|2,0:0|0:0,0:0:0:0:
405,283,53303,5,6,1:2:0:0:
444,201,53629,1,2,0:0:0:0:
392,126,53956,1,8,0:0:0:0:
301,133,54282,2,0,P|256:126|221:99,1,90,2|0,0:0|0:0,0:0:0:0:
185,126,54771,2,0,P|149:99|105:92,1,90,0|0,1:2|0:0,0:0:0:0:
63,73,55260,2,0,L|57:28,2,45,8|8|8,0:0|0:0|0:0,0:0:0:0:
0,137,55912,6,0,L|11:226,1,90,4|2,1:2|0:0,0:0:0:0:
16,270,56401,1,2,0:0:0:0:
16,270,56564,1,10,0:0:0:0:
27,359,56890,2,0,L|71:353,1,45,2|2,0:0|1:2,0:0:0:0:
89,312,57216,2,0,L|178:323,1,90,2|0,0:0|1:2,0:0:0:0:
222,328,57706,1,2,0:0:0:0:
222,328,57869,1,8,0:0:0:0:
276,256,58195,1,2,0:0:0:0:
313,339,58521,6,0,P|348:311|366:271,1,90,0|2,1:2|0:0,0:0:0:0:
393,234,59010,1,2,0:0:0:0:
393,234,59173,1,8,0:0:0:0:
359,151,59499,2,0,L|375:109,1,45,2|0,0:0|1:2,0:0:0:0:
348,73,59825,2,0,P|306:56|262:61,1,90,2|2,0:0|1:2,0:0:0:0:
234,96,60314,1,2,0:0:0:0:
234,96,60477,1,10,0:0:0:0:
178,166,60803,1,2,0:0:0:0:
145,82,61129,5,6,1:2:0:0:
89,152,61456,2,0,L|35:143,2,45,2|2|8,0:0|0:0|0:0,0:0:0:0:
105,193,61945,1,2,0:0:0:0:
105,193,62108,2,0,L|124:242,1,45,2|2,0:0|0:0,0:0:0:0:
137,275,62434,1,8,0:0:0:0:
225,288,62760,2,0,L|269:294,1,45,0|2,1:2|0:0,0:0:0:0:
297,258,63086,1,8,0:0:0:0:
297,258,63249,2,0,L|341:264,1,45,2|2,0:0|0:0,0:0:0:0:
386,271,63575,1,2,0:0:0:0:
386,271,63738,6,0,L|398:181,2,90,8|8|8,0:2|0:0|0:0,0:0:0:0:
452,332,64716,1,0,1:2:0:0:
452,332,64879,2,0,P|414:356|369:360,1,90,8|8,0:2|0:2,0:0:0:0:
328,341,65369,1,0,1:2:0:0:
246,303,65695,1,8,0:0:0:0:
164,265,66021,2,0,L|123:245,1,45,8|8,0:0|0:0,0:0:0:0:
82,225,66347,6,0,B|93:168|73:133|60:154|32:100|58:54,1,180,4|10,1:2|0:0,0:0:0:0:
141,22,67325,1,2,0:0:0:0:
212,77,67651,2,0,P|249:100|294:104,1,90,2|2,0:0|0:2,0:0:0:0:
361,45,68303,1,8,0:0:0:0:
379,133,68629,1,2,0:0:0:0:
396,222,68956,6,0,P|462:165|451:79,1,180,0|8,1:2|0:0,0:0:0:0:
379,133,69934,2,0,L|333:168,1,45,2|2,0:0|1:2,0:0:0:0:
301,142,70260,2,0,L|209:212,1,90,2|2,0:0|1:2,0:0:0:0:
146,161,70912,1,8,0:0:0:0:
157,250,71238,2,0,L|162:294,1,45,2|0,0:0|0:0,0:0:0:0:
167,338,71564,6,0,B|235:328|235:328|269:357|269:357|334:347,1,180,4|10,1:2|0:0,0:0:0:0:
422,327,72543,1,2,0:0:0:0:
449,241,72869,2,0,P|472:204|476:159,1,90,2|2,0:0|1:2,0:0:0:0:
415,91,73521,1,10,0:0:0:0:
355,24,73847,1,2,0:0:0:0:
326,111,74173,6,0,B|277:92|266:42|266:42|181:29,1,180,0|8,1:2|0:0,0:0:0:0:
92,13,75151,1,2,0:0:0:0:
92,13,75314,2,0,P|114:55|112:97,1,90,2|8,1:2|0:0,0:0:0:0:
82,128,75803,1,0,1:2:0:0:
20,192,76129,2,0,L|30:235,1,45,8|8,0:0|0:0,0:0:0:0:
75,249,76456,2,0,L|85:292,1,45,8|8,0:0|0:0,0:0:0:0:
130,306,76782,6,0,B|181:271|181:271|241:261|289:306,1,180,4|10,1:2|0:2,0:0:0:0:
370,344,77760,1,2,0:0:0:0:
363,255,78086,2,0,L|355:154,1,90,0|2,0:2|0:0,0:0:0:0:
274,126,78738,1,8,0:0:0:0:
349,76,79064,1,2,0:0:0:0:
429,123,79390,6,0,B|491:142|507:217|507:217|489:265,1,180,0|8,1:2|0:0,0:0:0:0:
443,342,80369,1,2,0:0:0:0:
353,341,80695,2,0,L|263:340,1,90,0|0,0:0|1:2,0:0:0:0:
218,261,81347,1,8,0:0:0:0:
173,182,81673,2,0,L|128:181,1,45,2|0,0:0|1:2,0:0:0:0:
83,180,81999,6,0,B|47:131|47:131|35:68|73:19,1,180,4|8,1:2|0:0,0:0:0:0:
161,36,82977,2,0,L|210:51,1,45,2|0,0:0|1:2,0:0:0:0:
247,62,83303,1,0,0:0:0:0:
268,150,83629,1,0,1:2:0:0:
287,238,83956,2,0,P|326:218|353:182,1,90,8|0,0:0|1:2,0:0:0:0:
421,124,84608,5,4,1:2:0:0:
256,192,84934,12,0,88521,0:0:0:0:
