osu file format v14

[General]
AudioFilename: audio.mp3
AudioLeadIn: 0
PreviewTime: 44662
Countdown: 0
SampleSet: Soft
StackLeniency: 0.7
Mode: 0
LetterboxInBreaks: 0
WidescreenStoryboard: 0

[Editor]
Bookmarks: 85
DistanceSpacing: 0.8
BeatDivisor: 4
GridSize: 16
TimelineZoom: 1.200002

[Metadata]
Title:Believe in you (TV Size)
TitleUnicode:Believe in you (TV Size)
Artist:nonoc
ArtistUnicode:nonoc
Creator:GodKei
Version:Believe
Source:Re:ゼロから始める異世界生活
Tags:re:zero kara hajimeru isekai seikatsu rezero starting life in another world different from zero season two 2nd KADOKAWA anime ending ed japanese J-pop Jpop pop rock never_FC_on_osu never FC on osu Kyle_Y Kyle Y climbx3145
BeatmapID:2848730
BeatmapSetID:1378618

[Difficulty]
HPDrainRate:5.5
CircleSize:4
OverallDifficulty:8
ApproachRate:9
SliderMultiplier:2.5
SliderTickRate:1

[Events]
//Background and Video events
0,0,"BG.jpg",0,0
Video,0,"RE ED2.mp4"
//Break Periods
//Storyboard Layer 0 (Background)
//Storyboard Layer 1 (Fail)
//Storyboard Layer 2 (Pass)
//Storyboard Layer 3 (Foreground)
//Storyboard Layer 4 (Overlay)
//Storyboard Sound Samples

[TimingPoints]
478,652.173913043478,4,2,1,40,1,0
478,-200,4,2,1,40,0,0
1130,652.173913043478,4,2,1,40,1,0
1130,-200,4,2,1,40,0,0
10260,-200,4,2,1,50,0,0
10586,-200,4,2,1,60,0,0
10912,-200,4,2,1,40,0,0
11564,-125,4,2,1,50,0,0
32434,-125,4,2,1,55,0,0
37649,-125,4,2,1,60,0,0
40260,-125,4,2,1,65,0,0
41564,-111.111111111111,4,2,1,70,0,0
42869,-500,4,2,1,50,0,0
44173,-500,4,2,1,10,0,0
45314,-500,4,2,1,60,0,0
45477,-76.9230769230769,4,2,1,80,0,1
53222,-76.9230769230769,4,2,1,5,0,1
53303,-76.9230769230769,4,2,1,80,0,1
63738,-76.9230769230769,4,2,1,80,0,1
63983,-76.9230769230769,4,2,1,5,0,1
64064,-58.8235294117647,4,2,1,80,0,1
64309,-58.8235294117647,4,2,1,5,0,1
64390,-47.6190476190476,4,2,1,80,0,1
64635,-47.6190476190476,4,2,1,5,0,1
64716,-76.9230769230769,4,2,1,80,0,1
66347,-83.3333333333333,4,2,1,70,0,0
70831,-83.3333333333333,4,2,1,5,0,0
70912,-83.3333333333333,4,2,1,70,0,0
85260,-83.3333333333333,4,2,1,60,0,0
85912,-83.3333333333333,4,2,1,50,0,0
86564,-83.3333333333333,4,2,1,40,0,0
87216,-83.3333333333333,4,2,1,30,0,0
87543,-83.3333333333333,4,2,1,15,0,0

[Colours]
Combo1 : 244,146,11
Combo2 : 21,234,234
Combo3 : 235,77,37
Combo4 : 137,63,54

[HitObjects]
51,156,478,5,2,0:0:0:0:
51,156,804,2,0,L|54:117,1,31.25,2|2,0:0|0:0,0:0:0:0:
110,52,1130,6,0,P|201:59|189:138,1,187.5,2|2,0:0|0:0,0:0:0:0:
157,219,2434,2,0,P|209:226|269:186,1,125,2|2,0:0|0:0,0:0:0:0:
313,98,3412,2,0,L|353:105,1,31.25,2|2,0:0|0:0,0:0:0:0:
368,186,3738,6,0,P|415:155|399:37,1,187.5,2|2,0:0|0:0,0:0:0:0:
165,115,6021,1,2,0:0:0:0:
89,63,6184,1,2,0:0:0:0:
89,63,6347,6,0,P|88:129|86:190,1,125,2|0,0:0|0:0,0:0:0:0:
120,273,7651,1,2,0:0:0:0:
177,200,8956,5,2,0:0:0:0:
256,192,9119,12,2,10912,0:0:0:0:
177,200,11564,5,2,1:2:0:0:
201,202,11890,1,2,0:0:0:0:
225,204,12216,1,2,0:0:0:0:
305,282,12543,2,0,L|366:283,1,50,2|2,0:0|0:0,0:0:0:0:
405,191,12869,2,0,P|441:217|459:272,2,100,2|2|2,0:0|0:0|0:0,0:0:0:0:
354,282,13847,1,2,0:0:0:0:
301,193,14173,6,0,P|300:144|299:81,1,100,2|0,0:0|0:0,0:0:0:0:
210,26,14662,1,2,0:0:0:0:
134,79,14825,2,0,P|169:112|224:119,2,100,2|0|2,0:0|0:0|0:0,0:0:0:0:
6,43,15803,2,0,L|3:160,1,100,2|2,0:0|0:0,0:0:0:0:
42,235,16456,1,2,0:0:0:0:
103,156,16619,1,2,0:0:0:0:
162,315,16782,6,0,B|277:267|256:364|365:322,1,200,2|0,1:2|0:0,0:0:0:0:
418,253,17760,1,2,0:0:0:0:
322,232,17923,1,2,0:0:0:0:
437,331,18086,2,0,P|465:319|497:246,1,100,2|2,0:0|0:0,0:0:0:0:
303,154,18738,2,0,P|275:166|243:239,1,100,2|2,0:0|0:0,0:0:0:0:
352,325,19227,1,2,0:0:0:0:
389,160,19390,6,0,P|366:94|247:89,1,200,2|2,0:0|0:0,0:0:0:0:
172,147,20369,2,0,L|51:146,1,100,2|0,0:0|0:0,0:0:0:0:
19,251,21021,1,2,0:0:0:0:
45,252,21347,1,2,0:0:0:0:
71,253,21673,1,2,0:0:0:0:
125,340,21999,6,0,P|163:340|243:345,1,100,2|2,1:2|0:0,0:0:0:0:
291,286,22488,1,2,0:0:0:0:
358,343,22651,2,0,P|375:299|355:228,1,100,2|0,0:0|0:0,0:0:0:0:
224,229,23140,2,0,L|113:230,1,100,2|0,0:0|0:0,0:0:0:0:
116,138,23629,2,0,L|227:139,1,100,2|0,0:0|0:0,0:0:0:0:
298,176,24282,1,2,0:0:0:0:
302,80,24608,6,0,P|346:94|376:230,2,200,2|2|2,0:0|0:0|0:0,0:0:0:0:
215,138,26238,1,2,0:0:0:0:
298,176,26564,1,2,0:0:0:0:
219,42,26890,1,2,0:0:0:0:
34,157,27216,6,0,B|47:211|47:211|26:275|26:275|35:366,1,200,2|2,1:2|0:0,0:0:0:0:
139,296,28195,1,2,0:0:0:0:
210,373,28521,2,0,P|249:364|316:356,1,100,2|0,0:0|0:0,0:0:0:0:
452,359,29173,2,0,P|439:297|488:224,1,150,2|2,0:0|0:0,0:0:0:0:
503,71,29825,6,0,P|448:71|390:72,1,100,2|0,0:0|0:0,0:0:0:0:
406,149,30477,2,0,P|461:149|519:150,1,100,2|0,0:0|0:0,0:0:0:0:
326,65,31129,6,0,P|337:29|359:3,2,66.6666666666667,2|2|2,0:0|0:0|0:0,0:0:0:0:
328,155,31782,2,0,P|339:191|361:217,2,66.6666666666667,2|2|2,0:0|0:0|0:0,0:0:0:0:
155,107,32434,5,0,1:2:0:0:
248,108,32760,1,0,1:2:0:0:
110,26,33086,1,0,1:2:0:0:
203,27,33412,1,0,1:2:0:0:
62,106,33575,1,0,1:2:0:0:
279,254,33738,5,8,0:0:0:0:
155,107,34064,1,0,1:2:0:0:
231,346,34390,1,0,1:2:0:0:
248,155,34716,1,0,1:2:0:0:
132,377,35043,5,0,1:2:0:0:
57,135,35369,1,0,1:2:0:0:
40,328,35695,1,0,1:2:0:0:
9,228,36021,1,2,1:2:0:0:
144,241,36184,1,0,1:2:0:0:
414,267,36347,5,10,0:2:0:0:
279,254,36673,1,2,0:0:0:0:
357,143,36998,1,2,1:2:0:0:
222,130,37325,1,2,1:2:0:0:
492,156,37651,5,2,1:2:0:0:
300,19,37977,1,0,1:2:0:0:
435,32,38303,1,0,1:2:0:0:
357,143,38629,1,0,1:2:0:0:
279,254,38793,1,0,1:2:0:0:
492,156,38956,5,8,0:2:0:0:
300,19,39282,1,2,1:2:0:0:
414,267,39608,1,2,1:2:0:0:
223,133,39934,1,2,1:2:0:0:
68,337,40260,6,0,L|173:328,1,100,2|0,1:2|1:2,0:0:0:0:
444,337,40912,2,0,L|339:328,1,100,0|2,1:2|1:2,0:0:0:0:
249,235,41401,1,2,1:2:0:0:
446,150,41564,6,0,L|333:140,1,112.499996566773,8|8,0:0|0:0,0:0:0:0:
40,150,42216,2,0,L|152:140,1,112.499996566773,8|8,0:0|0:0,0:0:0:0:
240,0,42869,6,0,L|244:99,1,100,0|0,1:2|0:0,0:0:0:0:
249,235,45314,5,0,1:2:0:0:
249,235,45396,1,0,1:2:0:0:
249,235,45477,2,0,B|321:205|309:286|419:249,1,162.499992561341,4|2,1:2|0:0,0:0:0:0:
478,170,45966,1,2,0:0:0:0:
395,96,46129,2,0,L|290:96,1,81.2499962806703,10|0,0:0|0:0,0:0:0:0:
141,145,46456,1,2,0:0:0:0:
241,148,46619,1,2,1:2:0:0:
127,59,46782,6,0,P|64:92|57:180,1,162.499992561341,2|0,0:0|1:2,0:0:0:0:
121,338,47271,1,2,0:0:0:0:
245,234,47434,2,0,P|190:237|161:260,1,81.2499962806703,8|0,0:0|0:0,0:0:0:0:
285,377,47760,2,0,P|310:326|304:290,1,81.2499962806703,2|0,0:0|0:0,0:0:0:0:
16,360,48086,5,0,1:2:0:0:
16,360,48412,2,0,L|7:275,1,81.2499962806703,2|2,0:0|0:0,0:0:0:0:
55,176,48738,2,0,B|140:158|121:232|230:195,1,162.499992561341,8|0,0:0|0:0,0:0:0:0:
338,169,49227,1,0,1:2:0:0:
243,47,49390,2,0,P|204:62|183:102,1,81.2499962806703,2|2,0:0|1:2,0:0:0:0:
289,249,49716,5,2,1:2:0:0:
258,120,49879,1,2,0:0:0:0:
418,218,50043,2,0,P|429:173|413:130,1,81.2499962806703,10|0,0:0|0:0,0:0:0:0:
441,350,50369,2,0,P|485:337|514:301,1,81.2499962806703,2|0,0:0|0:0,0:0:0:0:
307,372,50695,6,0,B|205:320|232:401|130:359,1,162.499992561341,6|2,1:2|0:0,0:0:0:0:
42,303,51184,1,2,0:0:0:0:
152,241,51347,2,0,L|152:138,1,81.2499962806703,8|2,0:0|0:0,0:0:0:0:
54,69,51673,1,2,0:0:0:0:
48,186,51836,1,0,1:2:0:0:
202,22,51999,6,0,P|246:38|276:161,1,162.499992561341,2|0,0:0|1:2,0:0:0:0:
360,237,52488,1,0,0:0:0:0:
418,120,52651,2,0,L|413:26,1,81.2499962806703,10|0,0:0|0:0,0:0:0:0:
193,117,52977,2,0,P|131:95|110:38,1,121.874994421006,2|0,0:0|0:0,0:0:0:0:
25,18,53303,6,0,L|28:209,1,162.499992561341,6|2,1:2|0:0,0:0:0:0:
127,321,53793,1,0,0:0:0:0:
247,270,53956,2,0,P|225:230|185:215,1,81.2499962806703,8|0,0:0|0:0,0:0:0:0:
30,278,54282,1,2,0:0:0:0:
224,364,54445,1,0,1:2:0:0:
369,280,54608,5,0,0:0:0:0:
390,163,54771,1,0,1:2:0:0:
299,86,54934,1,0,1:2:0:0:
186,126,55097,1,0,1:2:0:0:
278,204,55260,5,8,0:0:0:0:
299,86,55423,1,8,0:0:0:0:
208,9,55586,1,8,0:0:0:0:
98,49,55749,1,8,0:0:0:0:
278,204,55912,5,4,1:2:0:0:
278,204,56238,2,0,L|191:211,1,81.2499962806703,2|2,0:0|0:0,0:0:0:0:
46,351,56564,2,0,P|100:315|84:221,1,162.499992561341,10|2,0:0|0:0,0:0:0:0:
12,173,57053,1,2,1:2:0:0:
98,49,57216,6,0,P|145:79|156:118,1,81.2499962806703,2|0,0:0|1:2,0:0:0:0:
197,210,57543,1,0,1:2:0:0:
271,118,57706,1,2,0:0:0:0:
356,201,57869,2,0,P|379:164|382:107,1,81.2499962806703,8|0,0:0|0:0,0:0:0:0:
221,14,58195,2,0,P|259:0|300:2,1,81.2499962806703,2|0,0:0|0:0,0:0:0:0:
499,45,58521,5,0,1:2:0:0:
499,45,58847,2,0,L|499:139,1,81.2499962806703,2|2,0:0|0:0,0:0:0:0:
488,278,59173,2,0,B|399:234|420:314|303:263,1,162.499992561341,8|2,0:0|0:0,0:0:0:0:
197,210,59662,1,0,1:2:0:0:
199,368,59825,6,0,P|236:346|243:288,1,81.2499962806703,2|2,0:0|1:2,0:0:0:0:
109,218,60151,1,2,1:2:0:0:
197,210,60314,1,2,0:0:0:0:
58,307,60477,2,0,P|24:284|16:226,1,81.2499962806703,10|0,0:0|0:0,0:0:0:0:
65,84,60803,2,0,P|62:124|15:160,1,81.2499962806703,2|0,0:0|0:0,0:0:0:0:
207,41,61129,6,0,B|304:-1|281:68|363:50,1,162.499992561341,6|2,1:2|0:0,0:0:0:0:
470,94,61619,1,2,0:0:0:0:
470,94,61700,1,2,0:0:0:0:
470,94,61782,1,8,0:0:0:0:
334,221,61945,1,2,0:0:0:0:
493,179,62108,1,2,0:0:0:0:
396,146,62271,1,2,0:0:0:0:
457,290,62434,6,0,B|387:262|405:347|283:303,1,162.499992561341,8|0,0:0|1:2,0:0:0:0:
172,225,62923,1,2,0:0:0:0:
106,328,63086,2,0,P|144:354|184:347,1,81.2499962806703,8|2,0:0|0:0,0:0:0:0:
253,223,63412,1,2,0:0:0:0:
91,227,63575,1,2,0:0:0:0:
292,46,63738,6,0,P|362:45|426:44,1,121.874994421006,8|0,0:2|0:0,0:0:0:0:
432,89,64064,6,0,P|357:86|243:91,1,159.375003039837,8|0,0:0|0:0,0:0:0:0:
253,129,64390,6,0,P|327:126|454:132,1,196.874993991852,8|0,0:0|0:0,0:0:0:0:
492,226,64716,5,0,1:2:0:0:
310,313,64879,1,8,0:2:0:0:
376,217,65043,1,0,1:2:0:0:
427,322,65206,1,8,0:2:0:0:
260,208,65369,1,0,1:2:0:0:
310,313,65532,5,0,1:2:0:0:
376,217,65695,1,8,0:0:0:0:
326,112,65858,1,8,0:0:0:0:
210,102,66021,1,8,0:0:0:0:
143,197,66184,1,8,0:0:0:0:
417,97,66347,6,0,P|379:34|308:19,1,149.999995422363,4|0,1:2|0:0,0:0:0:0:
142,117,66999,2,0,P|204:108|221:80,1,74.9999977111817,10|0,0:0|0:0,0:0:0:0:
70,16,67325,2,0,P|46:74|62:102,1,74.9999977111817,2|0,0:0|1:2,0:0:0:0:
25,218,67651,2,0,P|19:288|14:369,2,149.999995422363,2|2|8,0:0|0:2|0:0,0:0:0:0:
93,153,68466,1,0,0:0:0:0:
116,245,68629,1,2,0:0:0:0:
139,337,68793,1,2,0:0:0:0:
343,258,68956,6,0,P|416:253|494:252,2,149.999995422363,0|0|8,1:2|0:0|0:0,0:0:0:0:
231,185,69771,1,0,0:0:0:0:
311,104,69934,2,0,P|338:138|343:170,1,74.9999977111817,2|2,0:0|1:2,0:0:0:0:
253,267,70260,1,2,0:0:0:0:
149,164,70423,1,10,0:0:0:0:
232,84,70586,2,0,P|252:48|323:24,1,112.499996566773,2|0,1:2|0:0,0:0:0:0:
399,38,70912,2,0,P|420:109|443:187,1,149.999995422363,8|2,0:0|0:0,0:0:0:0:
394,327,71401,1,0,0:0:0:0:
172,250,71564,6,0,P|88:247|41:183,1,149.999995422363,4|2,1:2|0:0,0:0:0:0:
201,167,72216,2,0,P|248:193|263:234,1,74.9999977111817,10|0,0:0|0:0,0:0:0:0:
201,333,72543,2,0,P|248:307|263:266,1,74.9999977111817,2|0,0:0|1:2,0:0:0:0:
339,250,72869,2,0,L|504:251,2,149.999995422363,2|2|10,0:0|1:2|0:0,0:0:0:0:
336,152,73684,1,0,0:0:0:0:
419,150,73847,1,2,0:0:0:0:
502,148,74010,1,0,0:0:0:0:
320,60,74173,6,0,P|262:90|245:170,2,149.999995422363,0|0|8,1:2|1:2|0:0,0:0:0:0:
417,67,74988,1,0,0:0:0:0:
336,152,75151,2,0,L|334:250,1,74.9999977111817,2|2,0:0|1:2,0:0:0:0:
296,359,75477,1,2,0:0:0:0:
251,282,75640,1,8,0:0:0:0:
385,358,75803,1,0,1:2:0:0:
207,360,75966,5,0,1:2:0:0:
251,282,76129,1,8,0:0:0:0:
205,204,76293,1,8,0:0:0:0:
116,205,76456,1,8,0:0:0:0:
72,282,76619,1,8,0:0:0:0:
162,282,76782,6,0,L|316:283,1,149.999995422363,4|0,1:2|0:0,0:0:0:0:
362,125,77434,2,0,P|322:146|304:188,1,74.9999977111817,10|0,0:2|0:0,0:0:0:0:
423,74,77760,2,0,P|384:49|339:55,1,74.9999977111817,2|0,0:0|0:0,0:0:0:0:
436,152,78086,2,0,L|436:317,2,149.999995422363,0|2|8,0:2|0:0|0:0,0:0:0:0:
423,74,78901,1,0,0:0:0:0:
362,125,79064,1,2,0:0:0:0:
276,25,79227,1,2,0:0:0:0:
159,103,79390,6,0,P|105:95|30:156,2,149.999995422363,0|0|8,1:2|0:0|0:0,0:0:0:0:
196,275,80369,2,0,L|271:275,1,74.9999977111817,2|0,0:0|1:2,0:0:0:0:
266,178,80695,2,0,L|108:181,1,149.999995422363,0|0,0:0|1:2,0:0:0:0:
17,273,81184,1,0,0:0:0:0:
110,350,81347,2,0,L|113:255,1,74.9999977111817,8|0,0:0|0:0,0:0:0:0:
20,177,81673,1,2,0:0:0:0:
116,180,81836,1,0,1:2:0:0:
261,356,81999,6,0,P|348:318|362:263,1,149.999995422363,4|0,1:2|0:0,0:0:0:0:
266,178,82488,1,0,0:0:0:0:
374,76,82651,2,0,L|453:75,1,74.9999977111817,8|0,0:0|0:0,0:0:0:0:
371,181,82977,1,2,0:0:0:0:
269,73,83140,1,0,1:2:0:0:
161,175,83303,2,0,L|157:352,1,149.999995422363,0|0,0:0|1:2,0:0:0:0:
264,269,83793,1,0,0:0:0:0:
56,172,83956,5,8,0:0:0:0:
112,83,84119,1,0,1:2:0:0:
217,86,84282,1,0,1:2:0:0:
266,178,84445,2,0,L|312:177,2,37.4999988555909,0|0|4,1:2|1:2|1:2,0:0:0:0:
256,192,84771,12,0,87543,0:0:0:0:
