osu file format v14

[General]
AudioFilename: audio.mp3
AudioLeadIn: 0
PreviewTime: 63246
Countdown: 0
SampleSet: None
StackLeniency: 0.7
Mode: 1
LetterboxInBreaks: 0
WidescreenStoryboard: 0

[Editor]
DistanceSpacing: 1.1
BeatDivisor: 4
GridSize: 4
TimelineZoom: 1.8

[Metadata]
Title:Now on stage!!!
TitleUnicode:Now on stage!!!
Artist:nonet
ArtistUnicode:nonet
Creator:kanekku43
Version:Insane
Source:
Tags:
BeatmapID:1439565
BeatmapSetID:680869

[Difficulty]
HPDrainRate:5
CircleSize:5
OverallDifficulty:7
ApproachRate:4
SliderMultiplier:1.4
SliderTickRate:1

[Events]
//Background and Video events
//Break Periods
2,111975,114691
//Storyboard Layer 0 (Background)
//Storyboard Layer 1 (Fail)
//Storyboard Layer 2 (Pass)
//Storyboard Layer 3 (Foreground)
//Storyboard Sound Samples

[TimingPoints]
70,352.941176470588,4,1,0,100,1,0

[HitObjects]
256,144,1481,5,0,0:0:0:0:
256,144,1834,1,2,0:0:0:0:
256,144,2187,1,0,0:0:0:0:
256,144,2364,1,0,0:0:0:0:
256,144,2540,1,2,0:0:0:0:
256,144,2893,1,0,0:0:0:0:
256,144,3246,1,2,0:0:0:0:
256,144,3422,1,2,0:0:0:0:
256,144,3599,1,0,0:0:0:0:
256,144,3775,1,0,0:0:0:0:
256,144,3952,1,6,0:0:0:0:
256,144,4305,1,0,0:0:0:0:
256,144,4658,1,2,0:0:0:0:
256,144,5011,1,0,0:0:0:0:
256,144,5187,1,0,0:0:0:0:
256,144,5364,1,2,0:0:0:0:
256,144,5717,1,0,0:0:0:0:
256,144,6069,1,6,0:0:0:0:
256,144,6422,1,6,0:0:0:0:
256,144,6775,1,6,0:0:0:0:
256,144,7128,1,0,0:0:0:0:
256,144,7481,1,2,0:0:0:0:
256,144,7834,1,0,0:0:0:0:
256,144,8011,1,2,0:0:0:0:
256,144,8187,1,2,0:0:0:0:
256,144,8540,1,0,0:0:0:0:
256,144,8893,1,2,0:0:0:0:
256,144,9069,1,0,0:0:0:0:
256,144,9246,1,0,0:0:0:0:
256,144,9599,1,6,0:0:0:0:
256,144,9952,1,0,0:0:0:0:
256,144,10128,1,0,0:0:0:0:
256,144,10305,1,2,0:0:0:0:
256,144,10481,1,2,0:0:0:0:
256,144,10658,1,0,0:0:0:0:
256,144,10834,1,0,0:0:0:0:
256,144,11011,1,2,0:0:0:0:
256,144,11187,1,2,0:0:0:0:
256,144,11364,1,0,0:0:0:0:
256,144,11540,1,6,0:0:0:0:
256,144,11717,1,6,0:0:0:0:
256,144,12775,1,0,0:0:0:0:
256,144,13128,1,0,0:0:0:0:
256,144,13657,1,6,0:0:0:0:
256,144,13834,1,6,0:0:0:0:
256,144,14187,1,0,0:0:0:0:
256,144,14540,1,0,0:0:0:0:
256,144,15069,1,6,0:0:0:0:
256,144,15245,1,6,0:0:0:0:
256,144,15598,1,0,0:0:0:0:
256,144,15951,1,0,0:0:0:0:
256,144,16481,1,6,0:0:0:0:
256,144,16657,1,6,0:0:0:0:
256,144,17010,1,0,0:0:0:0:
256,144,17363,1,6,0:0:0:0:
256,144,17540,1,0,0:0:0:0:
256,144,17716,1,0,0:0:0:0:
256,144,18069,1,6,0:0:0:0:
256,144,18422,1,0,0:0:0:0:
256,144,18775,1,0,0:0:0:0:
256,144,19304,1,6,0:0:0:0:
256,144,19481,1,6,0:0:0:0:
256,144,19834,1,0,0:0:0:0:
256,144,20187,1,0,0:0:0:0:
256,144,20716,1,6,0:0:0:0:
256,144,20892,1,6,0:0:0:0:
256,144,21245,1,0,0:0:0:0:
256,144,21599,1,6,0:0:0:0:
256,144,21775,1,6,0:0:0:0:
256,144,22305,1,0,0:0:0:0:
256,144,22658,1,6,0:0:0:0:
256,144,23011,1,6,0:0:0:0:
256,144,23364,1,6,0:0:0:0:
256,144,23717,1,6,0:0:0:0:
256,144,24069,1,0,0:0:0:0:
256,144,24422,1,0,0:0:0:0:
256,144,24775,1,2,0:0:0:0:
256,144,25128,1,2,0:0:0:0:
256,144,25481,1,0,0:0:0:0:
256,144,25834,1,0,0:0:0:0:
256,144,26187,1,2,0:0:0:0:
256,144,26540,1,2,0:0:0:0:
256,144,26893,1,0,0:0:0:0:
256,144,27246,1,0,0:0:0:0:
256,144,27599,1,2,0:0:0:0:
256,144,27952,1,2,0:0:0:0:
256,144,28305,1,0,0:0:0:0:
256,144,29011,1,6,0:0:0:0:
256,144,29364,1,6,0:0:0:0:
256,144,29717,1,0,0:0:0:0:
256,144,30069,1,0,0:0:0:0:
256,144,30422,1,2,0:0:0:0:
256,144,30775,1,2,0:0:0:0:
256,144,31128,1,0,0:0:0:0:
256,144,31481,1,0,0:0:0:0:
256,144,31834,1,2,0:0:0:0:
256,144,32187,1,2,0:0:0:0:
256,144,32540,1,4,0:0:0:0:
256,144,33069,1,6,0:0:0:0:
256,144,33952,1,4,0:0:0:0:
256,144,34481,1,6,0:0:0:0:
256,144,35011,1,6,0:0:0:0:
256,144,35364,1,0,0:0:0:0:
256,144,35717,1,0,0:0:0:0:
256,144,36069,1,2,0:0:0:0:
256,144,36422,1,2,0:0:0:0:
256,144,36775,1,0,0:0:0:0:
256,144,37128,1,0,0:0:0:0:
256,144,37481,1,2,0:0:0:0:
256,144,37834,1,2,0:0:0:0:
256,144,38187,1,0,0:0:0:0:
256,144,38540,1,0,0:0:0:0:
256,144,38893,1,2,0:0:0:0:
256,144,39246,1,2,0:0:0:0:
256,144,39599,1,0,0:0:0:0:
256,144,40305,1,6,0:0:0:0:
256,144,40658,1,6,0:0:0:0:
256,144,41011,1,0,0:0:0:0:
256,144,41364,1,0,0:0:0:0:
256,144,41717,1,2,0:0:0:0:
256,144,42069,1,2,0:0:0:0:
256,144,42422,1,0,0:0:0:0:
256,144,42775,1,0,0:0:0:0:
256,144,43128,1,2,0:0:0:0:
256,144,43481,1,2,0:0:0:0:
256,100,43834,2,0,L|244:56,14,35
256,100,45599,1,0,0:0:0:0:
256,144,45952,1,6,0:0:0:0:
256,144,46305,1,6,0:0:0:0:
256,144,46657,1,0,0:0:0:0:
256,144,47010,1,0,0:0:0:0:
256,144,47363,1,2,0:0:0:0:
256,144,47540,1,2,0:0:0:0:
256,144,47716,1,2,0:0:0:0:
256,144,48069,1,0,0:0:0:0:
256,144,48422,1,2,0:0:0:0:
256,144,48775,1,2,0:0:0:0:
256,144,48952,1,0,0:0:0:0:
256,144,49128,1,2,0:0:0:0:
256,144,49481,1,0,0:0:0:0:
256,144,49834,1,0,0:0:0:0:
256,144,50187,1,2,0:0:0:0:
256,144,50363,1,2,0:0:0:0:
256,144,50540,1,2,0:0:0:0:
256,144,50893,1,0,0:0:0:0:
256,144,51069,1,6,0:0:0:0:
256,144,51246,1,6,0:0:0:0:
256,144,51599,1,0,0:0:0:0:
256,144,51775,1,6,0:0:0:0:
256,144,51952,1,6,0:0:0:0:
256,144,52305,1,0,0:0:0:0:
256,144,52658,1,2,0:0:0:0:
256,144,52834,1,2,0:0:0:0:
256,144,53011,1,0,0:0:0:0:
256,144,53364,1,6,0:0:0:0:
256,144,53717,1,0,0:0:0:0:
256,144,53893,1,2,0:0:0:0:
256,144,54069,1,2,0:0:0:0:
256,144,54246,1,2,0:0:0:0:
256,144,54422,1,0,0:0:0:0:
256,144,54599,1,6,0:0:0:0:
256,144,54775,1,6,0:0:0:0:
256,144,55128,1,0,0:0:0:0:
256,144,55481,1,2,0:0:0:0:
256,144,55658,1,2,0:0:0:0:
256,144,55834,1,0,0:0:0:0:
256,144,56187,1,6,0:0:0:0:
256,144,56540,1,0,0:0:0:0:
256,144,56717,1,0,0:0:0:0:
256,144,56893,1,2,0:0:0:0:
256,144,57069,1,2,0:0:0:0:
256,144,57246,1,0,0:0:0:0:
256,144,57422,1,0,0:0:0:0:
256,144,57599,1,6,0:0:0:0:
256,144,57952,1,0,0:0:0:0:
256,144,58128,1,0,0:0:0:0:
256,144,58305,1,2,0:0:0:0:
256,144,58481,1,2,0:0:0:0:
256,144,58658,1,0,0:0:0:0:
256,144,58834,1,0,0:0:0:0:
256,144,59011,1,2,0:0:0:0:
256,144,59187,1,2,0:0:0:0:
256,144,59364,1,0,0:0:0:0:
256,144,59540,1,0,0:0:0:0:
256,144,59717,1,2,0:0:0:0:
256,144,59893,1,2,0:0:0:0:
256,144,60069,1,0,0:0:0:0:
256,144,60245,1,0,0:0:0:0:
256,144,60422,1,2,0:0:0:0:
256,144,60598,1,2,0:0:0:0:
256,144,60775,1,0,0:0:0:0:
256,144,60864,1,0,0:0:0:0:
256,144,60952,1,2,0:0:0:0:
256,144,61040,1,2,0:0:0:0:
256,144,61128,1,0,0:0:0:0:
256,144,61217,1,0,0:0:0:0:
256,144,61305,1,2,0:0:0:0:
256,144,61393,1,2,0:0:0:0:
256,144,61481,1,0,0:0:0:0:
256,144,61570,1,0,0:0:0:0:
256,144,61658,1,2,0:0:0:0:
256,144,61746,1,2,0:0:0:0:
256,144,61834,1,6,0:0:0:0:
256,144,61923,1,6,0:0:0:0:
256,144,62011,1,6,0:0:0:0:
256,144,62099,1,6,0:0:0:0:
256,144,62187,1,0,0:0:0:0:
256,144,62364,1,0,0:0:0:0:
256,144,62540,1,0,0:0:0:0:
256,144,62893,1,6,0:0:0:0:
256,144,63599,1,4,0:0:0:0:
256,144,63952,1,6,0:0:0:0:
256,144,64128,1,0,0:0:0:0:
256,144,64305,1,0,0:0:0:0:
256,144,64658,1,6,0:0:0:0:
256,144,65011,1,4,0:0:0:0:
256,144,65364,1,6,0:0:0:0:
256,144,65540,1,0,0:0:0:0:
256,144,65717,1,0,0:0:0:0:
256,144,65893,1,0,0:0:0:0:
256,144,66069,1,6,0:0:0:0:
256,144,66422,1,4,0:0:0:0:
256,144,66775,1,6,0:0:0:0:
196,196,66952,1,0,0:0:0:0:
256,144,67128,1,0,0:0:0:0:
256,144,67481,1,6,0:0:0:0:
256,144,67834,1,4,0:0:0:0:
256,144,68187,1,6,0:0:0:0:
256,144,68364,1,0,0:0:0:0:
256,144,68540,1,0,0:0:0:0:
256,144,68717,1,0,0:0:0:0:
256,144,68893,1,6,0:0:0:0:
256,144,69246,1,0,0:0:0:0:
256,144,69599,1,2,0:0:0:0:
256,144,69952,2,0,L|296:132,4,35
256,144,70658,1,6,0:0:0:0:
256,144,71011,1,6,0:0:0:0:
256,144,71364,2,6,L|296:132,4,35
256,144,72069,1,6,0:0:0:0:
256,144,72422,1,0,0:0:0:0:
256,144,72775,1,0,0:0:0:0:
256,144,72952,1,0,0:0:0:0:
256,144,73128,1,0,0:0:0:0:
256,144,73481,1,0,0:0:0:0:
256,144,73834,1,6,0:0:0:0:
256,144,74011,1,4,0:0:0:0:
256,144,74187,1,6,0:0:0:0:
256,144,74540,1,6,0:0:0:0:
256,144,74893,1,0,0:0:0:0:
256,144,74981,1,0,0:0:0:0:
256,144,75069,1,0,0:0:0:0:
256,144,75246,1,6,0:0:0:0:
256,144,75422,1,6,0:0:0:0:
256,144,75599,1,0,0:0:0:0:
256,144,75687,1,0,0:0:0:0:
256,144,75775,1,0,0:0:0:0:
256,144,75952,1,6,0:0:0:0:
256,144,76128,1,6,0:0:0:0:
256,144,76305,1,0,0:0:0:0:
256,144,76393,1,0,0:0:0:0:
256,144,76481,1,0,0:0:0:0:
256,144,76658,1,6,0:0:0:0:
256,144,76834,1,6,0:0:0:0:
256,144,77011,1,0,0:0:0:0:
256,144,77099,1,0,0:0:0:0:
256,144,77187,1,0,0:0:0:0:
256,144,77275,1,0,0:0:0:0:
256,144,77364,1,6,0:0:0:0:
256,144,77717,1,0,0:0:0:0:
256,144,77805,1,2,0:0:0:0:
256,144,77893,1,0,0:0:0:0:
256,144,78069,1,6,0:0:0:0:
256,144,78246,1,6,0:0:0:0:
256,144,78422,1,0,0:0:0:0:
256,144,78511,1,2,0:0:0:0:
256,144,78599,1,0,0:0:0:0:
256,144,78775,1,6,0:0:0:0:
256,144,78952,1,6,0:0:0:0:
256,144,79128,1,0,0:0:0:0:
256,144,79217,1,2,0:0:0:0:
256,144,79305,1,0,0:0:0:0:
256,144,79481,1,6,0:0:0:0:
256,144,79658,1,6,0:0:0:0:
256,144,79834,1,0,0:0:0:0:
256,144,79922,1,2,0:0:0:0:
256,144,80011,1,0,0:0:0:0:
256,144,80099,1,6,0:0:0:0:
256,144,80187,1,6,0:0:0:0:
256,144,80540,1,0,0:0:0:0:
256,144,80717,1,0,0:0:0:0:
256,144,80893,1,2,0:0:0:0:
256,144,81069,1,2,0:0:0:0:
256,144,81246,1,0,0:0:0:0:
256,144,81422,1,0,0:0:0:0:
256,144,81599,1,2,0:0:0:0:
256,144,81775,1,2,0:0:0:0:
256,144,81952,1,0,0:0:0:0:
256,144,82128,1,0,0:0:0:0:
256,144,82305,1,2,0:0:0:0:
256,144,82481,1,2,0:0:0:0:
256,144,82658,1,0,0:0:0:0:
256,144,82834,1,0,0:0:0:0:
256,144,83011,1,6,0:0:0:0:
256,144,83364,1,0,0:0:0:0:
256,144,83540,1,2,0:0:0:0:
256,144,83717,1,0,0:0:0:0:
256,144,83893,1,2,0:0:0:0:
256,144,84069,1,0,0:0:0:0:
256,144,84246,1,2,0:0:0:0:
256,144,84422,1,0,0:0:0:0:
256,144,84599,1,2,0:0:0:0:
256,144,84775,1,4,0:0:0:0:
256,144,84952,1,4,0:0:0:0:
256,144,85128,1,6,0:0:0:0:
256,144,86187,1,0,0:0:0:0:
256,144,86540,1,0,0:0:0:0:
256,144,87069,1,6,0:0:0:0:
256,144,87246,1,6,0:0:0:0:
256,144,87599,1,0,0:0:0:0:
256,144,87952,1,0,0:0:0:0:
256,144,88481,1,4,0:0:0:0:
256,144,88658,1,6,0:0:0:0:
256,144,89011,1,2,0:0:0:0:
256,144,89187,1,2,0:0:0:0:
256,144,89364,1,2,0:0:0:0:
256,144,89893,1,4,0:0:0:0:
256,144,90069,1,6,0:0:0:0:
256,144,90422,1,2,0:0:0:0:
256,144,90599,1,2,0:0:0:0:
256,144,90775,1,2,0:0:0:0:
256,144,91305,1,6,0:0:0:0:
256,144,91393,1,6,0:0:0:0:
256,144,91481,1,6,0:0:0:0:
256,144,91834,1,0,0:0:0:0:
256,144,92187,1,0,0:0:0:0:
256,144,92717,1,6,0:0:0:0:
256,144,92893,1,6,0:0:0:0:
256,144,93246,1,0,0:0:0:0:
256,144,93422,1,2,0:0:0:0:
256,144,93599,1,0,0:0:0:0:
256,144,94128,1,0,0:0:0:0:
256,144,94305,1,6,0:0:0:0:
256,144,94658,1,0,0:0:0:0:
256,144,94834,1,2,0:0:0:0:
256,144,95011,1,0,0:0:0:0:
256,144,95187,1,2,0:0:0:0:
256,144,95540,1,4,0:0:0:0:
256,144,95628,1,4,0:0:0:0:
256,144,95717,1,6,0:0:0:0:
256,144,96069,1,0,0:0:0:0:
256,144,96246,1,2,0:0:0:0:
256,144,96422,1,0,0:0:0:0:
256,144,96599,1,2,0:0:0:0:
256,144,96775,1,0,0:0:0:0:
256,144,96952,1,0,0:0:0:0:
256,144,97040,1,0,0:0:0:0:
256,144,97128,1,6,0:0:0:0:
256,144,97481,1,0,0:0:0:0:
256,144,97658,1,0,0:0:0:0:
256,144,97834,1,2,0:0:0:0:
256,144,98011,1,2,0:0:0:0:
256,144,98187,1,0,0:0:0:0:
256,144,98364,1,0,0:0:0:0:
256,144,98540,1,2,0:0:0:0:
256,144,98717,1,2,0:0:0:0:
256,144,98893,1,0,0:0:0:0:
256,144,99069,1,0,0:0:0:0:
256,144,99246,1,2,0:0:0:0:
256,144,99422,1,2,0:0:0:0:
256,144,99599,1,4,0:0:0:0:
256,144,99775,1,6,0:0:0:0:
256,144,99952,1,4,0:0:0:0:
256,144,100128,1,6,0:0:0:0:
256,144,100305,1,0,0:0:0:0:
256,144,100481,1,0,0:0:0:0:
256,144,100658,1,2,0:0:0:0:
256,144,100834,1,2,0:0:0:0:
256,144,101011,1,0,0:0:0:0:
256,144,101187,1,0,0:0:0:0:
256,144,101364,1,2,0:0:0:0:
256,144,101540,1,2,0:0:0:0:
256,144,101717,1,0,0:0:0:0:
256,144,101893,1,0,0:0:0:0:
256,144,102069,1,2,0:0:0:0:
256,144,102246,1,2,0:0:0:0:
256,144,102422,1,0,0:0:0:0:
256,144,102599,1,0,0:0:0:0:
256,144,102687,1,0,0:0:0:0:
256,144,102775,1,6,0:0:0:0:
256,144,103128,1,0,0:0:0:0:
256,144,103305,1,0,0:0:0:0:
256,144,103481,1,2,0:0:0:0:
256,144,103658,1,2,0:0:0:0:
256,144,103834,1,0,0:0:0:0:
256,144,104011,1,2,0:0:0:0:
256,144,104364,1,2,0:0:0:0:
256,144,104540,1,0,0:0:0:0:
256,144,104717,1,0,0:0:0:0:
256,144,104893,1,2,0:0:0:0:
256,144,105246,1,2,0:0:0:0:
256,144,105599,1,2,0:0:0:0:
256,144,105775,1,2,0:0:0:0:
256,144,105952,1,0,0:0:0:0:
256,144,106305,1,6,0:0:0:0:
256,144,106481,1,6,0:0:0:0:
256,144,106834,1,4,0:0:0:0:
256,144,107187,1,6,0:0:0:0:
256,144,107540,1,6,0:0:0:0:
256,144,107717,1,6,0:0:0:0:
256,192,108775,12,0,110011,0:0:0:0:
256,144,110187,5,4,0:0:0:0:
256,144,111599,1,6,0:0:0:0:
256,144,111687,1,6,0:0:0:0:
256,144,111775,1,6,0:0:0:0:
256,144,116011,5,0,0:0:0:0:
256,144,116099,1,0,0:0:0:0:
256,144,116187,1,0,0:0:0:0:
