osu file format v14

[General]
AudioFilename: audio.mp3
AudioLeadIn: 0
PreviewTime: 63246
Countdown: 0
SampleSet: None
StackLeniency: 0.7
Mode: 1
LetterboxInBreaks: 0
WidescreenStoryboard: 1

[Editor]
DistanceSpacing: 1.1
BeatDivisor: 4
GridSize: 4
TimelineZoom: 1.8

[Metadata]
Title:Now on stage!!!
TitleUnicode:Now on stage!!!
Artist:nonet
ArtistUnicode:nonet
Creator:kanekku43
Version:Hard
Source:
Tags:
BeatmapID:1440195
BeatmapSetID:680869

[Difficulty]
HPDrainRate:5
CircleSize:5
OverallDifficulty:7
ApproachRate:4
SliderMultiplier:1.4
SliderTickRate:1

[Events]
//Background and Video events
//Break Periods
//Storyboard Layer 0 (Background)
//Storyboard Layer 1 (Fail)
//Storyboard Layer 2 (Pass)
//Storyboard Layer 3 (Foreground)
//Storyboard Sound Samples

[TimingPoints]
70,352.941176470588,4,1,0,100,1,0

[HitObjects]
256,192,1481,5,0,0:0:0:0:
256,192,1834,1,2,0:0:0:0:
256,192,2187,1,0,0:0:0:0:
256,192,2364,1,0,0:0:0:0:
256,192,2540,1,2,0:0:0:0:
256,192,2893,1,0,0:0:0:0:
256,192,3246,1,2,0:0:0:0:
256,192,3422,1,0,0:0:0:0:
256,192,3599,1,0,0:0:0:0:
256,192,3952,1,6,0:0:0:0:
256,192,4305,1,0,0:0:0:0:
256,192,4658,1,2,0:0:0:0:
256,192,5011,1,0,0:0:0:0:
256,192,5187,1,2,0:0:0:0:
256,192,5364,1,2,0:0:0:0:
256,192,5717,1,0,0:0:0:0:
256,192,6069,1,2,0:0:0:0:
256,192,6246,1,0,0:0:0:0:
256,192,6422,1,6,0:0:0:0:
256,192,6775,1,6,0:0:0:0:
256,192,7128,1,0,0:0:0:0:
256,192,7481,1,2,0:0:0:0:
256,192,7834,1,0,0:0:0:0:
256,192,8011,1,2,0:0:0:0:
256,192,8187,1,2,0:0:0:0:
256,192,8540,1,0,0:0:0:0:
256,192,8717,1,0,0:0:0:0:
256,192,8893,1,2,0:0:0:0:
256,192,9069,1,0,0:0:0:0:
256,192,9246,1,0,0:0:0:0:
256,192,9599,1,6,0:0:0:0:
256,192,9952,1,0,0:0:0:0:
256,192,10128,1,0,0:0:0:0:
256,192,10305,1,2,0:0:0:0:
256,192,10658,1,0,0:0:0:0:
256,192,10834,1,0,0:0:0:0:
256,192,11011,1,2,0:0:0:0:
256,192,11364,1,0,0:0:0:0:
256,192,11540,1,6,0:0:0:0:
256,192,11717,1,6,0:0:0:0:
256,192,12775,1,0,0:0:0:0:
256,192,13658,1,6,0:0:0:0:
256,192,13834,1,6,0:0:0:0:
256,192,14187,1,0,0:0:0:0:
256,192,15069,1,6,0:0:0:0:
256,192,15246,1,6,0:0:0:0:
256,192,15599,1,0,0:0:0:0:
256,192,16481,1,6,0:0:0:0:
256,192,16658,1,6,0:0:0:0:
256,192,17011,1,0,0:0:0:0:
256,192,17364,1,2,0:0:0:0:
256,192,17540,1,0,0:0:0:0:
256,192,17717,1,0,0:0:0:0:
256,192,18069,1,6,0:0:0:0:
256,192,18422,1,0,0:0:0:0:
256,192,19305,1,6,0:0:0:0:
256,192,19481,1,6,0:0:0:0:
256,192,19834,1,0,0:0:0:0:
256,192,20717,1,6,0:0:0:0:
256,192,20893,1,6,0:0:0:0:
256,192,21246,1,0,0:0:0:0:
256,192,21599,1,6,0:0:0:0:
256,192,21775,1,6,0:0:0:0:
256,192,22128,1,2,0:0:0:0:
256,192,22481,1,0,0:0:0:0:
256,192,22834,1,6,0:0:0:0:
256,192,23364,1,0,0:0:0:0:
256,192,23717,1,0,0:0:0:0:
256,192,24069,1,0,0:0:0:0:
256,192,24422,1,0,0:0:0:0:
256,192,24775,1,2,0:0:0:0:
256,192,25128,1,2,0:0:0:0:
256,192,25481,1,0,0:0:0:0:
256,192,25834,1,0,0:0:0:0:
256,192,26187,1,2,0:0:0:0:
256,192,26540,1,2,0:0:0:0:
256,192,26893,1,0,0:0:0:0:
256,192,27246,1,0,0:0:0:0:
256,192,27599,1,2,0:0:0:0:
256,192,27952,1,2,0:0:0:0:
256,192,28305,1,0,0:0:0:0:
256,192,29011,1,6,0:0:0:0:
256,192,29364,1,6,0:0:0:0:
256,192,29717,1,0,0:0:0:0:
256,192,30069,1,0,0:0:0:0:
256,192,30423,1,2,0:0:0:0:
256,192,30775,1,2,0:0:0:0:
256,192,31129,1,0,0:0:0:0:
256,192,31481,1,0,0:0:0:0:
256,192,31834,1,2,0:0:0:0:
256,192,32187,1,2,0:0:0:0:
256,192,32540,1,4,0:0:0:0:
256,192,33069,2,0,L|548:152,1,280
256,192,33952,1,4,0:0:0:0:
256,192,34481,2,0,L|556:180,1,280
256,192,35364,1,0,0:0:0:0:
256,192,35717,1,0,0:0:0:0:
256,192,36070,1,2,0:0:0:0:
256,192,36423,1,2,0:0:0:0:
256,192,36776,1,0,0:0:0:0:
256,192,37129,1,0,0:0:0:0:
256,192,37482,1,2,0:0:0:0:
256,192,37835,1,2,0:0:0:0:
256,192,38188,1,0,0:0:0:0:
256,192,38541,1,0,0:0:0:0:
256,192,38894,1,2,0:0:0:0:
256,192,39247,1,2,0:0:0:0:
256,192,39600,1,0,0:0:0:0:
256,192,40306,1,6,0:0:0:0:
256,192,40659,1,6,0:0:0:0:
256,192,41012,1,0,0:0:0:0:
256,192,41364,1,0,0:0:0:0:
256,192,41718,1,2,0:0:0:0:
256,192,42070,1,2,0:0:0:0:
256,192,42424,1,0,0:0:0:0:
256,192,42776,1,0,0:0:0:0:
256,192,43129,1,2,0:0:0:0:
256,192,43482,1,2,0:0:0:0:
256,192,43834,2,0,L|544:188,1,280
228,192,45246,2,0,L|516:192,1,280
256,192,46658,1,0,0:0:0:0:
256,192,47364,1,6,0:0:0:0:
256,192,47717,1,6,0:0:0:0:
256,192,48069,1,0,0:0:0:0:
256,192,48775,1,6,0:0:0:0:
256,192,49128,1,6,0:0:0:0:
256,192,49481,1,0,0:0:0:0:
256,192,50187,1,6,0:0:0:0:
256,192,50540,1,6,0:0:0:0:
256,192,50893,1,0,0:0:0:0:
256,192,51599,1,6,0:0:0:0:
256,192,51775,1,6,0:0:0:0:
256,192,51952,1,6,0:0:0:0:
256,192,52305,1,0,0:0:0:0:
256,192,52658,1,2,0:0:0:0:
256,192,53011,1,0,0:0:0:0:
256,192,53187,1,0,0:0:0:0:
256,192,53364,1,2,0:0:0:0:
256,192,53717,1,0,0:0:0:0:
256,192,54069,1,2,0:0:0:0:
256,192,54422,1,0,0:0:0:0:
256,192,54599,1,6,0:0:0:0:
256,192,54775,1,6,0:0:0:0:
256,192,55128,1,0,0:0:0:0:
256,192,55481,1,2,0:0:0:0:
256,192,55834,1,0,0:0:0:0:
256,192,56010,1,0,0:0:0:0:
256,192,56187,1,2,0:0:0:0:
256,192,56540,1,0,0:0:0:0:
256,192,56716,1,0,0:0:0:0:
256,192,56892,1,2,0:0:0:0:
256,192,57069,1,2,0:0:0:0:
256,192,57245,1,0,0:0:0:0:
256,192,57422,1,0,0:0:0:0:
256,192,57599,1,6,0:0:0:0:
256,192,57952,2,0,L|504:192,1,210
256,192,58658,2,0,L|468:192,1,210
256,192,59364,2,0,L|468:192,1,210
256,192,60069,2,0,L|472:192,1,210
256,192,60775,2,0,P|488:192|440:116,1,490
256,192,62187,1,4,0:0:0:0:
256,192,62364,1,4,0:0:0:0:
256,192,62540,1,4,0:0:0:0:
256,192,62893,1,6,0:0:0:0:
256,192,62981,12,6,63511,0:0:0:0:
256,192,63599,5,0,0:0:0:0:
256,192,63952,1,2,0:0:0:0:
256,192,64305,1,0,0:0:0:0:
256,192,64482,1,0,0:0:0:0:
256,192,64658,1,2,0:0:0:0:
256,192,65011,1,0,0:0:0:0:
256,192,65364,1,2,0:0:0:0:
256,192,65540,1,0,0:0:0:0:
256,192,65717,1,0,0:0:0:0:
256,192,66070,1,6,0:0:0:0:
256,192,66423,1,0,0:0:0:0:
256,192,66776,1,2,0:0:0:0:
256,192,67129,1,0,0:0:0:0:
256,192,67305,1,2,0:0:0:0:
256,192,67482,1,2,0:0:0:0:
256,192,67835,1,0,0:0:0:0:
256,192,68187,1,2,0:0:0:0:
256,192,68364,1,0,0:0:0:0:
256,192,68540,1,6,0:0:0:0:
256,192,68893,1,6,0:0:0:0:
256,192,69246,1,0,0:0:0:0:
256,192,69599,1,0,0:0:0:0:
256,192,69952,2,0,L|416:192,1,140
256,192,70658,1,0,0:0:0:0:
256,192,71011,1,0,0:0:0:0:
256,192,71364,2,0,L|424:196,1,140
248,192,72069,1,0,0:0:0:0:
248,192,72422,1,0,0:0:0:0:
256,192,72775,2,0,L|416:192,1,140
260,192,73481,1,0,0:0:0:0:
260,192,73658,1,6,0:0:0:0:
260,192,73834,1,0,0:0:0:0:
260,192,74187,1,6,0:0:0:0:
256,192,74275,12,6,74805,0:0:0:0:
256,192,74893,5,0,0:0:0:0:
256,192,75246,1,2,0:0:0:0:
256,192,75599,1,0,0:0:0:0:
256,192,75776,1,0,0:0:0:0:
256,192,75952,1,2,0:0:0:0:
256,192,76305,1,0,0:0:0:0:
256,192,76658,1,2,0:0:0:0:
256,192,76834,1,0,0:0:0:0:
256,192,77011,1,0,0:0:0:0:
256,192,77364,1,6,0:0:0:0:
256,192,77717,1,0,0:0:0:0:
256,192,78070,1,2,0:0:0:0:
256,192,78423,1,0,0:0:0:0:
256,192,78599,1,2,0:0:0:0:
256,192,78776,1,2,0:0:0:0:
256,192,79129,1,0,0:0:0:0:
256,192,79481,1,2,0:0:0:0:
256,192,79658,1,0,0:0:0:0:
256,192,79834,1,6,0:0:0:0:
256,192,80187,1,6,0:0:0:0:
256,192,80540,1,0,0:0:0:0:
256,192,80717,1,0,0:0:0:0:
256,192,80893,1,0,0:0:0:0:
256,192,81246,1,2,0:0:0:0:
256,192,81422,1,2,0:0:0:0:
256,192,81599,1,2,0:0:0:0:
256,192,81952,1,0,0:0:0:0:
256,192,82128,1,0,0:0:0:0:
256,192,82305,1,2,0:0:0:0:
256,192,82658,1,0,0:0:0:0:
256,192,82834,1,2,0:0:0:0:
256,192,83011,1,2,0:0:0:0:
256,192,83364,1,0,0:0:0:0:
256,192,83540,1,0,0:0:0:0:
256,192,83717,1,0,0:0:0:0:
256,192,84069,1,2,0:0:0:0:
256,192,84246,1,2,0:0:0:0:
256,192,84422,1,2,0:0:0:0:
256,192,84775,1,0,0:0:0:0:
256,192,84952,1,6,0:0:0:0:
256,192,85128,1,6,0:0:0:0:
256,192,86187,1,0,0:0:0:0:
256,192,87070,1,6,0:0:0:0:
256,192,87246,1,6,0:0:0:0:
256,192,87599,1,0,0:0:0:0:
256,192,88481,1,6,0:0:0:0:
256,192,88658,1,6,0:0:0:0:
256,192,89011,1,0,0:0:0:0:
256,192,89893,1,6,0:0:0:0:
256,192,90070,1,6,0:0:0:0:
256,192,90423,1,0,0:0:0:0:
256,192,90776,1,2,0:0:0:0:
256,192,90952,1,0,0:0:0:0:
256,192,91128,1,0,0:0:0:0:
256,192,91481,1,6,0:0:0:0:
256,192,91834,1,0,0:0:0:0:
256,192,92717,1,6,0:0:0:0:
256,192,92893,1,6,0:0:0:0:
256,192,93246,1,0,0:0:0:0:
256,192,94129,1,6,0:0:0:0:
256,192,94305,1,6,0:0:0:0:
256,192,94658,1,0,0:0:0:0:
256,192,95011,1,6,0:0:0:0:
256,192,95187,1,6,0:0:0:0:
256,192,95540,1,0,0:0:0:0:
256,192,95893,1,0,0:0:0:0:
256,192,96246,1,6,0:0:0:0:
256,192,97129,1,2,0:0:0:0:
256,192,97305,1,2,0:0:0:0:
256,192,97481,1,0,0:0:0:0:
256,192,98364,1,6,0:0:0:0:
256,192,98540,1,6,0:0:0:0:
256,192,98893,1,0,0:0:0:0:
256,192,99775,1,6,0:0:0:0:
256,192,99952,1,6,0:0:0:0:
256,192,100305,1,0,0:0:0:0:
256,192,101187,1,6,0:0:0:0:
256,192,101364,1,6,0:0:0:0:
256,192,101717,1,0,0:0:0:0:
256,192,102070,1,2,0:0:0:0:
256,192,102246,1,0,0:0:0:0:
256,192,102422,1,0,0:0:0:0:
256,192,102775,1,6,0:0:0:0:
256,192,103128,1,0,0:0:0:0:
256,192,104011,1,6,0:0:0:0:
256,192,104187,1,6,0:0:0:0:
256,192,104540,1,0,0:0:0:0:
256,192,105423,1,6,0:0:0:0:
256,192,105599,1,6,0:0:0:0:
256,192,105952,1,0,0:0:0:0:
256,192,106305,1,6,0:0:0:0:
256,192,106481,1,6,0:0:0:0:
256,192,106834,1,0,0:0:0:0:
256,192,107187,1,6,0:0:0:0:
256,192,110187,12,0,116187,0:0:0:0:
