osu file format v14

[General]
AudioFilename: audio.mp3
AudioLeadIn: 0
PreviewTime: 63076
Countdown: 0
SampleSet: Soft
StackLeniency: 0.3
Mode: 0
LetterboxInBreaks: 0
WidescreenStoryboard: 1

[Editor]
Bookmarks: 1400,12694,23988,29282,35282,46576,52223,57870,63517,86105,97399,119988,125635,131282,136929,159517,170811,187752,196223,207517,218811,230105,242811
DistanceSpacing: 1.6
BeatDivisor: 4
GridSize: 32
TimelineZoom: 2.1

[Metadata]
Title:Now On Stage!!
TitleUnicode:Now On Stage!!
Artist:nonet
ArtistUnicode:nonet
Creator:buckfro
Version:Expert
Source:ガールフレンド(♪)
Tags:girlfriend note onpu kari 村上文緒 Murakami Fumio クロエ・ルメール Chloe Lemaire 椎名心実 Shiina Kokomi 鴫野睦 Shigino Mutsumi 朝比奈桃子 Momoko Asahina 風町陽歌 Haruka Kazemachi 櫻井明音 Akane Sakurai 神楽坂砂夜 Kagurazaka Saya 名塚佳織 Kaori Nazuka 丹下桜 Tange Sakura 佐藤聡美 Satomi Sato 津田美波 Tsuda Minami 小倉唯 Ogura Yui 早見沙織 Hayami Saori 佐藤利奈 Rina Sato 寿美菜子 Kotobuki Minako livetune ameba mug japanese pop jpop j-pop video game riana full ver version anime op opening kz
BeatmapID:3193258
BeatmapSetID:1563733

[Difficulty]
HPDrainRate:6
CircleSize:4.5
OverallDifficulty:9
ApproachRate:9.2
SliderMultiplier:2
SliderTickRate:1

[Events]
//Background and Video events
0,0,"bg.jpg",0,0
//Break Periods
//Storyboard Layer 0 (Background)
//Storyboard Layer 1 (Fail)
//Storyboard Layer 2 (Pass)
//Storyboard Layer 3 (Foreground)
//Storyboard Layer 4 (Overlay)
//Storyboard Sound Samples

[TimingPoints]
1400,352.941176470588,4,2,1,45,1,0
1400,-142.857142857143,4,2,1,45,0,0
1841,-142.857142857143,4,2,99,5,0,0
1929,-142.857142857143,4,2,1,45,0,0
2105,-250,4,2,1,45,0,0
2811,-125,4,2,1,45,0,0
3517,-166.666666666667,4,2,1,45,0,0
3782,-166.666666666667,4,2,99,5,0,0
3870,-200,4,2,1,45,0,0
4135,-200,4,2,99,5,0,0
4223,-125,4,2,1,45,0,0
4664,-125,4,2,99,5,0,0
4752,-125,4,2,1,45,0,0
4929,-250.000000000001,4,2,1,45,0,0
5635,-142.857142857143,4,2,1,45,0,0
5899,-142.857142857143,4,2,99,5,0,0
5988,-142.857142857143,4,2,1,45,0,0
6429,-142.857142857143,4,2,2,45,0,0
7047,-142.857142857143,4,2,1,65,0,0
8723,-142.857142857143,4,2,99,5,0,0
8811,-142.857142857143,4,2,1,65,0,0
9164,-166.666666666667,4,2,1,65,0,0
9605,-166.666666666667,4,2,99,5,0,0
9694,-166.666666666667,4,2,1,65,0,0
10929,-142.857142857143,4,2,1,65,0,0
12341,-333.333333333334,4,2,1,65,0,0
12605,-333.333333333334,4,2,99,5,0,0
12694,-90.9090909090909,4,2,2,80,0,0
12958,-90.9090909090909,4,2,99,5,0,0
13047,-90.9090909090909,4,2,2,80,0,0
13135,-90.9090909090909,4,2,99,5,0,0
13223,-90.9090909090909,4,2,2,80,0,0
13488,-90.9090909090909,4,2,99,5,0,0
13576,-90.9090909090909,4,2,2,80,0,0
13752,-166.666666666667,4,2,2,80,0,0
14017,-166.666666666667,4,2,99,5,0,0
14105,-166.666666666667,4,2,2,80,0,0
14635,-90.909090909091,4,2,2,80,0,0
14899,-90.909090909091,4,2,99,5,0,0
14988,-90.909090909091,4,2,2,80,0,0
15341,-90.909090909091,4,2,2,65,0,0
15782,-90.909090909091,4,2,99,5,0,0
15870,-90.909090909091,4,2,2,80,0,0
15958,-90.909090909091,4,2,99,5,0,0
16047,-90.909090909091,4,2,2,80,0,0
17017,-90.909090909091,4,2,99,5,0,0
17105,-90.909090909091,4,2,2,80,0,0
17194,-90.909090909091,4,2,99,5,0,0
17282,-90.909090909091,4,2,2,80,0,0
17635,-333.333333333333,4,2,2,80,0,0
17899,-333.333333333333,4,2,99,5,0,0
17988,-166.666666666667,4,2,2,80,0,0
18252,-166.666666666667,4,2,99,5,0,0
18341,-90.9090909090909,4,2,2,80,0,0
18605,-90.9090909090909,4,2,99,5,0,0
18694,-90.9090909090909,4,2,2,80,0,0
18782,-90.9090909090909,4,2,99,5,0,0
18870,-90.9090909090909,4,2,2,80,0,0
19135,-90.9090909090909,4,2,99,5,0,0
19223,-90.9090909090909,4,2,2,80,0,0
19399,-166.666666666667,4,2,2,80,0,0
19664,-166.666666666667,4,2,99,5,0,0
19752,-166.666666666667,4,2,2,80,0,0
20282,-90.909090909091,4,2,2,80,0,0
20547,-90.909090909091,4,2,99,5,0,0
20635,-90.909090909091,4,2,2,80,0,0
21164,-90.909090909091,4,2,2,65,0,0
21341,-90.909090909091,4,2,2,80,0,0
22223,-90.909090909091,4,2,3,65,0,0
22399,-111.111111111111,4,2,2,80,0,0
22841,-111.111111111111,4,2,99,5,0,0
22929,-133.333333333333,4,2,2,80,0,0
23635,-86.9565217391304,4,2,2,80,0,0
23988,-86.9565217391304,4,2,5,60,0,0
25223,-125,4,2,5,60,0,0
29282,-250,4,2,5,60,0,0
29547,-250,4,2,99,5,0,0
29635,-125,4,2,5,60,0,0
29899,-125,4,2,99,5,0,0
29988,-500,4,2,5,60,0,0
30252,-500,4,2,99,5,0,0
30341,-125,4,2,5,60,0,0
30605,-125,4,2,99,5,0,0
30694,-500,4,2,5,60,0,0
31047,-125,4,2,5,60,0,0
31311,-125,4,2,99,5,0,0
31399,-500,4,2,5,60,0,0
31664,-500,4,2,99,5,0,0
31752,-125,4,2,5,60,0,0
32017,-125,4,2,99,5,0,0
32105,-500,4,2,5,60,0,0
32370,-500,4,2,99,5,0,0
32458,-125,4,2,5,60,0,0
34399,-125,4,2,1,60,0,0
34929,-200,4,2,1,60,0,0
35194,-200,4,2,99,5,0,0
35282,-111.111111111111,4,2,5,65,0,0
38635,-142.857142857143,4,2,5,65,0,0
38988,-99.9999999999999,4,2,5,65,0,0
39517,-111.111111111111,4,2,5,65,0,0
40223,-125,4,2,5,65,0,0
40488,-125,4,2,99,5,0,0
40576,-166.666666666666,4,2,5,65,0,0
40841,-166.666666666666,4,2,99,5,0,0
40929,-111.111111111111,4,2,5,65,0,0
43047,-125,4,2,5,65,0,0
43311,-125,4,2,99,5,0,0
43399,-166.666666666666,4,2,5,65,0,0
43664,-166.666666666666,4,2,99,5,0,0
43752,-111.111111111111,4,2,5,65,0,0
44017,-111.111111111111,4,2,99,5,0,0
44105,-111.111111111111,4,2,5,65,0,0
46135,-111.111111111111,4,2,99,5,0,0
46223,-166.666666666666,4,2,3,65,0,0
46488,-166.666666666666,4,2,99,5,0,0
46576,-166.666666666666,4,2,6,70,0,0
47282,-100,4,2,6,70,0,0
47547,-100,4,2,99,5,0,0
47635,-100,4,2,6,70,0,0
48605,-100,4,2,99,5,0,0
48694,-100,4,2,6,70,0,0
48782,-100,4,2,99,5,0,0
48870,-100,4,2,6,70,0,0
48958,-100,4,2,99,5,0,0
49047,-125,4,2,6,70,0,0
49311,-125,4,2,99,5,0,0
49399,-125,4,2,6,70,0,0
49752,-100,4,2,6,70,0,0
50017,-100,4,2,99,5,0,0
50105,-166.666666666667,4,2,6,70,0,0
50370,-166.666666666667,4,2,99,5,0,0
50458,-166.666666666667,4,2,6,70,0,0
52223,-125,4,2,2,75,0,0
52488,-125,4,2,99,5,0,0
52576,-90.9090909090909,4,2,2,75,0,0
52841,-90.9090909090909,4,2,99,5,0,0
52929,-90.9090909090909,4,2,2,75,0,0
53282,-166.666666666667,4,2,2,75,0,0
53547,-166.666666666667,4,2,99,5,0,0
53635,-125,4,2,2,75,0,0
53899,-125,4,2,99,5,0,0
53988,-90.9090909090909,4,2,2,75,0,0
54252,-90.9090909090909,4,2,99,5,0,0
54341,-90.9090909090909,4,2,2,75,0,0
55311,-90.9090909090909,4,2,99,5,0,0
55399,-250,4,2,2,75,0,0
55664,-250,4,2,99,5,0,0
55752,-250,4,2,2,75,0,0
56105,-166.666666666667,4,2,2,75,0,0
56370,-166.666666666667,4,2,99,5,0,0
56458,-125,4,2,2,75,0,0
56723,-125,4,2,99,5,0,0
56811,-90.9090909090909,4,2,2,75,0,0
57076,-90.9090909090909,4,2,99,5,0,0
57164,-90.9090909090909,4,2,2,75,0,0
57517,-250,4,2,2,75,0,0
57782,-250,4,2,99,5,0,0
57870,-250,4,2,5,80,0,0
59282,-83.3333333333333,4,2,5,80,0,0
59547,-83.3333333333333,4,2,99,5,0,0
59635,-83.3333333333333,4,2,5,80,0,0
60694,-142.857142857143,4,2,5,80,0,0
60958,-142.857142857143,4,2,99,5,0,0
61047,-142.857142857143,4,2,5,80,0,0
62458,-100,4,2,5,80,0,0
62723,-100,4,2,99,5,0,0
62811,-166.666666666667,4,2,5,80,0,0
63076,-166.666666666667,4,2,99,5,0,0
63164,-111.111111111111,4,2,5,80,0,0
63429,-111.111111111111,4,2,99,5,0,0
63517,-83.3333333333333,4,2,5,85,0,0
63782,-83.3333333333333,4,2,99,5,0,0
63870,-142.857142857143,4,2,5,85,0,0
63958,-142.857142857143,4,2,99,5,0,0
64047,-142.857142857143,4,2,5,85,0,0
64223,-83.3333333333333,4,2,2,85,0,0
64488,-83.3333333333333,4,2,99,5,0,0
64576,-125,4,2,2,85,0,0
64841,-125,4,2,99,5,0,0
64929,-83.3333333333333,4,2,6,85,0,0
65194,-83.3333333333333,4,2,99,5,0,0
65282,-142.857142857143,4,2,6,85,0,0
65370,-142.857142857143,4,2,99,5,0,0
65458,-142.857142857143,4,2,6,85,0,0
65635,-142.857142857143,4,2,2,85,0,0
65988,-250,4,2,2,85,0,0
66252,-250,4,2,99,5,0,0
66341,-83.3333333333333,4,2,6,85,0,0
66605,-83.3333333333333,4,2,99,5,0,0
66694,-142.857142857143,4,2,6,85,0,0
66782,-142.857142857143,4,2,99,5,0,0
66870,-142.857142857143,4,2,6,85,0,0
67047,-142.857142857143,4,2,2,85,0,0
67664,-142.857142857143,4,2,99,5,0,0
67752,-71.4285714285714,4,2,6,85,0,0
68017,-71.4285714285714,4,2,99,5,0,0
68105,-100,4,2,6,85,0,0
68370,-100,4,2,99,5,0,0
68458,-100,4,2,6,85,0,0
68811,-76.9230769230769,4,2,6,85,0,0
69076,-76.9230769230769,4,2,99,5,0,0
69164,-333.333333333333,4,2,5,85,0,0
69429,-333.333333333333,4,2,99,5,0,0
69517,-90.9090909090909,4,2,5,85,0,0
69782,-90.9090909090909,4,2,99,5,0,0
69870,-90.9090909090909,4,2,6,85,0,0
70576,-125,4,2,5,85,0,0
70841,-125,4,2,99,5,0,0
70929,-83.3333333333333,4,2,5,85,0,0
71194,-83.3333333333333,4,2,99,5,0,0
71282,-83.3333333333333,4,2,6,85,0,0
71635,-166.666666666667,4,2,6,85,0,0
71899,-166.666666666667,4,2,99,5,0,0
71988,-166.666666666667,4,2,5,85,0,0
72517,-76.9230769230769,4,2,5,85,0,0
73752,-250,4,2,5,85,0,0
74017,-250,4,2,99,5,0,0
74105,-125,4,2,5,85,0,0
74370,-125,4,2,99,5,0,0
74458,-71.4285714285714,4,2,5,85,0,0
74723,-71.4285714285714,4,2,99,5,0,0
74811,-83.3333333333333,4,2,5,85,0,0
75076,-83.3333333333333,4,2,99,5,0,0
75164,-142.857142857143,4,2,5,85,0,0
75252,-142.857142857143,4,2,99,5,0,0
75341,-142.857142857143,4,2,5,85,0,0
75517,-142.857142857143,4,2,2,85,0,0
75870,-125,4,2,2,85,0,0
76135,-125,4,2,99,5,0,0
76223,-83.3333333333333,4,2,6,85,0,0
76488,-83.3333333333333,4,2,99,5,0,0
76576,-142.857142857143,4,2,6,85,0,0
76664,-142.857142857143,4,2,99,5,0,0
76752,-142.857142857143,4,2,6,85,0,0
76929,-142.857142857143,4,2,2,85,0,0
77282,-250,4,2,2,85,0,0
77547,-250,4,2,99,5,0,0
77635,-83.3333333333333,4,2,6,85,0,0
77899,-83.3333333333333,4,2,99,5,0,0
77988,-142.857142857143,4,2,6,85,0,0
78076,-142.857142857143,4,2,99,5,0,0
78164,-142.857142857143,4,2,6,85,0,0
78341,-142.857142857143,4,2,2,85,0,0
78958,-142.857142857143,4,2,99,5,0,0
79047,-142.857142857143,4,2,5,85,0,0
80105,-76.923076923077,4,2,6,85,0,0
80370,-76.923076923077,4,2,99,5,0,0
80458,-333.333333333333,4,2,5,85,0,0
80723,-333.333333333333,4,2,99,5,0,0
80811,-90.9090909090909,4,2,5,85,0,0
81076,-90.9090909090909,4,2,99,5,0,0
81164,-90.9090909090909,4,2,6,85,0,0
81870,-90.9090909090909,4,2,5,85,0,0
82135,-90.9090909090909,4,2,99,5,0,0
82223,-142.857142857143,4,2,5,85,0,0
82311,-142.857142857143,4,2,99,5,0,0
82399,-142.857142857143,4,2,5,85,0,0
82576,-142.857142857143,4,2,6,85,0,0
83282,-90.9090909090909,4,2,5,85,0,0
83547,-90.9090909090909,4,2,99,5,0,0
83635,-90.9090909090909,4,2,5,85,0,0
85399,-142.857142857143,4,2,2,85,0,0
85664,-142.857142857143,4,2,99,5,0,0
85752,-111.111111111111,4,2,2,85,0,0
86017,-111.111111111111,4,2,99,5,0,0
86105,-90.9090909090909,4,2,2,80,0,0
86370,-90.9090909090909,4,2,99,5,0,0
86458,-90.9090909090909,4,2,2,80,0,0
86547,-90.9090909090909,4,2,99,5,0,0
86635,-90.9090909090909,4,2,2,80,0,0
86899,-90.9090909090909,4,2,99,5,0,0
86988,-90.9090909090909,4,2,2,80,0,0
87164,-166.666666666667,4,2,2,80,0,0
87429,-166.666666666667,4,2,99,5,0,0
87517,-166.666666666667,4,2,2,80,0,0
88047,-90.909090909091,4,2,2,80,0,0
88311,-90.909090909091,4,2,99,5,0,0
88399,-90.909090909091,4,2,2,80,0,0
88752,-90.909090909091,4,2,2,60,0,0
88929,-90.9090909090909,4,2,2,80,0,0
89194,-90.9090909090909,4,2,99,5,0,0
89282,-90.9090909090909,4,2,2,80,0,0
89370,-90.9090909090909,4,2,99,5,0,0
89458,-90.9090909090909,4,2,2,80,0,0
90429,-90.9090909090909,4,2,99,5,0,0
90517,-90.9090909090909,4,2,2,80,0,0
90605,-90.9090909090909,4,2,99,5,0,0
90694,-90.9090909090909,4,2,2,80,0,0
91047,-333.333333333333,4,2,2,80,0,0
91311,-333.333333333333,4,2,99,5,0,0
91399,-166.666666666667,4,2,2,80,0,0
91664,-166.666666666667,4,2,99,5,0,0
91752,-90.9090909090909,4,2,2,80,0,0
92017,-90.9090909090909,4,2,99,5,0,0
92105,-90.9090909090909,4,2,2,80,0,0
92194,-90.9090909090909,4,2,99,5,0,0
92282,-90.9090909090909,4,2,2,80,0,0
92547,-90.9090909090909,4,2,99,5,0,0
92635,-90.9090909090909,4,2,2,80,0,0
92811,-166.666666666667,4,2,2,80,0,0
93076,-166.666666666667,4,2,99,5,0,0
93164,-166.666666666667,4,2,2,80,0,0
93694,-90.9090909090909,4,2,2,80,0,0
93958,-90.9090909090909,4,2,99,5,0,0
94047,-90.9090909090909,4,2,2,80,0,0
94399,-90.9090909090909,4,2,2,65,0,0
94576,-90.9090909090909,4,2,2,80,0,0
95635,-90.9090909090909,4,2,3,65,0,0
95811,-90.9090909090909,4,2,2,80,0,0
97047,-250,4,2,2,80,0,0
97311,-250,4,2,99,5,0,0
97399,-100,4,2,2,75,0,0
97664,-100,4,2,99,5,0,0
97752,-100,4,2,2,75,0,0
99076,-100,4,2,99,5,0,0
99164,-100,4,2,2,75,0,0
100488,-100,4,2,99,5,0,0
100576,-100,4,2,2,75,0,0
102694,-250,4,2,2,75,0,0
102958,-250,4,2,99,5,0,0
103047,-100,4,2,2,75,0,0
103311,-100,4,2,99,5,0,0
103399,-100,4,2,2,75,0,0
104723,-100,4,2,99,5,0,0
104811,-250,4,2,2,75,0,0
105076,-250,4,2,99,5,0,0
105164,-250,4,2,2,75,0,0
105517,-166.666666666667,4,2,2,75,0,0
105870,-100,4,2,2,75,0,0
106135,-100,4,2,99,5,0,0
106223,-100,4,2,2,75,0,0
107635,-100,4,2,3,75,0,0
107811,-83.3333333333333,4,2,2,75,0,0
108341,-250,4,2,2,75,0,0
108605,-250,4,2,99,5,0,0
108694,-100,4,2,2,75,0,0
108958,-100,4,2,99,5,0,0
109047,-100,4,2,2,75,0,0
110370,-100,4,2,99,5,0,0
110458,-100,4,2,2,75,0,0
111782,-100,4,2,99,5,0,0
111870,-100,4,2,2,75,0,0
113635,-142.857142857143,4,2,2,75,0,0
113899,-142.857142857143,4,2,99,5,0,0
113988,-250.000000000001,4,2,2,75,0,0
114252,-250.000000000001,4,2,99,5,0,0
114341,-100,4,2,2,75,0,0
114605,-100,4,2,99,5,0,0
114694,-100,4,2,2,75,0,0
116017,-100,4,2,99,5,0,0
116105,-250,4,2,2,75,0,0
116370,-250,4,2,99,5,0,0
116458,-250,4,2,2,75,0,0
116811,-166.666666666667,4,2,2,75,0,0
117164,-100,4,2,2,75,0,0
117429,-100,4,2,99,5,0,0
117517,-100,4,2,2,75,0,0
119282,-111.111111111111,4,2,5,75,0,0
119547,-111.111111111111,4,2,99,5,0,0
119635,-166.666666666667,4,2,3,75,0,0
119899,-166.666666666667,4,2,99,5,0,0
119988,-166.666666666667,4,2,6,70,0,0
120694,-100,4,2,6,70,0,0
120958,-100,4,2,99,5,0,0
121047,-100,4,2,6,70,0,0
122017,-100,4,2,99,5,0,0
122105,-100,4,2,6,70,0,0
122194,-100,4,2,99,5,0,0
122282,-100,4,2,6,70,0,0
122370,-100,4,2,99,5,0,0
122458,-125,4,2,6,70,0,0
122723,-125,4,2,99,5,0,0
122811,-125,4,2,6,70,0,0
123164,-100,4,2,6,70,0,0
123429,-100,4,2,99,5,0,0
123517,-166.666666666667,4,2,6,70,0,0
123782,-166.666666666667,4,2,99,5,0,0
123870,-166.666666666667,4,2,6,70,0,0
125635,-125,4,2,2,75,0,0
125899,-125,4,2,99,5,0,0
125988,-90.9090909090909,4,2,2,75,0,0
126252,-90.9090909090909,4,2,99,5,0,0
126341,-90.9090909090909,4,2,2,75,0,0
126694,-166.666666666667,4,2,2,75,0,0
126958,-166.666666666667,4,2,99,5,0,0
127047,-125,4,2,2,75,0,0
127311,-125,4,2,99,5,0,0
127399,-90.9090909090909,4,2,2,75,0,0
127664,-90.9090909090909,4,2,99,5,0,0
127752,-90.9090909090909,4,2,2,75,0,0
128723,-90.9090909090909,4,2,99,5,0,0
128811,-250,4,2,2,75,0,0
129076,-250,4,2,99,5,0,0
129164,-250,4,2,2,75,0,0
129517,-166.666666666667,4,2,2,75,0,0
129782,-166.666666666667,4,2,99,5,0,0
129870,-125,4,2,2,75,0,0
130135,-125,4,2,99,5,0,0
130223,-90.9090909090909,4,2,2,75,0,0
130488,-90.9090909090909,4,2,99,5,0,0
130576,-90.9090909090909,4,2,2,75,0,0
130929,-250,4,2,2,75,0,0
131194,-250,4,2,99,5,0,0
131282,-250,4,2,5,80,0,0
132694,-83.3333333333333,4,2,5,80,0,0
132958,-83.3333333333333,4,2,99,5,0,0
133047,-83.3333333333333,4,2,5,80,0,0
134105,-142.857142857143,4,2,5,80,0,0
134370,-142.857142857143,4,2,99,5,0,0
134458,-142.857142857143,4,2,5,80,0,0
135870,-100,4,2,5,80,0,0
136135,-100,4,2,99,5,0,0
136223,-166.666666666667,4,2,5,80,0,0
136488,-166.666666666667,4,2,99,5,0,0
136576,-111.111111111111,4,2,2,80,0,0
136841,-111.111111111111,4,2,99,5,0,0
136929,-83.3333333333333,4,2,5,85,0,0
137194,-83.3333333333333,4,2,99,5,0,0
137282,-142.857142857143,4,2,5,85,0,0
137370,-142.857142857143,4,2,99,5,0,0
137459,-142.857142857143,4,2,5,85,0,0
137635,-83.3333333333333,4,2,2,85,0,0
137899,-83.3333333333333,4,2,99,5,0,0
137988,-125,4,2,2,85,0,0
138252,-125,4,2,99,5,0,0
138341,-83.3333333333333,4,2,6,85,0,0
138605,-83.3333333333333,4,2,99,5,0,0
138694,-142.857142857143,4,2,6,85,0,0
138782,-142.857142857143,4,2,99,5,0,0
138870,-142.857142857143,4,2,6,85,0,0
139047,-142.857142857143,4,2,2,85,0,0
139400,-250,4,2,2,85,0,0
139664,-250,4,2,99,5,0,0
139753,-83.3333333333333,4,2,6,85,0,0
140017,-83.3333333333333,4,2,99,5,0,0
140106,-142.857142857143,4,2,6,85,0,0
140194,-142.857142857143,4,2,99,5,0,0
140282,-142.857142857143,4,2,6,85,0,0
140458,-142.857142857143,4,2,2,85,0,0
141076,-142.857142857143,4,2,99,5,0,0
141164,-71.4285714285714,4,2,6,85,0,0
141429,-71.4285714285714,4,2,99,5,0,0
141517,-100,4,2,6,85,0,0
141782,-100,4,2,99,5,0,0
141870,-100,4,2,6,85,0,0
142223,-76.9230769230769,4,2,6,85,0,0
142488,-76.9230769230769,4,2,99,5,0,0
142576,-333.333333333333,4,2,5,85,0,0
142841,-333.333333333333,4,2,99,5,0,0
142929,-90.9090909090909,4,2,5,85,0,0
143194,-90.9090909090909,4,2,99,5,0,0
143282,-90.9090909090909,4,2,6,85,0,0
143988,-125,4,2,5,85,0,0
144252,-125,4,2,99,5,0,0
144341,-83.3333333333333,4,2,5,85,0,0
144605,-83.3333333333333,4,2,99,5,0,0
144694,-83.3333333333333,4,2,6,85,0,0
145047,-166.666666666667,4,2,6,85,0,0
145311,-166.666666666667,4,2,99,5,0,0
145400,-166.666666666667,4,2,5,85,0,0
145929,-76.9230769230769,4,2,5,85,0,0
147164,-250,4,2,5,85,0,0
147429,-250,4,2,99,5,0,0
147517,-125,4,2,5,85,0,0
147782,-125,4,2,99,5,0,0
147870,-71.4285714285714,4,2,5,85,0,0
148135,-71.4285714285714,4,2,99,5,0,0
148223,-83.3333333333333,4,2,5,85,0,0
148488,-83.3333333333333,4,2,99,5,0,0
148576,-142.857142857143,4,2,5,85,0,0
148664,-142.857142857143,4,2,99,5,0,0
148753,-142.857142857143,4,2,5,85,0,0
148929,-142.857142857143,4,2,2,85,0,0
149282,-125,4,2,2,85,0,0
149547,-125,4,2,99,5,0,0
149635,-83.3333333333333,4,2,6,85,0,0
149899,-83.3333333333333,4,2,99,5,0,0
149988,-142.857142857143,4,2,6,85,0,0
150076,-142.857142857143,4,2,99,5,0,0
150164,-142.857142857143,4,2,6,85,0,0
150341,-142.857142857143,4,2,2,85,0,0
150694,-250,4,2,2,85,0,0
150958,-250,4,2,99,5,0,0
151047,-83.3333333333333,4,2,6,85,0,0
151311,-83.3333333333333,4,2,99,5,0,0
151400,-142.857142857143,4,2,6,85,0,0
151488,-142.857142857143,4,2,99,5,0,0
151576,-142.857142857143,4,2,6,85,0,0
151752,-142.857142857143,4,2,2,85,0,0
152370,-142.857142857143,4,2,99,5,0,0
152459,-142.857142857143,4,2,5,85,0,0
153517,-76.923076923077,4,2,6,85,0,0
153782,-76.923076923077,4,2,99,5,0,0
153870,-333.333333333333,4,2,5,85,0,0
154135,-333.333333333333,4,2,99,5,0,0
154223,-90.9090909090909,4,2,5,85,0,0
154488,-90.9090909090909,4,2,99,5,0,0
154576,-90.9090909090909,4,2,6,85,0,0
155282,-90.9090909090909,4,2,5,85,0,0
155547,-90.9090909090909,4,2,99,5,0,0
155635,-142.857142857143,4,2,5,85,0,0
155723,-142.857142857143,4,2,99,5,0,0
155811,-142.857142857143,4,2,5,85,0,0
155988,-142.857142857143,4,2,6,85,0,0
156694,-90.9090909090909,4,2,5,85,0,0
156958,-90.9090909090909,4,2,99,5,0,0
157047,-90.9090909090909,4,2,5,85,0,0
158811,-90.9090909090909,4,2,1,85,0,0
158988,-90.9090909090909,4,2,2,85,0,0
159164,-333.333333333333,4,2,2,85,0,0
159429,-333.333333333333,4,2,99,5,0,0
159517,-83.3333333333333,4,2,2,75,0,0
160223,-100,4,2,2,75,0,0
163576,-83.3333333333333,4,2,2,75,0,0
164458,-250,4,2,2,75,0,0
164723,-250,4,2,99,5,0,0
164811,-90.9090909090909,4,2,2,75,0,0
165076,-90.9090909090909,4,2,99,5,0,0
165164,-90.9090909090909,4,2,2,75,0,0
169223,-83.3333333333333,4,2,2,75,0,0
169929,-111.111111111111,4,2,2,75,0,0
170370,-111.111111111111,4,2,99,5,0,0
170458,-166.666666666666,4,2,2,75,0,0
170723,-166.666666666666,4,2,99,5,0,0
170811,-90.9090909090909,4,2,1,75,0,0
171870,-250,4,2,1,75,0,0
172135,-250,4,2,99,5,0,0
172223,-90.9090909090909,4,2,1,75,0,0
173282,-250,4,2,1,75,0,0
173547,-250,4,2,99,5,0,0
173635,-90.9090909090909,4,2,5,75,0,0
174694,-250,4,2,5,75,0,0
174958,-250,4,2,99,5,0,0
175047,-90.9090909090909,4,2,5,75,0,0
176458,-90.9090909090909,4,2,6,75,0,0
176723,-90.9090909090909,4,2,99,5,0,0
176811,-90.9090909090909,4,2,6,75,0,0
178135,-90.9090909090909,4,2,99,5,0,0
178223,-90.9090909090909,4,2,6,75,0,0
178929,-250,4,2,6,75,0,0
179194,-250,4,2,99,5,0,0
179282,-90.9090909090909,4,2,6,75,0,0
179547,-90.9090909090909,4,2,99,5,0,0
179635,-90.9090909090909,4,2,6,75,0,0
180694,-76.9230769230769,4,2,2,75,0,0
180958,-76.9230769230769,4,2,99,5,0,0
181047,-76.9230769230769,4,2,2,75,0,0
181223,-66.6666666666667,4,2,6,75,0,0
181752,-250,4,2,6,75,0,0
182017,-250,4,2,99,5,0,0
182105,-90.9090909090909,4,2,1,75,0,0
183164,-250,4,2,1,75,0,0
183429,-250,4,2,99,5,0,0
183517,-90.9090909090909,4,2,1,75,0,0
184576,-250,4,2,1,75,0,0
184841,-250,4,2,99,5,0,0
184929,-90.9090909090909,4,2,1,75,0,0
186341,-76.9230769230769,4,2,6,75,0,0
186605,-76.9230769230769,4,2,99,5,0,0
186694,-100,4,2,6,75,0,0
186958,-76.9230769230769,4,2,99,5,0,0
187047,-76.9230769230769,4,2,6,75,0,0
187399,-250,4,2,6,75,0,0
187664,-250,4,2,99,5,0,0
187752,-90.9090909090909,4,2,5,80,0,0
188017,-90.9090909090909,4,2,99,5,0,0
188105,-90.9090909090909,4,2,5,80,0,0
188370,-90.9090909090909,4,2,99,5,0,0
188458,-90.9090909090909,4,2,5,80,0,0
189782,-90.9090909090909,4,2,99,5,0,0
189870,-90.9090909090909,4,2,5,80,0,0
190135,-90.9090909090909,4,2,99,5,0,0
190223,-90.9090909090909,4,2,5,80,0,0
190488,-90.9090909090909,4,2,99,5,0,0
190576,-90.9090909090909,4,2,5,80,0,0
192605,-90.9090909090909,4,2,99,5,0,0
192694,-90.9090909090909,4,2,5,80,0,0
192958,-90.9090909090909,4,2,99,5,0,0
193047,-90.9090909090909,4,2,5,80,0,0
193311,-90.9090909090909,4,2,99,5,0,0
193399,-125,4,2,5,80,0,0
193664,-125,4,2,99,5,0,0
193752,-125,4,2,5,80,0,0
194811,-166.666666666667,4,2,7,80,0,0
196135,-166.666666666667,4,2,99,5,0,0
196223,-166.666666666667,4,2,8,90,0,0
196752,-166.666666666667,4,2,1,50,0,0
204517,-166.666666666667,4,2,1,70,0,0
206458,-100,4,2,1,70,0,0
206723,-100,4,2,99,5,0,0
206811,-166.666666666667,4,2,1,70,0,0
207076,-166.666666666667,4,2,99,5,0,0
207164,-111.111111111111,4,2,1,70,0,0
207429,-111.111111111111,4,2,99,5,0,0
207517,-83.3333333333333,4,2,5,85,0,0
207781,-83.3333333333333,4,2,99,5,0,0
207870,-142.857142857143,4,2,5,85,0,0
207958,-142.857142857143,4,2,99,5,0,0
208047,-142.857142857143,4,2,5,85,0,0
208223,-142.857142857143,4,2,2,85,0,0
208576,-125,4,2,2,85,0,0
208841,-125,4,2,99,5,0,0
208929,-83.3333333333333,4,2,6,85,0,0
209194,-83.3333333333333,4,2,99,5,0,0
209282,-142.857142857143,4,2,6,85,0,0
209370,-142.857142857143,4,2,99,5,0,0
209458,-142.857142857143,4,2,6,85,0,0
209635,-142.857142857143,4,2,2,85,0,0
209988,-250,4,2,2,85,0,0
210252,-250,4,2,99,5,0,0
210341,-83.3333333333333,4,2,6,85,0,0
210605,-83.3333333333333,4,2,99,5,0,0
210694,-142.857142857143,4,2,6,85,0,0
210782,-142.857142857143,4,2,99,5,0,0
210870,-142.857142857143,4,2,6,85,0,0
211047,-142.857142857143,4,2,2,85,0,0
211664,-142.857142857143,4,2,99,5,0,0
211752,-142.857142857143,4,2,6,85,0,0
212811,-76.923076923077,4,2,6,85,0,0
213076,-76.923076923077,4,2,99,5,0,0
213164,-333.333333333333,4,2,5,85,0,0
213429,-333.333333333333,4,2,99,5,0,0
213517,-90.9090909090909,4,2,5,85,0,0
213782,-90.9090909090909,4,2,99,5,0,0
213870,-90.9090909090909,4,2,6,85,0,0
214576,-90.9090909090909,4,2,5,85,0,0
214841,-90.9090909090909,4,2,99,5,0,0
214929,-142.857142857143,4,2,5,85,0,0
215017,-142.857142857143,4,2,99,5,0,0
215105,-142.857142857143,4,2,5,85,0,0
215282,-142.857142857143,4,2,6,85,0,0
215988,-90.9090909090909,4,2,5,85,0,0
216252,-90.9090909090909,4,2,99,5,0,0
216341,-90.9090909090909,4,2,5,85,0,0
218105,-142.857142857143,4,2,2,85,0,0
218370,-142.857142857143,4,2,99,5,0,0
218458,-142.857142857143,4,2,2,85,0,0
218723,-142.857142857143,4,2,99,5,0,0
218811,-90.9090909090909,4,2,2,80,0,0
219076,-90.9090909090909,4,2,99,5,0,0
219164,-90.9090909090909,4,2,2,80,0,0
219252,-90.9090909090909,4,2,99,5,0,0
219341,-90.9090909090909,4,2,2,80,0,0
219605,-90.9090909090909,4,2,99,5,0,0
219694,-90.9090909090909,4,2,2,80,0,0
219870,-166.666666666667,4,2,2,80,0,0
220135,-166.666666666667,4,2,99,5,0,0
220223,-166.666666666667,4,2,2,80,0,0
220752,-90.909090909091,4,2,2,80,0,0
221017,-90.909090909091,4,2,99,5,0,0
221105,-90.909090909091,4,2,2,80,0,0
221458,-90.909090909091,4,2,2,65,0,0
221899,-90.9090909090909,4,2,99,5,0,0
221988,-90.9090909090909,4,2,2,80,0,0
222076,-90.9090909090909,4,2,99,5,0,0
222164,-90.9090909090909,4,2,2,80,0,0
223135,-90.9090909090909,4,2,99,5,0,0
223223,-90.9090909090909,4,2,2,80,0,0
223311,-90.9090909090909,4,2,99,5,0,0
223399,-90.9090909090909,4,2,2,80,0,0
223752,-333.333333333333,4,2,2,80,0,0
224017,-333.333333333333,4,2,99,5,0,0
224105,-166.666666666667,4,2,2,80,0,0
224370,-166.666666666667,4,2,99,5,0,0
224458,-90.9090909090909,4,2,2,80,0,0
224723,-90.9090909090909,4,2,99,5,0,0
224811,-90.9090909090909,4,2,2,80,0,0
224899,-90.9090909090909,4,2,99,5,0,0
224988,-90.9090909090909,4,2,2,80,0,0
225252,-90.9090909090909,4,2,99,5,0,0
225341,-90.9090909090909,4,2,2,80,0,0
225517,-166.666666666667,4,2,2,80,0,0
225782,-166.666666666667,4,2,99,5,0,0
225870,-166.666666666667,4,2,2,80,0,0
226399,-90.9090909090909,4,2,2,80,0,0
226664,-90.9090909090909,4,2,99,5,0,0
226752,-90.9090909090909,4,2,2,80,0,0
227105,-90.9090909090909,4,2,2,65,0,0
227458,-90.9090909090909,4,2,2,80,0,0
229399,-250,4,2,2,80,0,0
229664,-250,4,2,99,5,0,0
229752,-111.111111111111,4,2,2,80,0,0
230017,-111.111111111111,4,2,99,5,0,0
230105,-66.6666666666667,4,2,4,90,0,0
230458,-66.6666666666667,4,2,2,90,0,0
230635,-250,4,2,2,90,0,0
230899,-250,4,2,99,5,0,0
230988,-66.6666666666667,4,2,2,90,0,0
231076,-66.6666666666667,4,2,2,90,0,0
231164,-83.3333333333333,4,2,2,90,0,0
231252,-83.3333333333333,4,2,99,5,0,0
231341,-111.111111111111,4,2,2,90,0,0
231429,-111.111111111111,4,2,99,5,0,0
231517,-66.6666666666667,4,2,2,90,0,0
232047,-100,4,2,2,90,0,0
232311,-100,4,2,99,5,0,0
232399,-111.111111111111,4,2,2,90,0,0
232576,-90.9090909090909,4,2,2,90,0,0
232664,-90.9090909090909,4,2,99,5,0,0
232752,-76.9230769230769,4,2,2,90,0,0
232841,-76.9230769230769,4,2,99,5,0,0
232929,-66.6666666666667,4,2,2,90,0,0
233194,-66.6666666666667,4,2,99,5,0,0
233282,-66.6666666666667,4,2,2,90,0,0
233370,-66.6666666666667,4,2,99,5,0,0
233458,-66.6666666666667,4,2,2,90,0,0
233547,-66.6666666666667,4,2,99,5,0,0
233635,-100,4,2,2,90,0,0
233723,-100,4,2,99,5,0,0
233811,-250,4,2,2,90,0,0
234164,-76.9230769230769,4,2,2,90,0,0
234694,-90.9090909090909,4,2,2,90,0,0
234782,-90.9090909090909,4,2,99,5,0,0
234870,-90.9090909090909,4,2,2,90,0,0
234958,-90.9090909090909,4,2,99,5,0,0
235047,-333.333333333333,4,2,2,90,0,0
235311,-333.333333333333,4,2,99,5,0,0
235399,-142.857142857143,4,2,2,90,0,0
235664,-142.857142857143,4,2,99,5,0,0
235752,-66.6666666666667,4,2,4,90,0,0
236105,-66.6666666666667,4,2,2,90,0,0
236282,-250,4,2,2,90,0,0
236547,-250,4,2,99,5,0,0
236635,-66.6666666666667,4,2,2,90,0,0
236723,-66.6666666666667,4,2,2,90,0,0
236811,-83.3333333333333,4,2,2,90,0,0
236899,-83.3333333333333,4,2,99,5,0,0
236988,-111.111111111111,4,2,2,90,0,0
237076,-111.111111111111,4,2,99,5,0,0
237164,-66.6666666666666,4,2,2,90,0,0
237694,-100,4,2,2,90,0,0
237958,-100,4,2,99,5,0,0
238047,-111.111111111111,4,2,2,90,0,0
238223,-90.9090909090909,4,2,2,90,0,0
238311,-90.9090909090909,4,2,99,5,0,0
238399,-76.9230769230769,4,2,2,90,0,0
238488,-76.9230769230769,4,2,99,5,0,0
238576,-66.6666666666667,4,2,2,90,0,0
238841,-66.6666666666667,4,2,99,5,0,0
238929,-66.6666666666667,4,2,2,90,0,0
239017,-66.6666666666667,4,2,99,5,0,0
239105,-66.6666666666667,4,2,2,90,0,0
239194,-66.6666666666667,4,2,99,5,0,0
239282,-100,4,2,2,90,0,0
239370,-100,4,2,99,5,0,0
239458,-200,4,2,2,90,0,0
239547,-200,4,2,99,5,0,0
239635,-200,4,2,3,70,0,0
239811,-200,4,2,2,70,0,0
240252,-200,4,2,99,5,0,0
240341,-200,4,2,2,90,0,0

[Colours]
Combo1 : 0,159,244
Combo2 : 255,193,164
Combo3 : 255,150,100
Combo4 : 255,183,219
Combo5 : 255,81,168
Combo6 : 213,232,246
Combo7 : 143,217,220
Combo8 : 218,218,218

[HitObjects]
101,66,1400,6,0,B|106:53|106:53|247:77|247:77|258:63,1,174.999994659424,6|0,3:2|0:0,0:0:0:0:
258,62,1929,1,2,2:2:0:0:
40,110,2105,2,0,B|29:149|29:149|64:130,1,80,2|2,1:2|1:2,0:0:0:0:
101,66,2635,1,2,2:2:0:0:
110,66,2811,2,0,L|83:223,1,160,2|2,1:2|2:2,0:0:0:0:
74,236,3341,1,2,2:2:0:0:
21,336,3517,6,0,B|63:325|63:325|112:357,1,89.9999972534181,2|0,1:2|0:0,0:0:0:0:
32,324,3870,102,0,P|63:306|67:270,1,75,2|0,1:2|0:0,0:0:0:0:
21,336,4223,6,0,B|31:350|31:350|219:383,1,200,6|0,1:3|0:0,0:0:0:0:
211,381,4752,1,2,2:2:0:0:
67,269,4929,2,0,B|57:233|57:233|20:256,1,80,2|2,1:2|1:2,0:0:0:0:
67,269,5458,1,2,2:2:0:0:
8,101,5635,102,0,P|58:107|87:67,1,104.999996795654,2|0,1:2|0:0,0:0:0:0:
95,56,5988,1,2,1:2:0:0:
0,111,6164,1,2,1:2:0:0:
30,180,6341,5,2,1:2:0:0:
39,184,6429,1,2,1:2:0:0:
49,182,6517,1,2,1:2:0:0:
56,173,6605,1,2,1:2:0:0:
50,163,6694,101,2,1:2:0:0:
27,172,6782,1,2,1:2:0:0:
27,206,6870,1,2,1:2:0:0:
55,241,6958,1,2,1:2:0:0:
64,296,7047,5,6,3:2:0:0:
73,309,7399,101,2,1:2:0:0:
224,64,7752,5,6,3:2:0:0:
233,51,8105,101,2,3:2:0:0:
311,44,8282,1,2,2:2:0:0:
387,37,8458,2,0,B|414:34|414:34|422:126,1,104.999996795654,6|0,3:2|0:0,0:0:0:0:
387,37,8811,5,2,1:2:0:0:
311,44,8988,1,2,1:2:0:0:
234,51,9164,2,0,B|205:52|205:52|217:174,1,149.999995422363,6|0,3:2|0:0,0:0:0:0:
224,166,9694,1,2,1:2:0:0:
231,158,9782,1,2,1:2:0:0:
239,149,9870,101,10,3:2:0:0:
162,99,10047,1,0,3:0:0:0:
314,194,10223,5,10,3:2:0:0:
197,269,10399,1,0,1:0:0:0:
389,149,10576,101,10,3:2:0:0:
237,54,10752,1,0,3:0:0:0:
464,194,10929,6,0,L|442:188,1,17.4999994659424,10|2,3:2|1:2,0:0:0:0:
471,185,11017,2,0,L|449:179,1,17.4999994659424,2|2,1:2|1:2,0:0:0:0:
478,176,11105,2,0,L|456:170,1,17.4999994659424,2|2,1:2|1:2,0:0:0:0:
485,167,11194,2,0,L|463:161,1,17.4999994659424,2|2,1:2|1:2,0:0:0:0:
492,158,11282,101,10,3:2:0:0:
291,285,11458,1,2,3:2:0:0:
160,11,11635,1,10,3:2:0:0:
352,32,11988,5,2,0:2:0:0:
285,83,12164,1,2,3:2:0:0:
296,73,12252,1,0,3:0:0:0:
296,88,12341,70,0,P|313:101|335:102,1,44.999998626709,10|0,3:2|0:0,0:0:0:0:
352,32,12694,54,0,P|331:109|372:179,1,165.000005035401,6|0,3:2|0:0,0:0:0:0:
416,243,13047,2,0,B|446:239|446:239|430:191,1,55.0000016784668,8|0,3:2|0:0,0:0:0:0:
296,88,13223,2,0,L|131:105,1,165.000005035401,2|0,3:2|0:0,0:0:0:0:
218,162,13576,1,2,3:2:0:0:
228,148,13664,1,2,1:2:0:0:
218,134,13752,6,0,L|128:143,1,89.9999972534181,10|0,3:2|0:0,0:0:0:0:
78,199,14105,101,2,3:2:0:0:
128,142,14282,1,2,3:2:0:0:
28,256,14458,1,8,3:2:0:0:
102,362,14635,6,0,B|129:347|129:347|153:215,1,165.000005035401,2|0,3:2|0:0,0:0:0:0:
175,293,14988,1,2,3:2:0:0:
181,307,15076,1,2,1:2:0:0:
167,319,15164,1,10,3:2:0:0:
98,267,15341,101,10,3:2:0:0:
104,272,15429,1,8,3:2:0:0:
111,276,15517,2,0,P|190:293|269:272,1,165.000005035401,10|0,3:3|0:0,0:0:0:0:
338,244,15870,2,0,B|345:222|345:222|315:212,1,55.0000016784668,10|0,3:2|0:0,0:0:0:0:
199,311,16047,1,2,3:2:0:0:
270,272,16223,5,2,1:2:0:0:
263,262,16399,1,10,3:2:0:0:
130,70,16752,102,0,P|175:23|268:30,1,165.000005035401,6|0,3:2|0:0,0:0:0:0:
337,22,17105,2,0,B|350:48|350:48|332:66,1,55.0000016784668,2|0,3:2|0:0,0:0:0:0:
452,138,17282,5,10,3:2:0:0:
346,261,17458,1,2,3:2:0:0:
462,126,17635,102,0,P|442:137|433:157,1,44.999998626709,10|0,3:2|0:0,0:0:0:0:
473,115,17988,6,0,P|429:121|397:92,1,89.9999972534181,10|0,3:2|0:0,0:0:0:0:
484,105,18341,102,0,B|462:113|462:113|437:252,1,165.000005035401,6|0,3:2|0:0,0:0:0:0:
430,326,18694,2,0,B|457:339|457:339|472:319,1,55.0000016784668,8|0,3:2|0:0,0:0:0:0:
296,334,18870,2,0,L|131:351,1,165.000005035401,2|0,3:2|0:0,0:0:0:0:
211,284,19223,1,2,3:2:0:0:
201,298,19311,1,2,1:2:0:0:
211,312,19399,6,0,L|301:303,1,89.9999972534181,10|0,3:2|0:0,0:0:0:0:
325,232,19752,101,2,3:2:0:0:
300,303,19929,1,0,3:0:0:0:
348,159,20105,1,8,3:2:0:0:
502,142,20282,6,0,B|478:120|478:120|347:143,1,165.000005035401,2|0,3:2|0:0,0:0:0:0:
439,69,20635,1,2,3:2:0:0:
445,83,20723,1,2,1:2:0:0:
431,95,20811,101,8,3:2:0:0:
255,81,20988,1,2,1:2:0:0:
431,95,21164,5,10,3:3:0:0:
343,88,21341,1,0,3:0:0:0:
169,208,21517,101,10,3:2:0:0:
255,81,21694,1,0,3:0:0:0:
167,74,21870,5,2,1:2:0:0:
431,95,22047,1,10,3:2:0:0:
343,88,22223,1,8,3:3:0:0:
341,101,22311,1,8,3:3:0:0:
355,114,22399,102,0,B|393:114|393:114|472:242|472:242|526:242,1,224.999993133545,4|0,3:2|0:0,0:0:0:0:
507,114,22929,1,2,1:2:0:0:
428,152,23105,1,2,1:2:0:0:
406,186,23282,1,2,1:2:0:0:
403,222,23458,1,2,1:2:0:0:
406,240,23635,1,0,3:0:0:0:
371,358,23988,53,6,3:2:0:0:
363,341,24341,1,2,3:2:0:0:
355,324,24694,1,0,3:0:0:0:
347,307,25047,1,0,3:0:0:0:
406,240,25223,22,0,P|391:227|371:226,1,40,0|0,1:0|1:0,0:0:0:0:
465,173,25399,85,2,3:2:0:0:
457,156,25752,1,2,3:2:0:0:
288,96,26105,21,2,3:2:0:0:
296,79,26458,1,0,3:0:0:0:
206,266,26811,85,2,3:2:0:0:
198,283,27164,1,2,3:2:0:0:
190,300,27517,1,0,3:0:0:0:
182,317,27870,1,0,3:0:0:0:
115,368,28047,22,0,P|101:353|100:333,1,40,2|0,1:2|1:0,0:0:0:0:
182,317,28223,85,2,3:2:0:0:
190,334,28576,1,0,3:0:0:0:
128,256,28929,21,2,3:2:0:0:
66,178,29282,86,0,L|55:118,1,60,2|0,3:2|0:0,0:0:0:0:
49,108,29635,38,0,P|106:116|149:77,1,120,2|0,3:2|0:0,0:0:0:0:
156,65,29988,2,0,P|141:69|132:80,1,30,2|0,3:2|0:0,0:0:0:0:
283,41,30341,22,0,P|340:32|383:71,1,120,2|0,3:2|0:0,0:0:0:0:
393,85,30694,2,0,P|379:80|367:89,1,30,2|0,3:2|1:0,0:0:0:0:
395,158,31047,86,0,P|398:217|444:251,1,120,2|0,3:2|0:0,0:0:0:0:
456,245,31399,2,0,P|450:232|437:225,1,30,2|0,3:2|0:0,0:0:0:0:
333,306,31752,22,0,P|289:267|232:275,1,120,2|0,3:2|0:0,0:0:0:0:
228,287,32105,2,0,P|241:292|255:288,1,30,2|0,3:2|0:0,0:0:0:0:
333,306,32458,86,0,L|173:292,1,160,2|0,3:2|3:0,0:0:0:0:
55,346,32988,1,2,1:2:0:0:
65,355,33164,22,0,B|80:342|80:342|92:202,1,160,0|0,3:0|3:0,0:0:0:0:
114,289,33694,1,0,1:0:0:0:
120,296,33782,1,0,1:0:0:0:
126,303,33870,85,10,3:2:0:0:
218,323,34047,1,2,3:2:0:0:
310,343,34223,1,8,3:3:0:0:
65,355,34399,22,0,B|80:342|80:342|92:202,1,160,6|0,3:2|3:0,0:0:0:0:
99,31,34929,38,0,B|127:53|127:53|87:57,1,75,8|0,3:2|0:0,0:0:0:0:
25,20,35282,22,0,P|64:97|18:167,1,179.999994506836,6|2,3:2|3:2,0:0:0:0:
3,164,35811,1,2,1:2:0:0:
195,209,35988,2,0,P|139:242|151:362,1,179.999994506836,0|0,3:0|3:0,0:0:0:0:
102,249,36517,1,2,1:2:0:0:
98,242,36605,1,2,1:2:0:0:
94,235,36694,86,0,P|172:270|240:218,1,179.999994506836,2|2,3:2|3:2,0:0:0:0:
256,209,37223,1,2,1:2:0:0:
204,311,37399,21,2,3:2:0:0:
279,362,37576,1,8,3:2:0:0:
323,352,37752,1,2,3:2:0:0:
434,312,37929,1,2,1:2:0:0:
438,319,38017,1,2,1:2:0:0:
442,326,38105,86,0,P|380:347|306:257,1,179.999994506836,2|0,3:2|3:0,0:0:0:0:
357,133,38635,2,0,B|390:139|390:139|363:162,1,69.9999978637696,2|0,1:2|3:0,0:0:0:0:
286,153,38988,2,0,P|286:104|318:67,1,100,2|8,1:2|3:2,0:0:0:0:
428,18,39341,1,2,1:2:0:0:
432,25,39429,1,2,1:2:0:0:
436,32,39517,22,0,L|256:16,1,179.999994506836,2|0,3:2|3:0,0:0:0:0:
241,21,40047,1,8,3:2:0:0:
448,43,40223,86,0,B|463:79|487:94|487:94|447:94|441:69,1,120,2|0,3:2|0:0,0:0:0:0:
427,73,40576,22,0,P|394:101|399:144,1,89.9999972534181,2|0,3:2|0:0,0:0:0:0:
315,110,40929,86,0,P|389:132|412:236,1,179.999994506836,2|2,3:2|3:2,0:0:0:0:
512,275,41458,2,0,P|491:314|493:359,1,89.9999972534181,2|0,1:2|3:0,0:0:0:0:
417,223,41811,2,0,P|417:178|396:139,1,89.9999972534181,2|0,1:2|3:0,0:0:0:0:
318,280,42164,1,2,1:2:0:0:
322,287,42252,1,2,1:2:0:0:
326,294,42341,22,0,L|146:278,1,179.999994506836,2|2,3:2|3:2,0:0:0:0:
129,283,42870,1,0,1:0:0:0:
277,232,43047,86,0,P|247:281|265:337,1,120,2|0,3:2|0:0,0:0:0:0:
270,349,43399,22,0,L|180:341,1,89.9999972534181,2|0,3:2|0:0,0:0:0:0:
265,338,43752,86,0,L|399:349,1,134.999995880127,2|0,3:2|0:0,0:0:0:0:
459,293,44105,2,0,B|442:283|431:249|431:249|413:281|392:277,2,89.9999972534181,0|0|0,3:0|1:0|3:0,0:0:0:0:
509,233,44635,1,0,1:0:0:0:
399,349,44811,1,0,3:0:0:0:
459,293,44988,1,0,1:0:0:0:
454,285,45076,1,0,1:0:0:0:
450,276,45164,21,2,3:2:0:0:
403,188,45341,85,2,1:2:0:0:
457,125,45517,21,2,3:2:0:0:
413,22,45694,85,10,3:2:0:0:
413,22,45782,1,8,3:2:0:0:
413,22,45870,22,0,B|429:47|462:54|462:54|412:54|390:100,1,134.999995880127,6|0,3:2|0:0,0:0:0:0:
336,46,46223,86,0,L|246:53,1,89.9999972534181,14|0,3:3|0:0,0:0:0:0:
165,15,46576,37,6,3:2:0:0:
137,154,46752,1,2,3:2:0:0:
109,293,46929,1,2,3:2:0:0:
107,305,47105,1,2,1:2:0:0:
139,142,47282,70,0,L|288:128,1,150,10|0,3:3|0:0,0:0:0:0:
288,127,47635,1,8,3:3:0:0:
388,43,47811,1,2,3:2:0:0:
391,54,47899,1,0,3:0:0:0:
394,65,47988,37,6,3:2:0:0:
469,205,48164,1,2,3:2:0:0:
393,344,48341,2,0,P|348:288|275:282,1,150,10|0,3:3|0:0,0:0:0:0:
241,350,48694,70,0,B|215:356|215:356|215:332,1,50,10|0,3:2|0:0,0:0:0:0:
211,231,48870,2,0,B|211:207|211:207|236:213,1,50,0|0,1:0|0:0,0:0:0:0:
274,282,49047,38,0,L|154:292,1,120,10|0,3:3|0:0,0:0:0:0:
100,384,49399,69,6,3:2:0:0:
55,232,49576,1,2,3:2:0:0:
177,131,49752,2,0,L|326:117,1,150,10|0,3:3|0:0,0:0:0:0:
169,117,50105,38,0,L|79:124,1,89.9999972534181,10|0,3:2|0:0,0:0:0:0:
79,123,50458,1,10,3:3:0:0:
41,35,50635,1,10,3:2:0:0:
38,46,50723,1,8,3:2:0:0:
35,57,50811,69,14,3:2:0:0:
131,202,50988,1,2,1:2:0:0:
276,106,51164,1,10,3:2:0:0:
276,106,51517,37,8,3:2:0:0:
187,65,51694,1,2,3:2:0:0:
112,81,51870,1,10,3:2:0:0:
98,98,52047,1,2,1:2:0:0:
350,63,52223,38,0,L|469:73,1,120,6|0,3:2|0:0,0:0:0:0:
351,80,52576,6,0,L|186:65,1,165.000005035401,10|0,3:2|0:0,0:0:0:0:
131,134,52929,21,2,3:2:0:0:
186,65,53105,1,0,3:0:0:0:
76,202,53282,70,0,P|118:213|138:252,1,89.9999972534181,10|0,3:2|0:0,0:0:0:0:
68,188,53635,6,0,P|125:193|163:150,1,120,6|0,3:3|0:0,0:0:0:0:
58,205,53988,22,0,L|223:220,1,165.000005035401,8|0,3:2|0:0,0:0:0:0:
254,303,54341,69,2,3:2:0:0:
309,234,54517,1,2,3:2:0:0:
364,165,54694,1,10,3:2:0:0:
391,245,54870,5,2,1:2:0:0:
395,255,54958,1,0,1:0:0:0:
399,265,55047,22,0,P|349:201|363:123,1,165.000005035401,6|0,3:2|0:0,0:0:0:0:
361,108,55399,2,0,P|388:119|395:148,1,60,10|0,3:2|0:0,0:0:0:0:
483,161,55752,69,2,3:2:0:0:
373,299,55929,1,0,3:0:0:0:
428,230,56105,6,0,P|386:229|347:187,1,89.9999972534181,10|0,3:2|0:0,0:0:0:0:
439,220,56458,22,0,P|402:177|420:122,1,120,2|0,3:2|0:0,0:0:0:0:
450,210,56811,70,0,P|371:219|341:292,1,165.000005035401,10|0,3:2|0:0,0:0:0:0:
396,362,57164,5,2,3:2:0:0:
308,372,57341,1,0,3:0:0:0:
221,382,57517,2,0,P|223:342|244:321,1,60,10|0,3:2|0:0,0:0:0:0:
234,327,57870,85,14,3:2:0:0:
396,362,58047,1,0,3:0:0:0:
296,214,58223,53,10,3:2:0:0:
328,296,58399,1,0,3:0:0:0:
149,362,58576,53,10,3:2:0:0:
194,249,58752,1,0,3:0:0:0:
41,116,58929,53,10,3:2:0:0:
99,266,59105,1,0,3:0:0:0:
138,18,59282,54,0,P|215:58|296:24,1,179.999994506836,14|0,3:2|0:0,0:0:0:0:
384,32,59635,53,10,3:2:0:0:
352,114,59811,1,0,3:0:0:0:
496,274,59988,53,10,3:2:0:0:
420,178,60164,1,0,3:0:0:0:
173,229,60341,53,10,3:2:0:0:
331,205,60517,1,0,3:0:0:0:
384,32,60694,54,0,B|360:63|343:73|343:73|368:73|384:98,1,104.999996795654,14|0,3:2|0:0,0:0:0:0:
476,73,61047,53,0,3:0:0:0:
420,178,61223,1,2,3:2:0:0:
365,283,61399,1,2,3:2:0:0:
183,368,61576,1,8,3:3:0:0:
381,274,61752,1,2,3:2:0:0:
167,374,61929,1,8,3:3:0:0:
69,80,62105,53,8,3:2:0:0:
283,180,62282,1,8,3:2:0:0:
497,280,62458,54,0,B|476:299|476:299|355:288,1,150,10|0,3:2|0:0,0:0:0:0:
280,313,62811,54,0,B|268:289|251:280|251:280|273:274|290:256,1,89.9999972534181,2|0,3:2|0:0,0:0:0:0:
355,288,63164,54,0,L|367:153,1,134.999995880127,10|0,1:2|0:0,0:0:0:0:
433,63,63517,6,0,B|382:43|365:89|364:97|363:103|327:149|283:125,1,179.999994506836,6|0,3:3|0:0,0:0:0:0:
227,83,63870,2,0,B|221:70|221:70|241:70,1,34.9999989318848,8|0,3:2|0:0,0:0:0:0:
366,153,64047,1,2,1:2:0:0:
128,34,64223,2,0,P|62:67|38:177,1,179.999994506836,6|0,3:3|0:0,0:0:0:0:
23,291,64576,6,0,B|49:275|80:291|80:291|54:264|47:214,1,120,8|0,3:2|0:0,0:0:0:0:
21,310,64929,6,0,P|100:274|177:314,1,179.999994506836,6|0,3:3|0:0,0:0:0:0:
249,337,65282,2,0,B|259:352|259:352|242:356,1,34.9999989318848,8|0,3:2|0:0,0:0:0:0:
126,373,65458,1,2,1:2:0:0:
300,278,65635,5,6,3:3:0:0:
249,337,65811,1,0,3:0:0:0:
87,378,65988,70,0,P|98:351|91:323,1,60,8|0,3:2|0:0,0:0:0:0:
87,379,66341,6,0,B|138:399|155:353|156:345|157:339|193:293|237:317,1,179.999994506836,6|0,3:3|0:0,0:0:0:0:
305,356,66694,2,0,B|303:377|303:377|281:357,1,34.9999989318848,8|0,3:2|0:0,0:0:0:0:
224,241,66870,1,2,1:2:0:0:
237,317,67047,5,6,3:3:0:0:
224,241,67223,1,0,3:0:0:0:
321,105,67399,6,0,B|353:94|369:103|369:103|344:112|335:148,1,104.999996795654,8|0,3:2|0:0,0:0:0:0:
405,189,67752,70,0,B|384:170|384:170|205:138,1,209.999993591309,6|0,3:3|0:0,0:0:0:0:
302,8,68105,6,0,B|286:22|286:22|159:45,1,150,10|0,3:2|0:0,0:0:0:0:
77,7,68458,1,2,3:2:0:0:
118,132,68635,1,0,3:0:0:0:
32,320,68811,6,0,B|38:287|38:287|163:265|163:265|190:296,1,194.999991073609,10|0,3:2|0:0,0:0:0:0:
192,306,69164,6,0,P|179:288|185:267,1,44.999998626709,6|0,3:2|0:0,0:0:0:0:
199,319,69517,70,0,L|36:290,1,165.000005035401,10|0,3:2|0:0,0:0:0:0:
117,268,69870,1,6,3:3:0:0:
26,368,70047,1,0,3:0:0:0:
118,253,70223,5,10,3:2:0:0:
86,218,70399,1,2,1:2:0:0:
199,319,70576,6,0,B|235:323|252:349|252:349|267:317|236:303,1,120,6|0,3:2|0:0,0:0:0:0:
189,332,70929,6,0,L|366:300,1,179.999994506836,10|0,3:2|0:0,0:0:0:0:
402,380,71282,69,6,3:3:0:0:
453,321,71458,1,0,3:0:0:0:
498,165,71635,6,0,B|510:134|510:134|486:134|486:134|498:164,1,89.9999972534181,8|0,3:2|0:0,0:0:0:0:
502,249,71988,5,2,3:2:0:0:
421,223,72164,1,2,1:2:0:0:
402,380,72341,1,10,3:2:0:0:
502,249,72517,6,0,L|374:272,2,129.999994049073,2|0|2,1:2|3:2|3:2,0:0:0:0:
470,375,73047,69,10,3:2:0:0:
441,358,73135,1,2,1:2:0:0:
401,380,73223,1,2,3:2:0:0:
350,352,73311,1,2,1:2:0:0:
289,383,73399,5,2,3:2:0:0:
458,172,73576,1,10,3:2:0:0:
247,4,73752,6,0,P|224:35|232:72,1,60,2|0,3:2|0:0,0:0:0:0:
247,4,74105,6,0,P|288:44|283:102,1,120,10|0,3:2|0:0,0:0:0:0:
247,4,74458,70,0,L|264:213,1,209.999993591309,10|0,1:2|0:0,0:0:0:0:
207,296,74811,6,0,B|258:316|275:270|276:262|277:256|313:210|357:234,1,179.999994506836,6|0,3:3|0:0,0:0:0:0:
420,188,75164,2,0,B|437:191|437:191|424:210,1,34.9999989318848,8|0,3:2|0:0,0:0:0:0:
343,319,75341,1,2,1:2:0:0:
468,370,75517,5,6,3:3:0:0:
434,299,75694,1,0,3:0:0:0:
280,266,75870,6,0,B|259:288|263:322|263:322|253:289|223:282,1,120,8|0,3:2|0:0,0:0:0:0:
291,252,76223,70,0,P|375:230|437:289,1,179.999994506836,6|0,3:3|0:0,0:0:0:0:
491,338,76576,2,0,B|492:355|492:355|474:345,1,34.9999989318848,10|0,3:2|0:0,0:0:0:0:
368,261,76752,1,2,1:2:0:0:
318,330,76929,5,6,3:3:0:0:
255,374,77105,1,0,3:0:0:0:
368,260,77282,6,0,P|391:245|417:258,1,60,10|0,3:2|0:0,0:0:0:0:
367,260,77635,6,0,P|407:182|374:101,1,179.999994506836,6|0,3:3|0:0,0:0:0:0:
409,39,77988,2,0,B|402:26|402:26|383:30,1,34.9999989318848,8|0,3:2|0:0,0:0:0:0:
438,176,78164,1,2,1:2:0:0:
374,101,78341,69,6,3:3:0:0:
304,68,78517,1,0,3:0:0:0:
136,28,78694,6,0,B|117:22|99:55|99:55|126:42|154:52,1,104.999996795654,8|0,3:2|0:0,0:0:0:0:
55,27,79047,5,14,3:2:0:0:
115,194,79223,1,0,3:0:0:0:
166,371,79399,5,10,3:2:0:0:
213,239,79576,1,2,3:2:0:0:
55,27,79752,69,10,3:2:0:0:
88,118,79929,1,0,3:0:0:0:
111,323,80105,6,0,B|127:294|127:294|252:316|252:316|276:280,1,194.999991073609,10|0,3:2|0:0,0:0:0:0:
281,278,80458,6,0,P|272:257|253:246,1,44.999998626709,6|0,3:2|0:0,0:0:0:0:
291,271,80811,6,0,P|357:314|432:288,1,165.000005035401,10|0,3:2|0:0,0:0:0:0:
372,343,81164,1,6,3:3:0:0:
442,204,81341,1,0,3:0:0:0:
487,353,81517,1,10,3:2:0:0:
291,271,81694,1,2,1:2:0:0:
378,40,81870,70,0,P|298:39|246:99,1,165.000005035401,6|0,3:2|0:0,0:3:0:0:
170,136,82223,2,0,B|169:158|169:158|181:154,1,34.9999989318848,10|0,3:2|0:0,0:0:0:0:
337,125,82399,1,2,1:2:0:0:
175,23,82576,5,6,3:3:0:0:
95,52,82752,1,0,3:0:0:0:
312,32,82929,1,8,3:2:0:0:
247,100,83105,5,2,1:2:0:0:
246,90,83194,1,2,1:2:0:0:
245,80,83282,2,0,B|265:63|265:63|401:87,1,165.000005035401,6|0,3:2|0:0,0:0:0:0:
456,170,83635,5,10,3:2:0:0:
495,62,83811,1,0,3:0:0:0:
282,142,83988,69,10,3:2:0:0:
339,301,84164,1,0,3:0:0:0:
464,351,84341,5,10,3:2:0:0:
481,322,84429,1,2,1:2:0:0:
459,282,84517,1,2,1:2:0:0:
487,231,84605,1,2,1:2:0:0:
456,170,84694,5,10,3:2:0:0:
209,61,84870,1,2,3:2:0:0:
100,308,85047,1,2,3:2:0:0:
100,308,85399,6,0,P|138:298|190:341,1,104.999996795654,2|0,2:2|0:0,0:0:0:0:
192,351,85752,38,0,L|203:216,1,134.999995880127,10|0,1:2|0:0,0:0:0:0:
192,351,86105,54,0,P|231:281|310:261,1,165.000005035401,4|0,3:2|0:0,0:0:0:0:
379,234,86458,2,0,B|401:245|401:245|383:270,1,55.0000016784668,8|0,3:2|0:0,0:0:0:0:
203,217,86635,2,0,L|220:52,1,165.000005035401,2|0,3:2|0:0,0:0:0:0:
298,127,86988,1,2,3:2:0:0:
308,141,87076,1,2,1:2:0:0:
298,155,87164,6,0,L|208:146,1,89.9999972534181,10|0,3:2|0:0,0:0:0:0:
158,203,87517,101,2,3:2:0:0:
208,146,87694,1,0,3:0:0:0:
258,89,87870,1,8,3:2:0:0:
448,26,88047,2,0,B|422:43|422:43|410:176,1,165.000005035401,2|0,3:2|0:0,0:0:0:0:
480,196,88399,5,2,3:2:0:0:
486,210,88488,1,2,1:2:0:0:
472,222,88576,1,10,3:2:0:0:
410,176,88752,101,10,3:2:0:0:
404,181,88841,1,10,3:2:0:0:
397,185,88929,2,0,P|318:202|239:181,1,165.000005035401,10|0,3:3|0:0,0:0:0:0:
192,124,89282,2,0,B|162:134|162:134|169:156,1,55.0000016784668,10|0,3:2|0:0,0:0:0:0:
198,317,89458,1,2,3:2:0:0:
137,255,89635,5,2,1:2:0:0:
130,245,89811,1,2,3:2:0:0:
385,302,90164,102,0,P|305:297|261:231,1,165.000005035401,6|0,3:3|0:3,0:3:0:0:
197,194,90517,2,0,B|205:164|205:164|230:164,1,55.0000016784668,2|0,3:3|0:3,0:3:0:0:
283,38,90694,5,10,3:2:0:0:
121,50,90870,1,2,3:2:0:0:
283,38,91047,102,0,P|303:49|312:69,1,44.999998626709,2|0,3:2|0:0,0:0:0:0:
272,27,91399,6,0,P|316:33|348:4,1,89.9999972534181,2|0,3:2|0:0,0:0:0:0:
272,27,91752,102,0,B|289:52|289:52|422:64,1,165.000005035401,6|0,3:2|0:0,0:0:0:0:
494,95,92105,2,0,B|514:80|514:80|501:53,1,55.0000016784668,8|0,3:2|0:0,0:0:0:0:
290,130,92282,2,0,L|124:118,1,165.000005035401,2|0,3:2|0:0,0:0:0:0:
217,177,92635,1,2,3:2:0:0:
226,189,92723,1,2,1:2:0:0:
216,204,92811,6,0,L|126:197,1,89.9999972534181,10|0,3:2|0:0,0:0:0:0:
149,270,93164,101,2,3:2:0:0:
174,341,93341,1,2,3:2:0:0:
126,197,93517,1,8,3:2:0:0:
193,19,93694,2,0,B|210:44|210:44|343:56,1,165.000005035401,2|0,3:2|0:0,0:0:0:0:
426,54,94047,1,2,3:2:0:0:
432,68,94135,1,2,1:2:0:0:
418,80,94223,1,10,3:2:0:0:
255,81,94399,5,10,3:2:0:0:
260,72,94488,1,10,3:2:0:0:
264,62,94576,2,0,B|311:98|311:98|258:112,1,110.000003356934,10|0,3:3|3:0,0:0:0:0:
193,19,94929,101,10,3:2:0:0:
314,189,95105,1,4,3:2:0:0:
219,144,95282,5,2,1:2:0:0:
262,111,95458,1,10,3:2:0:0:
352,117,95635,1,8,3:3:0:0:
359,126,95723,1,8,3:3:0:0:
366,135,95811,102,0,B|333:137|333:137|244:262|244:262|211:261,1,220.000006713867,6|2,3:2|1:2,0:0:0:0:
182,158,96341,1,2,1:2:0:0:
261,196,96517,1,2,1:2:0:0:
283,230,96694,1,2,1:2:0:0:
286,266,96870,1,2,1:2:0:0:
280,274,97047,6,0,L|215:286,1,60,10|0,3:2|0:0,0:0:0:0:
217,295,97399,6,0,L|364:268,1,150,6|0,3:2|0:0,0:0:0:0:
372,260,97752,1,10,3:2:0:0:
486,350,97929,1,2,1:2:0:0:
512,274,98105,1,0,3:0:0:0:
446,230,98282,1,0,3:0:0:0:
287,370,98458,5,8,3:2:0:0:
298,290,98635,1,2,1:2:0:0:
300,280,98723,1,2,1:2:0:0:
301,270,98811,102,0,L|154:297,1,150,2|0,3:2|0:0,0:0:0:0:
143,290,99164,1,10,3:2:0:0:
24,384,99341,1,2,1:2:0:0:
67,317,99517,1,2,3:2:0:0:
27,247,99694,1,0,3:0:0:0:
64,32,99870,5,8,3:2:0:0:
53,112,100047,1,2,1:2:0:0:
51,122,100135,1,2,1:2:0:0:
50,132,100223,102,0,L|197:105,1,150,6|0,3:2|0:0,0:0:0:0:
187,97,100576,1,10,3:2:0:0:
375,94,100752,1,2,1:2:0:0:
331,28,100929,1,0,3:0:0:0:
254,54,101105,1,2,3:2:0:0:
260,289,101282,5,8,3:2:0:0:
249,209,101458,1,2,1:2:0:0:
247,199,101547,1,2,1:2:0:0:
246,189,101635,101,2,3:2:0:0:
375,94,101811,1,2,1:2:0:0:
309,140,101988,1,8,3:2:0:0:
507,4,102164,5,2,1:2:0:0:
431,22,102341,1,2,3:2:0:0:
399,47,102517,1,2,3:2:0:0:
389,79,102694,2,0,L|398:138,1,60,10|2,3:2|1:2,0:0:0:0:
370,57,103047,38,0,L|393:206,1,150,6|0,3:2|0:0,0:0:0:0:
462,259,103399,69,10,3:2:0:0:
446,337,103576,1,2,1:2:0:0:
438,343,103664,1,2,1:2:0:0:
429,349,103752,1,2,3:2:0:0:
462,259,103929,1,0,3:0:0:0:
351,367,104105,37,10,3:2:0:0:
446,337,104282,1,2,1:2:0:0:
438,343,104370,1,2,1:2:0:0:
429,349,104458,70,0,L|406:200,1,150,2|0,3:2|0:0,0:0:0:0:
406,131,104811,38,0,L|415:190,1,60,10|0,3:2|0:0,0:0:0:0:
326,176,105164,69,2,3:2:0:0:
415,190,105341,1,0,3:0:0:0:
311,168,105517,2,0,L|301:108,1,59.9999981689454,10|2,3:2|1:2,0:0:0:0:
308,100,105782,1,2,1:2:0:0:
314,91,105870,38,0,L|337:240,1,150,2|0,3:2|0:0,0:0:0:0:
284,299,106223,1,8,3:2:0:0:
416,318,106399,1,2,1:2:0:0:
343,351,106576,1,0,3:0:0:0:
284,299,106752,1,0,3:0:0:0:
64,352,106929,69,10,3:2:0:0:
53,272,107105,1,2,1:2:0:0:
51,262,107194,1,2,1:2:0:0:
50,252,107282,37,10,3:2:0:0:
284,299,107458,1,10,3:3:0:0:
265,222,107635,1,8,3:3:0:0:
48,342,107811,70,0,B|293:298,1,239.999992675781,6|0,3:2|3:0,0:0:0:0:
108,352,108341,6,0,L|48:342,1,60,10|0,3:2|0:0,0:0:0:0:
37,337,108694,86,0,L|184:310,1,150,6|0,3:2|0:0,0:0:0:0:
192,302,109047,1,10,3:2:0:0:
58,229,109223,1,2,1:2:0:0:
117,178,109399,1,0,3:0:0:0:
185,222,109576,1,0,3:0:0:0:
352,384,109752,5,8,3:2:0:0:
341,304,109929,1,2,1:2:0:0:
339,294,110017,1,2,1:2:0:0:
338,284,110105,102,0,L|485:311,1,150,2|0,3:2|0:0,0:0:0:0:
496,304,110458,1,10,3:2:0:0:
472,132,110635,1,2,1:2:0:0:
406,177,110811,1,2,3:2:0:0:
432,254,110988,1,0,3:0:0:0:
184,326,111164,5,8,3:2:0:0:
173,246,111341,1,2,1:2:0:0:
171,236,111429,1,2,1:2:0:0:
170,226,111517,102,0,L|317:253,1,150,6|0,3:2|0:0,0:0:0:0:
307,261,111870,1,8,3:2:0:0:
458,331,112047,1,0,1:2:0:0:
390,287,112223,1,0,3:0:0:0:
376,208,112399,1,2,3:2:0:0:
491,13,112576,5,8,3:2:0:0:
502,93,112752,1,2,1:2:0:0:
504,103,112841,1,2,1:2:0:0:
505,113,112929,5,2,3:2:0:0:
376,208,113105,1,2,1:2:0:0:
442,162,113282,1,8,3:2:0:0:
378,372,113458,1,2,1:2:0:0:
377,290,113635,102,0,L|480:308,1,104.999996795654,2|0,3:2|0:0,0:0:0:0:
369,279,113988,6,0,L|309:289,1,60,10|2,3:2|1:2,0:0:0:0:
377,290,114341,22,0,L|354:141,1,150,6|0,3:2|0:0,0:0:0:0:
285,88,114694,1,10,3:2:0:0:
411,61,114870,1,2,1:2:0:0:
409,70,114958,1,2,1:2:0:0:
407,79,115047,1,0,3:0:0:0:
354,141,115223,1,2,3:2:0:0:
132,112,115399,69,8,3:2:0:0:
213,135,115576,1,2,1:2:0:0:
211,144,115664,1,2,1:2:0:0:
208,152,115752,38,0,L|231:301,1,150,2|0,3:2|0:0,0:0:0:0:
252,369,116105,70,0,L|242:309,1,60,10|0,3:2|0:0,0:0:0:0:
166,357,116458,1,2,3:2:0:0:
242,309,116635,1,0,3:0:0:0:
318,261,116811,2,0,L|328:321,1,59.9999981689454,10|2,3:2|1:2,0:0:0:0:
321,329,117076,1,2,1:2:0:0:
315,338,117164,38,0,L|292:189,1,150,6|0,3:2|0:0,0:0:0:0:
345,130,117517,1,8,3:2:0:0:
257,81,117694,1,0,1:0:0:0:
158,99,117870,1,0,3:0:0:0:
257,81,118047,1,0,1:0:0:0:
433,179,118223,70,0,L|451:278,1,100,8|2,3:2|1:2,0:0:0:0:
446,289,118488,1,2,1:2:0:0:
442,301,118576,37,2,3:2:0:0:
353,348,118752,69,10,3:2:0:0:
290,295,118929,37,2,1:2:0:0:
122,330,119105,69,10,3:2:0:0:
122,330,119194,1,8,3:2:0:0:
122,330,119282,38,0,B|218:338|218:338|203:322|212:294,1,134.999995880127,6|0,3:2|0:0,0:0:0:0:
290,295,119635,70,0,L|395:304,1,89.9999972534181,14|0,3:3|0:0,0:0:0:0:
441,360,119988,53,6,3:2:0:0:
413,221,120164,1,2,3:2:0:0:
385,82,120341,1,2,3:2:0:0:
383,70,120517,1,2,1:2:0:0:
415,233,120694,70,0,L|266:219,1,150,10|0,3:3|0:0,0:0:0:0:
265,218,121047,1,8,3:3:0:0:
168,276,121223,1,2,3:2:0:0:
165,265,121311,1,0,3:0:0:0:
162,254,121399,37,6,3:2:0:0:
237,114,121576,1,2,3:2:0:0:
393,129,121752,2,0,P|441:185|429:256,1,150,10|0,3:3|0:0,0:0:0:0:
372,309,122105,70,0,B|372:335|372:335|396:329,1,50,10|0,3:2|0:0,0:0:0:0:
494,307,122282,2,0,B|517:300|517:300|504:278,1,50,0|0,1:0|0:0,0:0:0:0:
429,256,122458,38,0,L|309:266,1,120,10|0,3:3|0:0,0:0:0:0:
260,372,122811,69,6,3:2:0:0:
215,220,122988,1,2,3:2:0:0:
71,154,123164,2,0,L|85:303,1,150,10|0,3:3|0:0,0:0:0:0:
85,146,123517,38,0,L|78:55,1,89.9999972534181,10|0,3:2|0:0,0:0:0:0:
79,55,123870,1,10,3:3:0:0:
187,5,124047,1,10,3:2:0:0:
190,15,124135,1,8,3:2:0:0:
194,26,124223,69,14,3:2:0:0:
318,145,124399,1,2,1:3:0:0:
438,22,124576,1,10,3:2:0:0:
438,22,124929,37,8,3:2:0:0:
491,100,125105,1,2,3:2:0:0:
489,177,125282,1,10,3:2:0:0:
471,194,125458,1,2,1:2:0:0:
416,352,125635,38,0,L|297:342,1,120,6|0,3:2|0:0,0:0:0:0:
126,312,125988,6,0,L|291:327,1,165.000005035401,10|0,3:2|0:0,0:0:0:0:
278,240,126341,21,2,3:2:0:0:
290,326,126517,1,0,3:0:0:0:
264,153,126694,70,0,P|305:164|342:140,1,89.9999972534181,10|0,3:2|0:0,0:0:0:0:
246,144,127047,6,0,P|188:139|150:183,1,120,6|0,3:3|0:0,0:0:0:0:
255,164,127399,22,0,L|270:-1,1,165.000005035401,8|0,3:2|0:0,0:0:0:0:
293,101,127752,69,2,3:2:0:0:
348,170,127929,1,2,3:2:0:0:
403,239,128105,1,10,3:2:0:0:
430,159,128282,5,2,1:2:0:0:
434,149,128370,1,0,1:0:0:0:
438,139,128458,22,0,P|388:203|402:281,1,165.000005035401,6|0,3:2|0:0,0:0:0:0:
400,296,128811,2,0,P|427:285|434:256,1,60,10|0,3:2|0:0,0:0:0:0:
379,184,129164,69,2,3:2:0:0:
486,326,129341,1,0,3:0:0:0:
434,257,129517,6,0,P|403:286|345:284,1,89.9999972534181,10|0,3:2|0:0,0:0:0:0:
276,197,129870,22,0,P|328:220|340:277,1,120,2|0,3:2|0:0,0:0:0:0:
256,384,130223,70,0,P|261:307|336:289,1,165.000005035401,10|0,3:2|0:0,0:0:0:0:
220,310,130576,5,2,3:2:0:0:
132,296,130752,1,0,3:0:0:0:
45,284,130929,2,0,P|57:245|83:231,1,60,10|0,3:2|0:0,0:0:0:0:
71,234,131282,85,14,3:2:0:0:
220,310,131458,1,0,3:0:0:0:
206,141,131635,53,10,3:2:0:0:
174,223,131811,1,0,3:0:0:0:
328,338,131988,53,10,3:2:0:0:
283,225,132164,1,0,3:0:0:0:
112,153,132341,53,10,3:2:0:0:
45,303,132517,1,0,3:0:0:0:
328,338,132694,54,0,P|374:263|461:253,1,179.999994506836,14|0,3:2|0:0,0:0:0:0:
485,139,133047,53,10,3:2:0:0:
402,174,133223,1,0,3:0:0:0:
226,34,133399,53,10,3:2:0:0:
324,110,133576,1,0,3:0:0:0:
284,367,133752,53,10,3:2:0:0:
308,210,133929,1,0,3:0:0:0:
485,139,134105,54,0,B|460:145|441:128|441:128|442:158|483:173,1,104.999996795654,14|0,3:2|0:0,0:0:0:0:
482,64,134458,53,0,3:0:0:0:
362,59,134635,1,2,3:2:0:0:
244,54,134811,1,2,3:2:0:0:
89,182,134988,1,8,3:3:0:0:
256,40,135164,1,2,3:2:0:0:
75,192,135341,1,8,3:3:0:0:
409,329,135517,53,10,3:2:0:0:
228,177,135694,1,10,3:2:0:0:
47,25,135870,54,0,B|68:6|68:6|189:17,1,150,10|0,3:2|0:0,0:0:0:0:
259,0,136223,54,0,B|270:20|289:32|289:32|271:36|253:56,1,89.9999972534181,2|0,3:2|0:0,0:3:0:0:
264,130,136576,54,0,L|129:118,1,134.999995880127,10|0,1:2|0:0,0:0:0:0:
47,25,136929,6,0,P|98:93|65:173,1,179.999994506836,6|0,3:3|0:0,0:0:0:0:
50,264,137282,2,0,B|41:275|41:275|31:258,1,34.9999989318848,8|0,3:2|0:0,0:0:0:0:
6,104,137459,1,2,1:2:0:0:
79,352,137635,2,0,P|97:266|187:238,1,179.999994506836,6|0,3:3|0:0,0:0:0:0:
289,209,137988,6,0,B|291:181|248:175|248:175|274:199|274:254,1,120,8|0,3:2|0:0,0:0:0:0:
313,322,138341,6,0,P|319:255|350:123,1,179.999994506836,6|0,3:3|0:0,0:0:0:0:
435,118,138694,2,0,B|445:133|445:133|428:137,1,34.9999989318848,8|0,3:2|0:0,0:0:0:0:
278,87,138870,1,2,1:2:0:0:
384,59,139047,5,6,3:3:0:0:
435,118,139223,1,0,3:0:0:0:
482,279,139400,70,0,P|454:267|440:241,1,60,8|0,3:2|0:0,0:0:0:0:
482,279,139753,6,0,B|431:259|414:305|413:313|412:319|376:365|332:341,1,179.999994506836,6|0,3:3|0:0,0:0:0:0:
258,356,140106,2,0,B|249:375|249:375|278:368,1,34.9999989318848,8|0,3:2|0:0,0:0:0:0:
353,260,140282,1,2,1:2:0:0:
227,195,140459,5,6,3:3:0:0:
259,265,140635,1,0,3:0:0:0:
243,89,140811,6,0,B|212:103|207:121|207:121|231:110|263:129,1,104.999996795654,8|0,3:2|0:0,0:0:0:0:
227,195,141164,70,0,B|248:176|248:176|427:144,1,209.999993591309,6|0,3:3|0:0,0:0:0:0:
300,43,141517,6,0,B|284:29|284:29|157:6,1,150,10|0,3:2|0:0,0:0:0:0:
63,6,141870,1,2,3:2:0:0:
22,131,142047,1,0,3:0:0:0:
27,330,142223,6,0,B|33:297|33:297|158:275|158:275|185:306,1,194.999991073609,10|0,3:2|0:0,0:0:0:0:
186,315,142576,6,0,P|174:298|179:277,1,44.999998626709,6|0,3:2|0:0,0:0:0:0:
194,329,142929,70,0,P|175:296|243:205,1,165.000005035401,10|0,3:2|0:0,0:0:0:0:
152,214,143282,1,6,3:3:0:0:
287,267,143459,1,0,3:0:0:0:
162,364,143635,5,10,3:2:0:0:
194,329,143811,1,2,1:2:0:0:
287,267,143988,6,0,B|300:300|329:310|329:310|302:333|281:306,1,120,6|0,3:2|0:0,0:0:0:0:
376,379,144341,6,0,L|344:201,1,179.999994506836,10|0,3:2|0:0,0:0:0:0:
404,276,144694,69,6,3:3:0:0:
455,335,144870,1,0,3:0:0:0:
416,100,145047,6,0,B|385:88|385:88|385:112|385:112|415:100,1,89.9999972534181,8|0,3:2|0:0,0:0:0:0:
429,27,145400,5,2,3:2:0:0:
317,57,145576,1,2,1:2:0:0:
343,204,145753,1,10,3:2:0:0:
419,103,145929,6,0,L|442:231,2,129.999994049073,2|0|2,1:2|3:2|3:2,0:0:0:0:
512,256,146459,69,10,3:2:0:0:
505,287,146547,1,2,1:2:0:0:
476,320,146635,1,2,1:2:0:0:
421,323,146723,1,2,1:2:0:0:
378,276,146811,5,2,3:2:0:0:
279,23,146988,1,10,3:2:0:0:
26,122,147164,6,0,P|55:124|77:144,1,60,2|0,3:2|0:0,0:0:0:0:
159,73,147517,6,0,P|106:97|91:152,1,120,10|0,3:2|0:0,0:0:0:0:
0,119,147870,70,0,P|91:162|117:261,1,209.999993591309,10|0,1:2|0:0,0:0:0:0:
47,350,148223,6,0,B|98:370|115:324|116:316|117:310|153:264|197:288,1,179.999994506836,6|0,3:3|0:0,0:0:0:0:
266,259,148576,2,0,B|277:245|277:245|260:242,1,34.9999989318848,8|0,3:2|0:0,0:0:0:0:
138,345,148753,1,2,1:2:0:0:
42,236,148929,5,6,3:3:0:0:
116,261,149105,1,0,3:0:0:0:
14,118,149282,6,0,B|22:147|53:160|53:160|20:152|0:175,1,120,8|0,3:2|0:0,0:0:0:0:
42,236,149635,70,0,P|101:173|189:173,1,179.999994506836,6|0,3:3|0:0,0:0:0:0:
248,118,149988,2,0,B|265:117|265:117|254:135,1,34.9999989318848,10|0,3:2|0:0,0:0:0:0:
173,252,150164,1,2,1:2:0:0:
114,148,150341,5,6,3:3:0:0:
80,78,150517,1,0,3:0:0:0:
291,59,150694,6,0,P|271:39|243:48,1,60,10|0,3:2|0:0,0:0:0:0:
359,0,151047,6,0,P|327:80|367:158,1,179.999994506836,6|0,3:3|0:0,0:0:0:0:
348,229,151400,2,0,B|362:241|362:241|375:234,1,34.9999989318848,8|0,3:2|0:0,0:0:0:0:
456,95,151576,1,2,1:2:0:0:
505,259,151753,69,6,3:3:0:0:
460,195,151929,1,0,3:0:0:0:
487,351,152106,6,0,B|467:351|458:315|458:315|480:334|510:332,1,104.999996795654,8|0,3:2|0:0,0:0:0:0:
400,374,152459,5,14,3:2:0:0:
339,206,152635,1,0,3:0:0:0:
309,23,152811,5,10,3:2:0:0:
261,154,152988,1,2,3:2:0:0:
289,341,153164,69,10,3:2:0:0:
255,248,153341,1,0,3:0:0:0:
198,56,153517,6,0,B|182:85|182:85|57:63|57:63|33:99,1,194.999991073609,10|0,3:2|0:0,0:0:0:0:
26,102,153870,6,0,L|70:109,1,44.999998626709,6|0,3:2|0:0,0:0:0:0:
15,112,154223,6,0,L|177:140,1,165.000005035401,10|0,3:2|0:0,0:0:0:0:
141,52,154576,1,6,3:3:0:0:
83,195,154753,1,0,3:0:0:0:
31,35,154929,1,10,3:2:0:0:
177,140,155106,1,2,1:2:0:0:
21,313,155282,70,0,P|88:268|163:293,1,165.000005035401,6|0,3:2|0:0,0:0:0:0:
234,276,155635,2,0,B|250:290|250:290|238:296,1,34.9999989318848,10|0,3:2|0:0,0:0:0:0:
102,360,155811,1,2,1:2:0:0:
11,248,155988,5,6,3:3:0:0:
91,277,156164,1,0,3:0:0:0:
198,379,156341,1,8,3:2:0:0:
186,276,156517,5,2,1:2:0:0:
185,286,156605,1,2,1:2:0:0:
184,296,156694,2,0,B|204:313|204:313|340:289,1,165.000005035401,6|0,3:2|0:0,0:0:0:0:
390,362,157047,5,10,3:2:0:0:
429,254,157223,1,0,3:0:0:0:
271,119,157400,69,10,3:2:0:0:
328,278,157576,1,0,3:0:0:0:
495,85,157752,5,10,3:2:0:0:
488,54,157840,1,2,1:2:0:0:
459,21,157928,1,2,1:2:0:0:
404,18,158016,1,2,1:2:0:0:
361,65,158104,5,10,3:2:0:0:
262,318,158281,1,2,3:2:0:0:
9,219,158458,1,2,3:2:0:0:
8,219,159164,54,0,P|16:198|10:176,1,44.999998626709,10|0,1:2|0:0,0:0:0:0:
0,163,159517,102,0,B|0:193|27:199|27:199|156:188|156:188|201:193|201:240,1,239.999992675781,4|8,3:2|3:2,0:0:0:0:
155,344,160047,1,2,3:2:0:0:
149,355,160135,1,2,1:2:0:0:
143,366,160223,2,0,L|133:257,1,100,2|0,1:2|3:0,0:0:0:0:
64,32,160576,21,10,3:2:0:0:
70,43,160752,1,2,1:2:0:0:
96,160,160929,85,2,3:2:0:0:
142,88,161105,1,2,1:2:0:0:
148,77,161194,1,2,1:2:0:0:
154,66,161282,21,10,3:2:0:0:
244,240,161458,1,2,3:2:0:0:
199,153,161635,85,2,1:2:0:0:
250,251,161811,2,0,L|359:241,1,100,2|8,3:2|3:2,0:0:0:0:
418,373,162164,1,2,3:2:0:0:
424,362,162252,1,0,3:0:0:0:
430,351,162341,21,10,3:3:0:0:
385,264,162517,1,2,3:2:0:0:
295,177,162694,85,10,3:2:0:0:
371,28,162870,1,2,3:2:0:0:
395,135,163047,21,0,1:0:0:0:
401,146,163223,1,2,3:2:0:0:
371,28,163399,1,2,1:2:0:0:
365,39,163488,1,2,1:2:0:0:
359,50,163576,86,0,B|359:80|332:86|332:86|203:75|203:75|158:80|158:127,1,239.999992675781,6|2,3:2|3:2,0:0:0:0:
104,219,164105,21,8,3:2:0:0:
153,122,164282,1,2,3:2:0:0:
98,230,164458,86,0,L|157:235,1,60,10|0,3:2|0:0,0:0:0:0:
92,241,164811,22,0,L|256:254,1,165.000005035401,10|0,3:2|0:0,0:0:0:0:
262,265,165164,1,10,3:3:0:0:
335,40,165341,85,2,3:2:0:0:
341,51,165429,1,2,1:2:0:0:
347,62,165517,1,10,3:2:0:0:
447,245,165693,1,2,3:2:0:0:
396,154,165870,1,2,1:2:0:0:
323,380,166047,21,2,3:2:0:0:
317,369,166135,1,2,1:2:0:0:
311,357,166223,1,10,3:2:0:0:
211,174,166399,1,2,1:2:0:0:
262,265,166576,1,8,3:3:0:0:
335,40,166752,85,2,3:2:0:0:
447,245,166928,1,10,3:2:0:0:
396,154,167105,1,2,3:2:0:0:
390,143,167194,1,2,1:2:0:0:
384,132,167282,21,2,1:2:0:0:
447,245,167458,1,2,3:2:0:0:
335,40,167635,1,8,3:2:0:0:
454,256,167811,2,0,L|344:265,1,110.000003356934,2|10,1:2|3:3,0:0:0:0:
460,267,168164,1,2,3:2:0:0:
198,374,168341,85,10,3:2:0:0:
320,137,168517,1,10,3:3:0:0:
120,63,168694,21,2,1:2:0:0:
205,229,168870,1,10,3:2:0:0:
215,120,169047,85,2,3:2:0:0:
221,109,169135,1,2,3:2:0:0:
227,98,169223,22,0,B|227:128|200:134|200:134|71:123|71:123|26:128|26:175,1,239.999992675781,6|2,3:2|1:2,0:0:0:0:
33,170,169752,1,2,1:2:0:0:
104,28,169929,86,0,B|129:30|134:61|134:61|117:240,1,224.999993133545,2|0,1:2|0:0,0:0:0:0:
141,342,170458,6,0,B|142:317|154:300|154:300|128:313|104:306,1,89.9999972534181,10|0,1:2|0:0,0:0:0:0:
230,353,170811,38,0,P|121:341|14:364,1,220.000006713867,6|10,3:2|3:2,0:0:0:0:
246,346,171341,2,0,P|300:359|354:350,2,110.000003356934,2|0|2,1:2|3:0|3:2,0:0:0:0:
384,107,171870,54,0,P|413:110|435:129,1,60,10|0,3:2|0:0,0:0:0:0:
296,62,172223,54,0,P|403:85|512:73,1,220.000006713867,6|10,3:2|3:2,0:0:0:0:
281,71,172752,2,0,P|227:58|173:67,2,110.000003356934,2|0|2,1:2|3:0|3:2,0:0:0:0:
0,118,173282,54,0,P|20:139|24:168,1,60,10|0,3:2|0:0,0:0:0:0:
109,120,173635,54,0,P|52:210|75:315,1,220.000006713867,6|10,3:2|3:2,0:0:0:0:
124,115,174164,2,0,P|160:75|164:21,2,110.000003356934,2|0|2,1:2|3:0|3:2,0:0:0:0:
388,248,174694,54,0,P|396:220|420:203,1,60,10|0,3:2|0:0,0:0:0:0:
462,261,175047,54,0,P|404:171|426:66,1,220.000006713867,6|10,3:2|3:2,0:0:0:0:
466,277,175576,2,0,P|500:319|503:373,2,110.000003356934,2|0|2,1:2|3:0|3:2,0:0:0:0:
403,130,176105,1,10,3:2:0:0:
409,118,176282,1,2,1:2:0:0:
496,127,176458,102,0,B|446:136|438:92|438:85|439:79|413:32|370:46,1,165.000005035401,6|0,3:3|0:0,0:0:0:0:
297,72,176811,2,0,B|292:94|270:108|270:108|308:90|335:115,1,110.000003356934,10|2,3:2|1:2,0:0:0:0:
229,46,177164,1,0,3:0:0:0:
232,50,177341,1,0,3:0:0:0:
297,72,177517,69,10,3:2:0:0:
158,36,177694,1,2,1:2:0:0:
11,70,177870,38,0,B|61:61|69:105|69:112|68:118|94:165|137:151,1,165.000005035401,6|0,3:3|0:0,0:0:0:0:
193,234,178223,2,0,B|210:218|202:186|202:186|193:210|156:220,1,110.000003356934,10|0,3:2|1:0,0:0:0:0:
143,293,178576,1,2,3:2:0:0:
146,297,178752,1,0,3:0:0:0:
31,353,178929,70,0,P|51:331|86:338,1,60,10|0,3:2|0:0,0:0:0:0:
34,363,179282,38,0,P|65:287|49:208,1,165.000005035401,6|0,3:3|0:0,0:0:0:0:
52,132,179635,2,0,B|22:139|-1:105|-1:105|10:128|4:150,1,110.000003356934,8|2,3:2|1:2,0:0:0:0:
58,60,179988,1,0,3:0:0:0:
61,64,180164,1,0,3:0:0:0:
49,208,180341,69,10,3:2:0:0:
179,95,180517,1,2,1:2:0:0:
416,32,180694,2,0,P|447:123|448:220,1,194.999991073609,6|0,3:3|0:0,0:0:0:0:
486,151,181047,1,8,3:2:0:0:
436,295,181223,6,0,B|404:331|439:363|439:363|476:330|435:284,2,150.000005722046,6|0|0,1:3|3:0|3:0,0:0:0:0:
489,36,181752,102,0,P|460:43|442:66,1,60,10|0,3:2|0:0,0:0:0:0:
504,19,182105,54,0,P|439:49|449:204,1,220.000006713867,6|10,3:2|3:2,0:0:0:0:
474,360,182635,2,0,P|461:309|413:284,2,110.000003356934,2|0|2,1:2|3:0|3:2,0:0:0:0:
121,351,183164,54,0,P|132:323|158:309,1,60,10|0,3:2|0:0,0:0:0:0:
98,353,183517,54,0,P|140:254|98:156,1,220.000006713867,6|10,3:2|3:2,0:0:0:0:
294,160,184047,2,0,P|279:108|307:63,2,110.000003356934,2|0|2,1:2|3:0|3:2,0:0:0:0:
61,92,184576,54,0,P|39:106|26:143,1,60,10|0,3:2|0:0,0:0:0:0:
6,26,184929,54,0,P|99:80|206:64,1,220.000006713867,6|10,3:2|3:2,0:0:0:0:
61,92,185458,2,0,P|59:146|94:187,1,110.000003356934,2|0,1:2|3:0,0:0:0:0:
138,119,185811,1,2,3:2:0:0:
53,268,185988,1,8,3:2:0:0:
148,104,186164,1,2,1:2:0:0:
305,74,186341,54,0,P|282:169|295:265,1,194.999991073609,6|0,3:3|0:0,0:0:0:0:
139,324,186694,54,0,P|149:244|131:165,1,150,10|0,3:2|0:0,0:0:0:0:
200,245,187047,1,2,3:2:0:0:
210,260,187223,1,0,3:0:0:0:
56,317,187399,70,0,P|30:329|1:325,1,60,10|0,3:2|0:0,0:0:0:0:
20,249,187752,6,0,P|77:191|76:110,1,165.000005035401,14|0,3:2|0:0,0:0:0:0:
293,190,188105,2,0,P|293:270|350:328,1,165.000005035401,10|0,3:2|0:0,0:0:0:0:
222,370,188458,101,10,3:2:0:0:
158,216,188635,1,2,3:2:0:0:
3,159,188811,5,10,3:2:0:0:
67,5,188988,1,2,3:2:0:0:
158,216,189164,101,12,3:2:0:0:
222,370,189341,1,0,3:0:0:0:
481,354,189517,6,0,P|423:299|430:219,1,165.000005035401,10|0,3:2|0:0,0:0:0:0:
257,210,189870,2,0,P|315:156|308:76,1,165.000005035401,10|0,3:2|0:0,0:0:0:0:
430,219,190223,2,0,P|423:299|481:354,1,165.000005035401,10|0,3:2|0:0,0:0:0:0:
321,364,190576,101,14,3:2:0:0:
257,210,190752,1,0,1:0:0:0:
493,63,190929,5,8,3:2:0:0:
430,219,191105,1,0,1:0:0:0:
321,364,191282,101,8,3:2:0:0:
257,210,191458,1,0,3:0:0:0:
493,63,191635,5,8,3:2:0:0:
430,219,191811,1,0,3:0:0:0:
193,56,191988,101,8,3:2:0:0:
257,210,192164,1,0,3:0:0:0:
31,354,192341,6,0,P|89:299|82:219,1,165.000005035401,10|0,3:2|0:0,0:0:0:0:
243,191,192694,2,0,P|186:137|192:57,1,165.000005035401,10|0,3:2|0:0,0:0:0:0:
82,220,193047,2,0,P|88:300|31:354,1,165.000005035401,10|0,3:2|0:0,0:0:0:0:
49,160,193399,102,0,B|77:135|110:150|110:150|96:112|60:115,1,120,14|0,3:2|0:0,0:0:0:0:
74,98,193752,5,10,3:2:0:0:
89,62,193929,1,0,3:0:0:0:
189,23,194105,101,10,3:3:0:0:
241,152,194282,1,0,3:0:0:0:
352,224,194458,5,8,3:2:0:0:
429,33,194635,1,0,3:0:0:0:
437,358,194811,86,0,B|341:358|341:358|314:323|314:323|343:291|343:291|435:291|435:291|466:258|466:258|435:224|435:224|337:224,1,449.99998626709,12|0,3:3|0:0,0:0:0:0:
351,224,196223,37,6,3:2:0:0:
404,152,196752,53,2,2:2:0:0:
351,79,196929,1,2,1:2:0:0:
356,230,197635,21,6,3:2:0:0:
356,230,197988,21,2,2:2:0:0:
404,152,198164,1,2,2:2:0:0:
351,79,198341,53,2,1:2:0:0:
266,113,198694,21,2,1:2:0:0:
266,204,199047,21,6,3:2:0:0:
266,295,199752,53,2,1:2:0:0:
266,295,200458,21,2,1:2:0:0:
175,316,200811,21,6,3:2:0:0:
121,245,201164,53,6,3:2:0:0:
175,173,201517,21,6,3:2:0:0:
264,196,201870,21,6,3:2:0:0:
353,219,202223,53,2,1:2:0:0:
442,242,202576,21,6,3:2:0:0:
353,219,202929,21,2,1:2:0:0:
264,196,203105,1,2,1:2:0:0:
175,173,203282,53,6,3:2:0:0:
121,245,203635,21,2,1:2:0:0:
175,316,203988,21,6,3:2:0:0:
266,295,204341,53,2,1:2:0:0:
264,196,204694,21,10,3:2:0:0:
175,173,204870,1,2,3:2:0:0:
86,150,205047,1,10,3:2:0:0:
353,219,205223,21,2,3:2:0:0:
288,314,205399,1,8,3:2:0:0:
441,241,205576,1,2,3:2:0:0:
264,196,205752,53,10,3:2:0:0:
157,356,205929,1,0,3:0:0:0:
441,241,206105,21,10,3:2:0:0:
264,196,206282,1,10,3:2:0:0:
86,150,206458,22,0,P|29:192|49:259,1,150,10|0,3:2|0:0,0:0:0:0:
106,319,206811,54,0,B|150:319|150:319|127:280,1,89.9999972534181,2|0,3:2|0:0,0:0:0:0:
33,367,207164,22,0,P|74:317|49:259,1,134.999995880127,10|0,1:2|0:0,0:0:0:0:
33,366,207517,22,0,P|108:324|189:358,1,179.999994506836,6|0,3:3|0:0,0:0:0:0:
266,367,207870,2,0,B|280:356|280:356|264:349,1,34.9999989318848,8|0,3:2|0:0,0:0:0:0:
104,304,208047,1,2,1:2:0:0:
272,252,208223,5,6,3:3:0:0:
198,277,208399,1,0,3:0:0:0:
388,253,208576,6,0,B|355:255|338:226|338:226|350:257|336:284,1,120,8|0,3:2|0:0,0:0:0:0:
404,263,208929,6,0,P|420:176|370:104,1,179.999994506836,6|0,3:3|0:0,0:0:0:0:
319,43,209282,2,0,B|318:26|318:26|336:37,1,34.9999989318848,10|0,3:2|0:0,0:0:0:0:
445,137,209458,1,2,1:2:0:0:
337,175,209635,69,6,3:3:0:0:
371,105,209811,1,0,3:0:0:0:
469,9,209988,6,0,P|497:7|512:32,1,60,10|0,3:2|0:0,0:0:0:0:
469,9,210341,6,0,B|418:-11|401:35|400:43|399:49|363:95|319:71,1,179.999994506836,6|0,3:3|0:0,0:0:0:0:
244,58,210694,2,0,B|239:41|239:41|255:31,1,34.9999989318848,8|0,3:2|0:0,0:0:0:0:
404,91,210870,1,2,1:2:0:0:
307,153,211047,5,6,3:3:0:0:
243,198,211223,1,0,3:0:0:0:
122,77,211399,70,0,B|134:49|126:22|126:22|155:46|147:64,1,104.999996795654,8|0,3:2|0:0,0:0:0:0:
52,45,211752,5,14,3:2:0:0:
112,212,211929,1,0,3:0:0:0:
334,187,212105,5,10,3:2:0:0:
193,161,212282,1,2,3:2:0:0:
129,340,212458,5,10,3:2:0:0:
193,263,212635,1,0,3:0:0:0:
52,45,212811,70,0,B|68:74|68:74|193:52|193:52|217:88,1,194.999991073609,10|0,3:2|0:0,0:0:0:0:
222,90,213164,6,0,P|241:79|249:59,1,44.999998626709,6|0,3:2|0:0,0:0:0:0:
232,97,213517,6,0,P|173:150|179:229,1,165.000005035401,10|0,3:2|0:0,0:0:0:0:
144,131,213870,1,6,3:3:0:0:
0,73,214047,1,0,3:0:0:0:
144,131,214223,1,10,3:2:0:0:
299,18,214399,1,2,1:2:0:0:
512,171,214576,6,0,P|434:146|369:190,1,165.000005035401,6|0,3:2|0:0,0:0:0:0:
311,234,214929,2,0,B|314:256|314:256|326:248,1,34.9999989318848,10|0,3:2|0:0,0:0:0:0:
449,238,215105,1,2,1:2:0:0:
282,134,215282,69,6,3:3:0:0:
227,200,215458,1,0,3:0:0:0:
79,181,215635,1,8,3:2:0:0:
133,86,215811,5,2,1:2:0:0:
139,79,215899,1,2,1:2:0:0:
145,71,215988,2,0,B|163:90|163:90|151:228,1,165.000005035401,6|0,3:2|0:0,0:0:0:0:
67,290,216341,5,10,3:2:0:0:
175,329,216517,1,0,3:0:0:0:
310,171,216694,5,10,3:2:0:0:
151,228,216870,1,0,3:0:0:0:
391,365,217046,69,10,3:2:0:0:
422,358,217134,1,2,1:2:0:0:
455,329,217222,1,2,1:2:0:0:
458,274,217310,1,2,1:2:0:0:
411,231,217399,5,10,3:2:0:0:
162,340,217576,1,2,3:2:0:0:
53,91,217752,1,2,3:2:0:0:
53,91,218105,6,0,P|103:98|142:66,1,104.999996795654,2|0,2:2|0:0,0:0:0:0:
53,92,218458,54,0,L|53:197,1,104.999996795654,10|0,1:2|0:0,0:0:0:0:
53,92,218811,54,0,P|127:64|201:99,1,165.000005035401,4|0,3:2|0:0,0:0:0:0:
232,161,219164,2,0,B|255:169|255:169|260:139,1,55.0000016784668,8|0,3:2|0:0,0:0:0:0:
484,86,219341,2,0,L|319:100,1,165.000005035401,2|0,3:2|0:0,0:0:0:0:
312,208,219694,1,2,3:2:0:0:
302,194,219782,1,2,1:2:0:0:
312,180,219870,6,0,L|404:172,1,89.9999972534181,10|0,3:2|0:0,0:0:0:0:
436,239,220223,101,2,3:2:0:0:
402,172,220399,1,0,3:0:0:0:
471,311,220576,1,8,3:2:0:0:
377,384,220752,2,0,B|355:362|355:362|222:374,1,165.000005035401,2|0,3:2|0:0,0:0:0:0:
139,330,221105,5,2,3:2:0:0:
136,315,221194,1,2,1:2:0:0:
153,307,221282,1,10,3:2:0:0:
222,374,221458,101,10,3:2:0:0:
216,369,221547,1,10,3:2:0:0:
209,366,221635,2,0,P|165:309|195:206,1,165.000005035401,10|0,3:3|0:0,0:0:0:0:
114,178,221988,2,0,B|124:148|124:148|146:155,1,55.0000016784668,10|0,3:2|0:0,0:0:0:0:
309,51,222164,1,2,3:2:0:0:
247,140,222341,5,2,1:2:0:0:
240,130,222517,1,2,3:2:0:0:
373,265,222870,102,0,P|293:269|250:335,1,165.000005035401,6|0,3:2|0:0,0:0:0:0:
176,375,223223,2,0,B|156:352|156:352|168:330,1,55.0000016784668,2|0,3:2|0:0,0:0:0:0:
186,178,223399,5,10,3:2:0:0:
24,190,223576,1,2,3:2:0:0:
186,178,223752,102,0,P|206:189|215:209,1,44.999998626709,2|0,3:2|0:0,0:0:0:0:
175,168,224105,6,0,P|212:191|219:234,1,89.9999972534181,2|0,3:2|0:0,0:0:0:0:
175,168,224458,102,0,B|192:143|192:143|325:131,1,165.000005035401,6|0,3:2|0:0,0:0:0:0:
390,100,224811,2,0,B|410:115|410:115|397:142,1,55.0000016784668,8|0,3:2|0:0,0:0:0:0:
164,174,224988,2,0,L|-2:186,1,165.000005035401,2|0,3:2|0:0,0:0:0:0:
70,250,225341,1,2,3:2:0:0:
82,260,225429,1,2,1:2:0:0:
97,249,225517,6,0,L|89:159,1,89.9999972534181,10|0,3:2|0:0,0:0:0:0:
27,112,225870,101,2,3:2:0:0:
90,159,226047,1,2,3:2:0:0:
153,205,226223,1,8,3:2:0:0:
149,367,226399,2,0,B|166:342|166:342|299:330,1,165.000005035401,2|0,3:2|0:0,0:0:0:0:
384,330,226752,1,2,3:2:0:0:
390,316,226841,1,2,1:2:0:0:
376,304,226929,1,10,3:2:0:0:
307,226,227105,5,10,3:2:0:0:
312,235,227194,1,10,3:2:0:0:
316,245,227282,2,0,B|348:240|369:217|369:217|338:226|306:197,1,110.000003356934,10|0,3:3|3:0,0:0:0:0:
350,127,227635,101,10,3:2:0:0:
471,297,227811,1,0,3:2:0:0:
399,197,227988,5,2,1:2:0:0:
421,228,228164,1,2,3:2:0:0:
492,41,228517,102,0,B|462:57|462:57|448:209|448:209|421:228,1,220.000006713867,6|0,3:2|3:2,0:0:0:0:
375,161,229047,1,10,3:2:0:0:
467,295,229223,1,2,3:2:0:0:
361,147,229399,6,0,P|359:117|373:91,1,60,10|0,3:2|0:0,0:0:0:0:
375,162,229752,102,0,P|341:106|277:108,1,134.999995880127,10|0,3:2|0:0,0:0:0:0:
210,36,230105,54,0,P|140:63|66:65,2,150.000005722046,4|0|8,3:2|3:0|3:2,0:0:0:0:
0,101,230635,2,0,P|16:125|44:132,1,60,2|0,3:2|0:0,0:0:0:0:
15,268,230988,102,0,P|44:247|81:250,1,75.0000028610231,2|2,3:2|1:2,0:0:0:0:
159,235,231164,2,0,P|182:254|186:283,1,59.9999981689454,10|0,3:2|0:0,0:0:0:0:
180,364,231341,2,0,B|167:380|167:380|157:357,1,44.999998626709,2|0,3:2|0:0,0:0:0:0:
151,116,231517,6,0,P|223:137|297:133,2,150.000005722046,10|0|8,3:2|3:0|3:2,0:0:0:0:
276,251,232047,2,0,P|347:229|421:232,1,150,2|0,3:2|0:0,0:0:0:0:
500,356,232399,102,0,B|475:368|450:345,1,44.999998626709,2|2,3:2|1:2,0:0:0:0:
438,351,232576,2,0,P|418:332|416:306,1,55.0000016784668,10|0,3:2|0:0,0:0:0:0:
498,254,232752,2,0,P|518:244|498:257,1,64.9999970245363,2|0,3:2|0:0,0:0:0:0:
249,320,232929,6,0,B|197:348|151:289|149:281|148:271|126:212|62:238,1,225.000008583069,10|0,3:2|0:0,0:0:0:0:
11,158,233282,102,0,B|24:124|24:124|54:151,1,75.0000028610231,10|0,3:2|0:0,0:0:0:0:
95,326,233458,2,0,B|82:359|82:359|52:333,1,75.0000028610231,2|0,3:2|0:0,0:0:0:0:
22,165,233635,6,0,B|29:141|29:141|48:160,1,50,8|0,3:2|0:0,0:0:0:0:
63,238,233811,2,0,B|57:256|57:256|42:241,1,40,2|8,3:2|3:2,0:0:0:0:
74,17,234164,102,0,B|77:34|93:40|93:40|196:49,2,129.999994049073,2|8|2,3:2|3:2|3:2,0:0:0:0:
272,36,234694,2,0,B|288:62|262:85,1,55.0000016784668,10|0,3:2|0:0,0:0:0:0:
304,153,234870,2,0,B|296:181|261:179,1,55.0000016784668,2|0,3:2|0:0,0:0:0:0:
188,348,235047,6,0,P|204:333|226:332,1,44.999998626709,6|0,3:2|0:0,0:0:0:0:
226,332,235399,102,0,P|175:327|135:293,1,104.999996795654,10|0,3:2|0:0,0:0:0:0:
244,330,235752,6,0,P|318:332|388:359,2,150.000005722046,14|2|8,3:2|3:2|3:2,0:0:0:0:
463,356,236282,2,0,P|461:326|440:306,1,60,2|0,3:2|0:0,0:0:0:0:
313,293,236635,102,0,P|313:256|337:228,1,75.0000028610231,2|2,3:2|1:2,0:0:0:0:
431,168,236811,2,0,P|430:138|411:115,1,59.9999981689454,8|0,3:2|0:0,0:0:0:0:
386,39,236988,2,0,B|365:35|365:35|353:56,1,44.999998626709,2|0,3:2|0:0,0:0:0:0:
96,59,237164,6,0,P|165:32|240:29,2,150.000005722046,10|2|8,3:2|3:2|3:2,0:0:0:0:
255,224,237694,2,0,P|185:197|110:194,1,150.000005722046,2|0,3:2|0:0,0:0:0:0:
0,256,238047,102,0,P|8:277|26:291,1,44.999998626709,2|2,3:2|1:2,0:0:0:0:
31,305,238223,2,0,P|55:316|82:313,1,55.0000016784668,8|0,3:2|0:0,0:0:0:0:
159,358,238399,2,0,P|173:329|166:297,1,64.9999970245363,2|0,3:2|0:0,0:0:0:0:
297,111,238576,6,0,B|245:83|199:142|197:150|196:160|174:219|110:193,1,225.000008583069,2|0,3:2|0:0,0:0:0:0:
41,146,238929,102,0,B|7:159|7:159|34:189,1,75.0000028610231,10|0,3:2|0:0,0:0:0:0:
243,205,239105,2,0,B|269:177|269:177|235:164,1,75.0000028610231,2|0,3:2|0:0,0:0:0:0:
146,101,239282,6,0,P|137:124|138:148,1,50,2|0,1:2|0:0,0:0:0:0:
133,241,239458,2,0,P|134:228|132:216,1,25,10|0,3:2|0:0,0:0:0:0:
234,71,239635,1,8,3:3:0:0:
234,62,239723,1,8,3:3:0:0:
234,53,239811,102,0,B|235:26|213:23|213:23|130:31,1,125,6|0,3:2|0:0,0:0:0:0:
146,101,240341,5,2,1:2:0:0:
256,192,240429,12,4,242811,3:2:0:0:
