osu file format v14

[General]
AudioFilename: audio.ogg
AudioLeadIn: 0
PreviewTime: 63069
Countdown: 0
SampleSet: Normal
StackLeniency: 0.7
Mode: 1
LetterboxInBreaks: 0
WidescreenStoryboard: 1

[Editor]
DistanceSpacing: 1
BeatDivisor: 4
GridSize: 32
TimelineZoom: 1

[Metadata]
Title:Now On Stage!!
TitleUnicode:Now On Stage!!
Artist:nonet
ArtistUnicode:nonet
Creator:Yasuho
Version:Futsuu!!
Source:ガールフレンド(♪)
Tags:ガールフレンド(仮) キャラクターソングシリーズ Character Song Series Vol.01 capu pop j-pop jpop japanese video game girlfriend note onpu kari fumio murakami 村上文緒 chloe lemaire クロエ・ルメール kokomi shina 椎名心実 mutsumi shigino 鴫野睦 momoko asahina 朝比奈桃子 haruka kazemachi 風町陽歌 akane sakurai 櫻井明音 saya kagurazaka 神楽坂砂夜 kaori nazuka 名塚佳織 sakura tange 丹下桜 satomi sato satou 佐藤聡美 minami tsuda 津田美波 yui ogura 小倉唯 saori hayami 早見沙織 rina sato satou 佐藤利奈 minako kotobuki 寿美菜子 livetune ameba mug kz アニメ ゲーム (♪)
BeatmapID:3004789
BeatmapSetID:1462713

[Difficulty]
HPDrainRate:7
CircleSize:2
OverallDifficulty:3
ApproachRate:10
SliderMultiplier:1.4
SliderTickRate:1

[Events]
//Background and Video events
0,0,"bg.png",0,0
//Break Periods
//Storyboard Layer 0 (Background)
//Storyboard Layer 1 (Fail)
//Storyboard Layer 2 (Pass)
//Storyboard Layer 3 (Foreground)
//Storyboard Layer 4 (Overlay)
//Storyboard Sound Samples

[TimingPoints]
1393,352.941176470588,4,1,0,70,1,0
1393,-100,4,1,0,70,0,0
23981,-100,4,1,0,60,0,0
46569,-100,4,1,0,70,0,0
52216,-100,4,1,0,75,0,0
63510,-100,4,1,0,80,0,1
74098,-100,4,1,0,80,0,0
74804,-100,4,1,0,80,0,1
85040,-100,4,1,0,80,0,0
108510,-100,4,1,0,60,0,0
108687,-100,4,1,0,50,0,0
108863,-100,4,1,0,40,0,0
109040,-100,4,1,0,30,0,0
110098,-100,4,1,0,50,0,0

[HitObjects]
256,192,1393,5,12,0:0:0:0:
256,192,1922,1,0,0:0:0:0:
256,192,2098,1,8,0:0:0:0:
256,192,2628,1,0,0:0:0:0:
256,192,2804,1,8,0:0:0:0:
256,192,3157,1,0,0:0:0:0:
256,192,3510,1,8,0:0:0:0:
256,192,4216,1,8,0:0:0:0:
256,192,4745,1,0,0:0:0:0:
256,192,4922,1,8,0:0:0:0:
256,192,5451,1,8,0:0:0:0:
256,192,5628,1,0,0:0:0:0:
256,192,5981,1,0,0:0:0:0:
256,192,6334,1,0,0:0:0:0:
256,192,6687,1,0,0:0:0:0:
256,192,7040,1,12,0:0:0:0:
256,192,7745,1,4,0:0:0:0:
256,192,8451,1,12,0:0:0:0:
256,192,8804,1,0,0:0:0:0:
256,192,9157,1,12,0:0:0:0:
256,192,9863,1,8,0:0:0:0:
256,192,10216,1,8,0:0:0:0:
256,192,10569,1,0,0:0:0:0:
256,192,10745,1,0,0:0:0:0:
256,192,10922,1,8,0:0:0:0:
256,192,11275,1,12,0:0:0:0:
256,192,11981,1,0,0:0:0:0:
256,192,12334,1,8,0:0:0:0:
256,192,12687,1,4,0:0:0:0:
256,192,13216,1,0,0:0:0:0:
256,192,13569,1,0,0:0:0:0:
256,192,13745,1,8,0:0:0:0:
256,192,14098,1,0,0:0:0:0:
256,192,14628,1,0,0:0:0:0:
256,192,14981,1,0,0:0:0:0:
256,192,15157,1,8,0:0:0:0:
256,192,15510,1,0,0:0:0:0:
256,192,15863,1,8,0:0:0:0:
256,192,16040,1,0,0:0:0:0:
256,192,16392,1,0,0:0:0:0:
256,192,16745,1,12,0:0:0:0:
256,192,17098,1,0,0:0:0:0:
256,192,17275,1,8,0:0:0:0:
256,192,17628,1,8,0:0:0:0:
256,192,17981,1,8,0:0:0:0:
256,192,18334,1,4,0:0:0:0:
256,192,18863,1,0,0:0:0:0:
256,192,19392,1,8,0:0:0:0:
256,192,19745,1,0,0:0:0:0:
256,192,20275,1,0,0:0:0:0:
256,192,20628,1,0,0:0:0:0:
256,192,20804,1,8,0:0:0:0:
256,192,21157,1,8,0:0:0:0:
256,192,21510,1,0,0:0:0:0:
256,192,21863,1,8,0:0:0:0:
168,167,22040,1,0,0:0:0:0:
256,192,22392,1,12,0:0:0:0:
256,192,22569,12,0,23628,0:0:0:0:
256,192,23981,5,12,0:0:0:0:
256,192,24334,1,0,0:0:0:0:
256,192,24510,1,8,0:0:0:0:
256,192,25040,1,0,0:0:0:0:
256,192,25392,5,8,0:0:0:0:
256,192,25745,1,0,0:0:0:0:
256,192,25922,1,8,0:0:0:0:
256,192,26451,1,0,0:0:0:0:
256,192,26804,1,8,0:0:0:0:
256,192,27157,1,0,0:0:0:0:
256,192,27334,1,8,0:0:0:0:
256,192,27687,1,8,0:0:0:0:
256,192,28040,1,0,0:0:0:0:
256,192,28922,1,0,0:0:0:0:
256,192,29275,1,0,0:0:0:0:
256,192,29628,1,8,0:0:0:0:
256,192,30334,1,8,0:0:0:0:
256,192,30687,1,0,0:0:0:0:
256,192,31040,1,8,0:0:0:0:
256,192,31392,1,0,0:0:0:0:
256,192,32098,1,0,0:0:0:0:
256,192,32451,1,8,0:0:0:0:
256,192,32981,1,0,0:0:0:0:
256,192,33863,1,12,0:0:0:0:
256,192,34040,1,0,0:0:0:0:
256,192,34392,1,12,0:0:0:0:
256,192,34922,1,0,0:0:0:0:
256,192,35275,1,12,0:0:0:0:
256,192,35628,1,0,0:0:0:0:
256,192,35804,1,8,0:0:0:0:
256,192,36687,1,8,0:0:0:0:
256,192,37040,1,8,0:0:0:0:
227,196,37216,1,0,0:0:0:0:
256,192,38098,1,8,0:0:0:0:
256,192,38451,1,0,0:0:0:0:
256,192,38628,1,8,0:0:0:0:
256,192,38981,1,0,0:0:0:0:
256,192,39334,1,8,0:0:0:0:
256,192,40216,1,8,0:0:0:0:
256,192,40569,1,0,0:0:0:0:
256,192,40922,1,0,0:0:0:0:
182,220,41451,1,0,0:0:0:0:
256,192,41804,1,0,0:0:0:0:
256,192,42157,1,8,0:0:0:0:
281,221,42334,1,0,0:0:0:0:
256,192,42687,1,0,0:0:0:0:
209,130,43040,1,8,0:0:0:0:
256,192,43392,1,0,0:0:0:0:
256,192,43745,1,8,0:0:0:0:
256,192,45157,1,8,0:0:0:0:
263,187,45334,1,0,0:0:0:0:
256,192,45687,1,0,0:0:0:0:
256,192,45863,1,8,0:0:0:0:
256,192,46216,1,0,0:0:0:0:
256,192,46569,1,12,0:0:0:0:
256,192,46922,1,0,0:0:0:0:
225,165,47098,1,0,0:0:0:0:
256,192,47275,1,8,0:0:0:0:
204,160,47628,1,0,0:0:0:0:
256,192,47981,1,8,0:0:0:0:
169,160,48157,1,8,0:0:0:0:
204,169,48334,1,0,0:0:0:0:
223,177,48687,1,0,0:0:0:0:
256,192,49040,1,8,0:0:0:0:
256,192,49392,1,0,0:0:0:0:
159,169,49569,1,0,0:0:0:0:
206,176,49745,1,8,0:0:0:0:
212,130,50098,1,8,0:0:0:0:
207,136,50451,1,0,0:0:0:0:
181,180,50804,1,8,0:0:0:0:
156,190,50981,1,0,0:0:0:0:
181,180,51157,1,0,0:0:0:0:
256,192,51510,1,0,0:0:0:0:
222,170,51863,1,8,0:0:0:0:
256,192,52216,1,4,0:0:0:0:
256,192,52569,1,8,0:0:0:0:
256,192,53275,1,8,0:0:0:0:
256,192,53628,1,0,0:0:0:0:
256,192,53981,1,8,0:0:0:0:
256,192,54334,1,0,0:0:0:0:
256,192,54510,1,8,0:0:0:0:
256,192,54863,1,8,0:0:0:0:
256,192,55392,1,8,0:0:0:0:
109,165,55745,1,0,0:0:0:0:
256,192,56098,1,8,0:0:0:0:
256,192,56451,1,0,0:0:0:0:
256,192,57157,1,0,0:0:0:0:
186,78,57510,5,8,0:0:0:0:
183,85,57863,5,0,0:0:0:0:
256,192,58216,1,8,0:0:0:0:
197,91,58569,1,0,0:0:0:0:
256,192,58922,1,0,0:0:0:0:
256,192,59275,1,8,0:0:0:0:
256,192,59981,1,8,0:0:0:0:
256,192,60334,1,0,0:0:0:0:
256,192,60687,1,12,0:0:0:0:
220,175,61040,1,0,0:0:0:0:
242,188,61216,1,0,0:0:0:0:
243,188,61392,1,8,0:0:0:0:
243,188,61745,1,0,0:0:0:0:
135,167,62098,1,8,0:0:0:0:
156,173,62275,1,0,0:0:0:0:
158,173,62451,1,0,0:0:0:0:
256,192,62804,1,12,0:0:0:0:
256,192,63510,1,12,0:0:0:0:
256,192,64040,1,0,0:0:0:0:
256,192,64216,1,8,0:0:0:0:
256,192,64745,1,0,0:0:0:0:
256,192,64922,1,12,0:0:0:0:
256,192,65275,1,8,0:0:0:0:
177,179,65451,1,0,0:0:0:0:
256,192,65628,1,8,0:0:0:0:
256,192,65981,1,0,0:0:0:0:
256,192,66334,1,8,0:0:0:0:
256,192,66863,1,8,0:0:0:0:
256,192,67040,1,0,0:0:0:0:
256,192,67392,1,8,0:0:0:0:
256,192,67569,1,8,0:0:0:0:
256,192,67745,1,0,0:0:0:0:
256,192,68098,1,8,0:0:0:0:
256,192,68451,1,0,0:0:0:0:
256,192,69157,1,12,0:0:0:0:
145,188,69510,1,0,0:0:0:0:
256,192,69863,1,0,0:0:0:0:
256,192,70216,1,8,0:0:0:0:
191,192,70392,1,8,0:0:0:0:
256,192,70569,1,0,0:0:0:0:
256,192,70922,1,8,0:0:0:0:
256,192,71275,1,0,0:0:0:0:
102,161,71804,1,0,0:0:0:0:
256,192,71981,1,8,0:0:0:0:
256,192,72334,1,0,0:0:0:0:
256,192,72510,1,8,0:0:0:0:
256,192,72863,1,0,0:0:0:0:
256,192,73040,1,8,0:0:0:0:
256,192,73216,1,8,0:0:0:0:
256,192,73392,1,4,0:0:0:0:
253,209,74098,1,0,0:0:0:0:
256,192,74804,1,12,0:0:0:0:
256,192,75510,1,8,0:0:0:0:
256,192,76040,1,8,0:0:0:0:
256,192,76216,1,0,0:0:0:0:
256,192,76569,1,8,0:0:0:0:
108,156,76745,1,0,0:0:0:0:
256,192,76922,1,0,0:0:0:0:
256,192,77275,1,8,0:0:0:0:
256,192,77628,1,0,0:0:0:0:
180,70,78157,1,0,0:0:0:0:
256,192,78334,1,8,0:0:0:0:
256,192,78687,1,0,0:0:0:0:
256,192,79040,1,8,0:0:0:0:
256,192,79392,1,8,0:0:0:0:
232,179,79569,1,0,0:0:0:0:
256,192,79745,1,0,0:0:0:0:
170,152,80451,1,4,0:0:0:0:
256,192,80804,1,8,0:0:0:0:
256,192,81157,1,0,0:0:0:0:
256,192,81510,1,8,0:0:0:0:
256,192,81687,1,8,0:0:0:0:
256,192,81863,1,0,0:0:0:0:
256,192,82216,1,8,0:0:0:0:
256,192,82392,1,0,0:0:0:0:
256,192,82569,1,0,0:0:0:0:
256,192,83098,1,8,0:0:0:0:
256,192,83275,1,0,0:0:0:0:
256,192,83628,1,8,0:0:0:0:
256,192,83804,1,0,0:0:0:0:
164,171,83981,1,8,0:0:0:0:
244,64,84334,1,0,0:0:0:0:
244,64,84687,1,12,0:0:0:0:
128,185,85392,1,0,0:0:0:0:
256,192,85745,1,8,0:0:0:0:
256,192,86098,1,4,0:0:0:0:
186,192,86451,1,8,0:0:0:0:
256,192,86628,1,0,0:0:0:0:
256,192,86981,1,0,0:0:0:0:
256,192,87157,1,8,0:0:0:0:
174,104,87510,1,0,0:0:0:0:
256,192,87863,1,8,0:0:0:0:
256,192,88040,1,0,0:0:0:0:
256,192,88392,1,0,0:0:0:0:
194,78,88569,1,8,0:0:0:0:
256,192,88922,1,0,0:0:0:0:
214,192,89275,1,8,0:0:0:0:
182,162,89804,1,8,0:0:0:0:
256,192,90157,1,4,0:0:0:0:
256,192,91040,1,8,0:0:0:0:
156,160,91216,1,0,0:0:0:0:
256,192,91392,1,12,0:0:0:0:
256,192,91745,1,4,0:0:0:0:
186,84,92275,1,8,0:0:0:0:
147,106,92804,1,8,0:0:0:0:
256,192,93157,1,0,0:0:0:0:
256,192,93510,1,0,0:0:0:0:
148,163,93687,1,8,0:0:0:0:
256,192,94216,1,8,0:0:0:0:
256,192,94569,1,4,0:0:0:0:
256,192,94922,1,8,0:0:0:0:
256,192,95275,1,0,0:0:0:0:
256,192,95451,1,12,0:0:0:0:
256,192,95804,1,12,0:0:0:0:
256,192,96687,1,12,0:0:0:0:
256,192,97040,1,12,0:0:0:0:
256,192,97392,1,4,0:0:0:0:
256,192,97745,1,0,0:0:0:0:
256,192,97922,1,8,0:0:0:0:
156,153,98451,1,8,0:0:0:0:
256,192,98628,1,0,0:0:0:0:
256,192,98804,1,8,0:0:0:0:
256,192,99334,1,8,0:0:0:0:
256,192,99863,1,0,0:0:0:0:
256,192,100216,1,0,0:0:0:0:
256,192,100569,1,8,0:0:0:0:
163,167,100922,1,0,0:0:0:0:
193,167,101098,1,8,0:0:0:0:
256,192,101451,1,0,0:0:0:0:
256,192,101804,1,8,0:0:0:0:
256,192,101981,1,0,0:0:0:0:
256,192,102334,1,12,0:0:0:0:
256,192,102687,1,12,0:0:0:0:
256,192,103040,1,12,0:0:0:0:
256,192,103569,1,0,0:0:0:0:
256,192,104098,1,0,0:0:0:0:
256,192,104275,1,0,0:0:0:0:
256,192,104451,1,8,0:0:0:0:
256,192,104804,1,8,0:0:0:0:
256,192,104981,1,0,0:0:0:0:
256,192,105510,1,8,0:0:0:0:
256,192,105863,1,0,0:0:0:0:
256,192,106040,1,0,0:0:0:0:
256,192,106216,1,8,0:0:0:0:
131,167,106569,1,0,0:0:0:0:
256,192,106745,1,8,0:0:0:0:
256,192,107098,1,12,0:0:0:0:
256,192,107275,12,0,109922,0:0:0:0:
256,192,110098,5,12,0:0:0:0:
