osu file format v14

[General]
AudioFilename: audio.ogg
AudioLeadIn: 0
PreviewTime: 57020
Countdown: 0
SampleSet: Soft
StackLeniency: 0.7
Mode: 0
LetterboxInBreaks: 0
WidescreenStoryboard: 1

[Editor]
DistanceSpacing: 1
BeatDivisor: 4
GridSize: 4
TimelineZoom: 1

[Metadata]
Title:Now On Stage!! (TV Size)
TitleUnicode:Now On Stage!! (TV Size)
Artist:nonet
ArtistUnicode:nonet
Creator:- Nilou -
Version:Normal
Source:ガールフレンド(♪)
Tags:girlfriend note op ova opening anime jpop j-pop onpu kari fumio murakami chloe lemaire kokomi shina mutsumi shigino momoko asahina haruka kazemachi sakura tange satomi minami tsuda yui ogura saori hayami rina sato minako kotobuki livetune ameba mugmomoko akane sakurai saya kagurazaka kaori nazuka mug japanese pop video game andrea osuplayer111 midorijeon
BeatmapID:4413548
BeatmapSetID:2103523

[Difficulty]
HPDrainRate:3
CircleSize:3
OverallDifficulty:4
ApproachRate:5
SliderMultiplier:0.999999999999999
SliderTickRate:1

[Events]
//Background and Video events
Video,76,"video.avi"
0,0,"bg.png",0,0
//Break Periods
//Storyboard Layer 0 (Background)
//Storyboard Layer 1 (Fail)
//Storyboard Layer 2 (Pass)
//Storyboard Layer 3 (Foreground)
//Storyboard Layer 4 (Overlay)
//Storyboard Sound Samples

[TimingPoints]
991,352.941176470588,4,2,1,55,1,0
991,-100,4,2,1,55,0,0
6638,-100,4,2,1,65,0,0
7343,-100,4,2,1,65,0,0
9461,-100,4,2,1,75,0,0
12285,-100,4,2,1,75,0,0
17932,-100,4,2,1,60,0,0
29226,-100,4,2,1,65,0,0
40520,-100,4,2,1,70,0,0
51814,-100,4,2,1,75,0,0
52167,-100,4,2,1,75,0,0
57108,-100,4,2,1,75,0,0
57461,-100,4,2,1,80,0,0
79696,-100,4,2,1,80,0,0
80049,-100,4,2,1,75,0,0
93108,-105.263157894737,4,2,1,75,0,0

[Colours]
Combo1 : 30,49,225
Combo2 : 241,74,50
Combo3 : 236,189,91
Combo4 : 234,123,242
Combo5 : 106,172,238

[HitObjects]
26,76,990,6,0,P|79:43|115:51,1,99.9999999999999,6|0,0:0|0:0,0:0:0:0:
200,98,1696,2,0,L|182:205,1,99.9999999999999,2|0,0:0|0:0,0:0:0:0:
176,246,2226,1,2,0:0:0:0:
176,246,2402,2,0,P|222:278|281:263,1,99.9999999999999,2|2,0:0|0:0,0:0:0:0:
357,239,3108,2,0,L|375:346,1,99.9999999999999,2|0,0:0|0:0,0:0:0:0:
282,379,3814,6,0,L|175:361,1,99.9999999999999,2|0,0:0|0:0,0:0:0:0:
133,365,4343,1,2,0:0:0:0:
133,365,4520,2,0,P|118:306|148:254,1,99.9999999999999,2|0,0:0|0:0,0:0:0:0:
212,212,5226,2,0,L|198:105,1,99.9999999999999,2|2,0:0|0:0,0:0:0:0:
266,38,5932,2,0,P|325:53|377:23,1,99.9999999999999,2|0,0:0|0:0,0:0:0:0:
455,11,6638,6,0,B|508:54|508:54|467:188,1,200,6|6,1:1|1:2,0:0:0:0:
420,267,7696,1,6,0:3:0:0:
332,218,8049,2,0,P|232:199|149:276,1,200,6|6,1:1|1:2,0:0:0:0:
40,347,9285,1,2,0:0:0:0:
40,347,9461,6,0,L|31:286,1,50,10|0,0:0|1:2,0:0:0:0:
43,248,9814,2,0,L|104:239,1,50,10|0,0:0|1:2,0:0:0:0:
138,260,10167,2,0,P|182:293|231:282,1,99.9999999999999,10|10,0:0|0:0,0:0:0:0:
302,224,10873,2,0,L|296:169,1,50,10|10,1:1|1:1,0:0:0:0:
286,125,11226,1,10,1:1:0:0:
456,20,11932,2,0,L|448:84,1,50,14|0,0:0|0:0,0:0:0:0:
474,113,12285,6,0,P|429:144|379:132,1,99.9999999999999,6|8,1:1|0:0,0:0:0:0:
343,111,12814,2,0,L|322:224,1,99.9999999999999,2|2,1:2|1:2,0:0:0:0:
340,256,13343,1,10,0:0:0:0:
284,339,13696,2,0,P|210:368|185:357,1,99.9999999999999,2|8,1:2|0:0,0:0:0:0:
155,331,14226,2,0,L|136:232,1,99.9999999999999,2|2,1:2|1:2,0:0:0:0:
168,194,14755,1,10,0:0:0:0:
188,96,15108,5,2,1:2:0:0:
101,47,15461,1,10,0:0:0:0:
28,114,15814,1,0,0:0:0:0:
28,114,15990,1,10,0:0:0:0:
69,204,16343,1,6,1:2:0:0:
488,39,17932,6,0,L|474:153,1,99.9999999999999,6|2,1:1|1:2,0:0:0:0:
487,187,18461,2,0,P|445:213|391:203,1,99.9999999999999,2|0,0:0|0:0,0:0:0:0:
348,191,18990,1,0,1:2:0:0:
250,168,19343,2,0,L|236:282,1,99.9999999999999,2|2,1:2|1:2,0:0:0:0:
245,317,19873,2,0,B|186:313|211:351|147:349,1,99.9999999999999,2|0,0:0|0:0,0:0:0:0:
104,359,20402,1,0,1:2:0:0:
30,290,20755,6,0,P|24:245|59:180,1,99.9999999999999,2|2,1:2|1:2,0:0:0:0:
86,167,21285,1,2,0:0:0:0:
180,200,21638,1,2,0:0:0:0:
258,138,21990,2,0,B|314:192|314:192|244:370,1,250,2|0,0:0|1:2,0:0:0:0:
348,375,23226,1,2,1:2:0:0:
430,318,23579,6,0,P|449:272|443:223,1,99.9999999999999,2|2,1:2|1:2,0:0:0:0:
407,130,24285,1,2,1:2:0:0:
321,181,24638,1,2,1:2:0:0:
247,114,24990,2,0,L|136:97,1,99.9999999999999,2|2,1:2|1:2,0:0:0:0:
53,65,25696,1,2,1:2:0:0:
5,152,26049,1,2,1:2:0:0:
69,228,26402,6,0,P|126:249|176:237,1,99.9999999999999,2|0,1:2|1:2,0:0:0:0:
209,221,26932,2,0,B|293:237|239:298|326:318,1,150,2|0,0:0|1:2,0:0:0:0:
408,352,27814,2,0,L|418:288,1,50,10|8,0:0|0:3,0:0:0:0:
456,273,28167,1,4,0:3:0:0:
456,273,28343,2,0,L|437:157,1,99.9999999999999,6|0,1:2|1:2,0:0:0:0:
453,125,28873,1,10,0:0:0:0:
380,56,29226,6,0,P|310:31|277:41,1,99.9999999999999,6|2,1:1|1:2,0:0:0:0:
241,55,29755,2,0,L|227:165,1,99.9999999999999,2|0,0:0|0:0,0:0:0:0:
264,189,30285,1,8,1:2:0:0:
204,269,30638,2,0,P|150:294|92:281,1,99.9999999999999,2|2,1:2|1:2,0:0:0:0:
64,271,31167,2,0,L|51:171,1,99.9999999999999,2|8,0:0|0:0,0:0:0:0:
45,122,31696,1,0,1:2:0:0:
116,51,32049,6,0,P|181:24|225:38,1,99.9999999999999,2|2,1:2|1:2,0:0:0:0:
251,54,32579,1,2,0:0:0:0:
303,138,32932,1,2,0:0:0:0:
228,204,33285,2,0,L|241:364,1,150,2|0,0:0|1:2,0:0:0:0:
338,374,34167,1,2,1:2:0:0:
405,300,34520,1,2,1:2:0:0:
490,352,34873,6,0,P|516:291|507:244,1,99.9999999999999,2|2,1:2|1:2,0:0:0:0:
488,214,35402,1,2,0:0:0:0:
418,142,35755,1,2,0:0:0:0:
331,193,36108,2,0,L|220:207,1,99.9999999999999,2|0,0:0|0:0,0:0:0:0:
181,206,36638,1,2,1:2:0:0:
99,148,36990,1,2,1:2:0:0:
151,63,37343,1,2,1:2:0:0:
250,66,37696,6,0,B|269:81|277:114|277:114|299:31|375:1|444:34|418:114|368:119,1,300,2|2,1:2|1:2,0:0:0:0:
353,211,39108,2,0,L|362:281,1,50,2|2,1:2|0:0,0:0:0:0:
392,297,39461,1,2,1:2:0:0:
317,361,39814,1,10,0:0:0:0:
222,327,40167,1,6,0:3:0:0:
128,361,40520,6,0,P|103:307|115:255,1,99.9999999999999,6|2,1:1|1:1,0:0:0:0:
135,226,41049,1,2,0:0:0:0:
135,226,41226,1,10,1:2:0:0:
234,231,41579,2,0,L|295:224,1,50,2|10,1:2|0:0,0:0:0:0:
333,225,41932,1,2,1:1:0:0:
384,139,42285,1,2,1:1:0:0:
321,60,42638,1,10,1:2:0:0:
233,107,42990,1,2,1:2:0:0:
159,38,43343,6,0,P|121:83|122:135,1,99.9999999999999,2|2,1:1|1:1,0:0:0:0:
189,192,44049,1,10,1:2:0:0:
122,266,44402,1,2,1:2:0:0:
122,266,44579,2,0,L|130:334,1,50,10|2,0:0|1:1,0:0:0:0:
169,343,44932,2,0,P|234:358|264:339,1,99.9999999999999,2|0,1:1|0:0,0:0:0:0:
295,308,45461,1,10,0:0:0:0:
376,249,45814,1,10,0:0:0:0:
467,289,46167,6,0,L|488:176,1,99.9999999999999,6|10,1:1|0:0,0:0:0:0:
491,90,46873,1,2,1:2:0:0:
403,41,47226,2,0,L|348:47,1,50,10|0,0:0|0:0,0:0:0:0:
303,46,47579,2,0,P|267:101|281:147,1,99.9999999999999,2|8,1:2|0:0,0:0:0:0:
300,227,48285,2,0,L|364:214,2,50,2|2|10,1:2|1:2|0:0,0:0:0:0:
279,272,48814,1,2,0:0:0:0:
279,272,48990,6,0,P|230:271|198:307,1,99.9999999999999,0|10,1:2|0:0,0:0:0:0:
117,366,49696,2,0,L|106:303,1,50,2|0,1:2|1:2,0:0:0:0:
69,285,50049,1,10,0:0:0:0:
87,186,50402,1,2,1:2:0:0:
182,214,50755,1,10,0:0:0:0:
257,148,51108,2,0,L|316:156,1,50,2|0,1:2|1:2,0:0:0:0:
348,182,51461,1,10,0:0:0:0:
430,125,51814,5,10,0:0:0:0:
389,33,52167,1,10,0:0:0:0:
296,72,52520,1,10,0:0:0:0:
211,17,52873,1,10,0:0:0:0:
134,81,53226,2,0,P|99:137|114:184,1,99.9999999999999,10|10,0:0|0:0,0:0:0:0:
134,207,53755,1,0,1:2:0:0:
134,207,53932,2,0,L|187:216,1,50,10|0,0:0|1:2,0:0:0:0:
232,226,54285,1,10,0:0:0:0:
301,297,54638,6,0,P|402:241|369:72,1,300,10|8,0:0|1:2,0:0:0:0:
295,21,56049,2,0,L|232:30,1,50,10|10,1:1|1:1,0:0:0:0:
198,44,56402,1,10,1:1:0:0:
117,103,56755,1,10,1:1:0:0:
17,98,57108,2,0,L|22:166,1,50,14|0,0:0|0:0,0:0:0:0:
33,196,57461,6,0,P|76:235|128:221,1,99.9999999999999,6|8,1:1|0:0,0:0:0:0:
161,213,57990,1,2,0:0:0:0:
161,213,58167,2,0,L|171:313,1,99.9999999999999,2|8,1:2|0:0,0:0:0:0:
198,354,58696,1,2,0:0:0:0:
198,354,58873,1,2,1:2:0:0:
295,329,59226,2,0,L|306:261,1,50,10|2,0:0|0:0,0:0:0:0:
273,239,59579,1,2,1:2:0:0:
335,160,59932,1,10,0:1:0:0:
293,69,60285,6,0,P|352:26|391:29,1,99.9999999999999,2|8,1:2|0:0,0:0:0:0:
423,41,60814,1,2,0:0:0:0:
423,41,60990,2,0,L|433:141,1,99.9999999999999,2|8,1:2|0:0,0:0:0:0:
460,182,61520,1,2,0:0:0:0:
460,182,61696,1,2,1:2:0:0:
420,273,62049,2,0,L|363:266,1,50,10|2,0:0|0:0,0:0:0:0:
330,236,62402,2,0,P|260:250|236:279,1,99.9999999999999,2|10,1:2|0:1,0:0:0:0:
199,359,63108,5,6,1:2:0:0:
111,311,63461,1,10,0:0:0:0:
154,220,63814,2,0,L|143:114,1,99.9999999999999,2|10,1:2|0:0,0:0:0:0:
118,76,64343,1,2,0:0:0:0:
118,76,64520,1,2,1:2:0:0:
203,23,64873,1,10,0:0:0:0:
288,75,65226,2,0,L|352:90,1,50,2|0,1:2|1:2,0:0:0:0:
382,66,65579,1,8,0:0:0:0:
446,142,65932,6,0,L|499:133,2,50,2|2|10,1:2|0:0|0:0,0:0:0:0:
407,174,66461,2,0,P|391:227|408:284,1,99.9999999999999,2|2,0:0|1:2,0:0:0:0:
440,298,66990,1,10,0:0:0:0:
378,377,67343,2,0,L|318:365,1,50,10|10,1:1|1:1,0:0:0:0:
282,348,67696,1,10,1:1:0:0:
218,270,68049,1,10,1:1:0:0:
286,197,68402,2,0,L|292:129,1,50,14|0,0:0|0:0,0:0:0:0:
285,97,68755,6,0,P|240:64|197:69,1,99.9999999999999,6|8,1:1|0:0,0:0:0:0:
152,74,69285,1,2,0:0:0:0:
152,74,69461,2,0,L|135:182,1,99.9999999999999,2|8,1:2|0:0,0:0:0:0:
120,222,69990,1,2,0:0:0:0:
120,222,70167,1,2,1:2:0:0:
86,316,70520,2,0,L|139:324,1,50,10|2,0:0|0:0,0:0:0:0:
178,348,70873,2,0,P|202:324|271:324,1,99.9999999999999,2|10,1:2|0:1,0:0:0:0:
353,368,71579,6,0,L|366:253,1,99.9999999999999,2|8,1:2|0:0,0:0:0:0:
394,228,72108,1,2,0:0:0:0:
394,228,72285,2,0,P|364:188|301:187,1,99.9999999999999,2|8,1:2|0:0,0:0:0:0:
267,186,72814,1,2,1:2:0:0:
267,186,72990,1,14,0:0:0:0:
193,118,73343,1,14,0:0:0:0:
236,27,73696,1,14,0:0:0:0:
334,41,74049,1,14,0:0:0:0:
356,138,74402,6,0,L|458:152,1,99.9999999999999,6|10,1:1|0:0,0:0:0:0:
496,242,75108,1,2,1:2:0:0:
415,301,75461,2,0,L|348:312,1,50,10|2,0:0|0:0,0:0:0:0:
323,335,75814,2,0,P|294:305|235:306,1,99.9999999999999,2|10,1:2|0:0,0:0:0:0:
196,332,76343,1,2,0:0:0:0:
196,332,76520,2,0,L|183:226,1,99.9999999999999,2|8,1:2|0:0,0:0:0:0:
168,184,77049,1,2,0:0:0:0:
168,184,77226,5,6,1:2:0:0:
242,117,77579,2,0,L|297:126,1,50,10|0,0:0|1:2,0:0:0:0:
338,142,77932,1,10,0:0:0:0:
433,111,78285,1,10,0:0:0:0:
397,17,78638,2,0,L|335:26,1,50,10|10,1:1|1:1,0:0:0:0:
299,36,78990,1,10,1:1:0:0:
99,26,79696,2,0,L|104:94,1,50,14|0,0:0|0:0,0:0:0:0:
128,118,80049,6,0,P|176:150|227:138,1,99.9999999999999,6|8,1:1|0:0,0:0:0:0:
264,132,80579,2,0,L|250:252,1,99.9999999999999,2|2,1:2|1:2,0:0:0:0:
238,279,81108,1,10,0:0:0:0:
303,354,81461,2,0,P|367:373|406:361,1,99.9999999999999,2|8,1:2|0:0,0:0:0:0:
442,342,81990,2,0,L|459:232,1,99.9999999999999,2|2,1:2|1:2,0:0:0:0:
468,194,82520,1,10,0:0:0:0:
414,109,82873,5,2,1:2:0:0:
326,157,83226,2,0,P|290:133|226:135,1,99.9999999999999,10|0,0:0|0:0,0:0:0:0:
190,155,83755,1,10,0:0:0:0:
256,229,84108,1,6,1:2:0:0:
256,192,84285,12,0,87108,0:0:0:0:
256,192,87461,12,0,93108,0:0:0:0:
