osu file format v14

[General]
AudioFilename: audio.mp3
AudioLeadIn: 0
PreviewTime: 62417
Countdown: 0
SampleSet: Soft
StackLeniency: 0.3
Mode: 0
LetterboxInBreaks: 0
WidescreenStoryboard: 1

[Editor]
DistanceSpacing: 0.8
BeatDivisor: 4
GridSize: 4
TimelineZoom: 1

[Metadata]
Title:Now On Stage!!
TitleUnicode:Now On Stage!!
Artist:nonet
ArtistUnicode:nonet
Creator:Kuki1537
Version:torriru's Expert
Source:ガールフレンド(♪)
Tags:girlfriend note onpu kari fumio murakami chloe lemaire kokomi shina mutsumi shigino momoko asahina haruka kazemachi sakura tange satomi minami tsuda yui ogura saori hayami rina sato minako kotobuki livetune ameba mugmomoko akane sakurai saya kagurazaka kaori nazuka mug japanese pop video game kz torriru lets short ver
BeatmapID:3122811
BeatmapSetID:1526418

[Difficulty]
HPDrainRate:5
CircleSize:3.8
OverallDifficulty:8.8
ApproachRate:9
SliderMultiplier:1.8
SliderTickRate:1

[Events]
//Background and Video events
0,0,"aaaaaa.jpg",0,0
//Break Periods
//Storyboard Layer 0 (Background)
//Storyboard Layer 1 (Fail)
//Storyboard Layer 2 (Pass)
//Storyboard Layer 3 (Foreground)
//Storyboard Layer 4 (Overlay)
//Storyboard Sound Samples

[TimingPoints]
-671,352.941176470588,4,2,21,60,1,0
652,-100,4,2,21,5,0,0
740,-166.666666666667,4,2,21,60,0,0
2152,-166.666666666667,4,2,21,60,0,0
5328,-133.333333333333,4,2,21,60,0,0
6387,-125,4,2,21,60,0,0
9211,-125,4,2,21,70,0,0
11681,-100,4,2,21,75,0,0
11946,-100,4,2,21,5,0,0
12034,-111.111111111111,4,2,21,80,0,0
21740,-200,4,2,21,80,0,0
21828,-200,4,2,22,50,0,0
22270,-166.666666666667,4,2,21,50,0,0
22976,-166.666666666667,4,2,21,70,0,0
23328,-142.857142857143,4,2,21,60,0,0
33211,-142.857142857143,4,2,21,75,0,0
33740,-111.111111111111,4,2,21,75,0,0
34623,-125,4,2,21,65,0,0
45211,-125,4,2,21,70,0,0
45917,-111.111111111111,4,2,21,75,0,0
51564,-105.263157894737,4,2,21,75,0,0
57211,-100,4,2,21,85,0,0
60034,-95.2380952380952,4,2,21,85,0,0
62770,-95.2380952380952,4,2,21,5,0,0
62858,-100,4,2,21,90,0,1
65328,-80,4,2,21,90,0,1
65593,-83.3333333333333,4,2,21,5,0,1
65681,-100,4,2,21,90,0,1
68152,-80,4,2,21,90,0,1
68417,-80,4,2,21,5,0,1
68505,-100,4,2,21,90,0,1
73711,-100,4,2,21,5,0,1
73799,-100,4,2,21,90,0,1
74064,-100,4,2,21,5,0,1
74152,-100,4,2,21,90,0,1
76623,-80,4,2,21,90,0,1
76888,-80,4,2,21,5,0,1
76976,-100,4,2,21,90,0,1
79446,-80,4,2,21,90,0,1
79711,-80,4,2,21,5,0,1
79799,-100,4,2,21,90,0,1
84387,-100,4,2,21,80,0,0
85181,-100,4,2,21,80,0,0
85446,-111.111111111111,4,2,21,80,0,0
96740,-100,4,2,21,90,0,1
106446,-200,4,2,21,90,0,0
106534,-200,4,2,22,60,0,0
106976,-500,4,2,21,60,0,0

[Colours]
Combo1 : 30,49,225
Combo2 : 241,74,50
Combo3 : 236,189,91
Combo4 : 234,123,242
Combo5 : 106,172,238

[HitObjects]
40,84,740,6,0,B|93:51|148:85|125:105|188:138|239:106,1,215.999993408203,6|2,3:2|3:2,0:2:0:0:
57,279,2152,54,0,L|76:174,2,107.999996704102,2|2|2,3:2|0:2|3:2,0:2:0:0:
409,271,3564,6,0,B|310:288|310:288|292:279|292:279|198:295,1,215.999993408203,2|2,3:2|3:2,0:2:0:0:
392,222,4976,5,2,3:2:0:0:
408,206,5328,6,0,P|416:242|408:274,1,67.5000025749208,2|2,3:2|0:2,0:0:0:0:
428,106,5681,2,0,P|463:117|486:140,1,67.5000025749208,2|0,3:2|0:2,0:2:0:0:
351,38,6034,2,0,P|378:13|409:3,1,67.5000025749208,0|0,3:2|0:2,0:2:0:0:
328,130,6387,6,0,B|261:118|261:118|249:124|249:124|186:113,1,144,6|2,1:2|0:2,0:2:0:0:
91,382,7093,2,0,L|78:311,1,72,6|0,1:2|0:2,0:2:0:0:
172,187,7446,1,2,3:2:0:0:
0,260,7623,1,2,0:2:0:0:
169,331,7799,6,0,B|252:361|252:361|299:330,1,144,6|2,1:2|0:2,0:2:0:0:
408,238,8328,1,2,0:2:0:0:
408,238,8505,2,0,L|382:383,1,144,6|0,1:2|0:2,0:2:0:0:
320,160,9034,1,2,0:2:0:0:
320,160,9123,1,2,0:2:0:0:
320,160,9211,6,0,P|284:152|246:160,1,72,14|0,0:2|1:2,0:0:0:0:
64,368,9564,5,10,0:2:0:0:
0,120,9740,1,0,1:2:0:0:
144,326,9916,5,10,0:2:0:0:
208,76,10092,1,0,1:2:0:0:
64,284,10269,5,10,0:2:0:0:
0,34,10445,1,0,1:2:0:0:
276,244,10622,5,10,0:2:0:0:
0,120,10799,1,8,0:2:0:0:
276,20,10975,1,8,0:2:0:0:
417,384,11505,5,0,1:2:0:0:
417,384,11593,1,0,1:2:0:0:
417,384,11681,2,0,P|407:319|449:268,1,135,6|0,1:2|0:2,0:2:0:0:
512,189,12034,6,0,B|438:176|438:176|424:183|424:183|354:171,1,161.999995056153,6|8,1:2|0:2,0:2:0:0:
237,26,12564,2,0,L|251:106,1,80.9999975280763,2|0,1:2|0:0,0:2:0:0:
132,246,12917,1,2,1:2:0:0:
132,246,13005,1,2,0:2:0:0:
132,246,13093,2,0,L|146:166,1,80.9999975280763,10|2,0:2|0:2,0:2:0:0:
0,38,13446,6,0,B|94:4|94:4|147:39,1,161.999995056153,2|8,1:2|0:2,0:0:0:0:
331,119,13976,2,0,L|251:105,1,80.9999975280763,2|0,1:2|0:0,0:2:0:0:
136,250,14328,1,2,1:2:0:0:
136,250,14416,1,2,0:2:0:0:
136,250,14504,2,0,L|216:236,1,80.9999975280763,10|2,0:2|0:2,0:2:0:0:
248,230,14770,1,8,0:2:0:0:
248,230,14858,6,0,P|256:270|248:310,1,80.9999975280763,2|0,1:2|1:2,0:2:0:0:
140,90,15211,1,10,0:2:0:0:
52,298,15387,1,0,1:2:0:0:
324,186,15740,5,2,1:2:0:0:
0,90,16093,6,0,B|74:77|74:77|88:84|88:84|158:72,1,161.999995056153,6|2,1:2|1:2,0:2:0:0:
392,142,16623,1,10,0:2:0:0:
160,206,16799,1,2,1:2:0:0:
320,38,16976,5,10,0:2:0:0:
468,242,17328,5,10,0:2:0:0:
160,60,17681,6,0,B|125:111|125:111|159:205,1,161.999995056153,6|8,1:2|0:2,0:2:0:0:
280,338,18211,2,0,L|200:324,1,80.9999975280763,2|0,1:2|0:0,0:2:0:0:
340,210,18564,1,2,1:2:0:0:
340,210,18652,1,2,0:2:0:0:
340,210,18740,2,0,L|420:196,1,80.9999975280763,10|2,0:2|0:2,0:2:0:0:
236,70,19093,6,1,B|195:41|145:66|167:73|121:95|82:72,1,161.999995056153,2|8,1:2|0:2,0:0:0:0:
200,236,19623,2,0,P|207:197|200:158,1,80.9999975280763,2|0,1:2|0:0,0:2:0:0:
124,302,19976,1,2,1:2:0:0:
124,302,20064,1,2,0:2:0:0:
124,302,20152,2,0,P|154:328|192:341,1,80.9999975280763,10|2,0:2|0:2,0:2:0:0:
312,128,20505,5,2,1:2:0:0:
416,356,20681,1,0,1:2:0:0:
200,236,20858,1,10,0:2:0:0:
444,208,21034,1,0,1:2:0:0:
112,54,21387,5,2,1:2:0:0:
198,12,21564,1,0,3:2:0:0:
198,12,21652,1,0,3:2:0:0:
198,12,21740,2,0,P|212:54|199:97,1,90,6|0,1:2|0:0,0:2:0:0:
44,198,22270,6,0,B|90:172|138:200|138:200|154:188|154:188|202:212|246:188,1,215.999993408203,2|8,0:0|0:2,0:0:0:0:
388,38,23328,6,0,B|415:77|415:77|388:150,1,125.999996154785,6|2,1:2|1:2,0:2:0:0:
464,254,23858,2,0,L|326:229,1,125.999996154785,2|0,0:2|0:2,0:2:0:0:
264,134,24387,1,0,1:2:0:0:
204,230,24564,1,0,3:2:0:0:
204,230,24652,1,0,3:2:0:0:
204,230,24740,6,0,B|228:274|204:318|204:318|196:298|180:282,1,125.999996154785,2|2,1:2|1:2,0:2:0:0:
88,218,25270,1,2,0:2:0:0:
172,136,25446,2,0,P|204:128|233:136,1,62.9999980773926,0|0,1:2|0:0,0:2:0:0:
214,292,25799,2,0,L|204:230,1,62.9999980773926,0|0,1:2|0:0,0:0:0:0:
183,44,26152,6,0,B|241:33|241:33|252:39|252:39|307:29,1,125.999996154785,2|2,1:2|1:2,0:2:0:0:
396,141,26681,2,0,P|404:109|396:80,1,62.9999980773926,2|0,0:2|1:2,0:2:0:0:
324,206,27034,2,0,P|347:228|376:236,1,62.9999980773926,2|0,0:2|1:2,0:2:0:0:
296,122,27387,1,2,3:2:0:0:
296,122,27476,1,0,3:2:0:0:
296,122,27564,6,0,B|223:95|223:95|184:122,1,125.999996154785,0|0,1:2|1:2,0:2:0:0:
116,230,28093,1,0,0:2:0:0:
116,230,28270,2,0,L|196:216,1,62.9999980773926,0|0,1:2|0:2,0:2:0:0:
256,334,28623,2,0,P|248:303|256:273,1,62.9999980773926,2|0,1:2|0:2,0:2:0:0:
396,192,28976,6,0,B|338:181|338:181|327:187|327:187|272:177,1,125.999996154785,2|2,1:2|1:2,0:2:0:0:
116,46,29681,2,0,B|89:85|89:85|116:158,1,125.999996154785,2|2,1:2|1:2,0:2:0:0:
176,262,30211,1,0,3:2:0:0:
176,262,30299,1,0,3:2:0:0:
176,262,30387,6,0,L|38:237,1,125.999996154785,2|2,1:2|1:2,0:2:0:0:
320,382,31093,2,0,L|306:302,1,62.9999980773926,2|0,1:2|0:2,0:2:0:0:
424,246,31446,2,0,L|410:326,1,62.9999980773926,2|0,1:2|0:0,0:0:0:0:
364,166,31799,6,0,B|437:139|437:139|476:166,1,125.999996154785,2|0,1:2|1:2,0:2:0:0:
328,254,32328,2,0,B|270:243|270:243|259:249|259:249|204:239,1,125.999996154785,2|0,0:2|0:2,0:2:0:0:
114,165,32858,2,0,P|121:195|113:225,1,62.9999980773926,0|0,1:2|3:2,0:0:0:0:
57,80,33211,5,10,0:2:0:0:
205,195,33387,1,8,3:3:0:0:
20,191,33564,1,8,3:3:0:0:
184,75,33740,6,0,B|278:40|278:40|329:75,1,161.999995056153,6|0,1:2|1:2,0:2:0:0:
435,157,34270,2,0,L|449:77,1,80.9999975280763,10|0,0:2|0:2,0:2:0:0:
347,230,34623,6,0,B|282:218|282:218|270:225|270:225|208:214,1,144,6|2,1:2|1:2,0:2:0:0:
112,174,35152,1,2,0:2:0:0:
112,174,35328,2,0,P|102:208|112:242,1,72,0|0,1:2|0:2,0:0:0:0:
224,198,35681,1,8,0:2:0:0:
84,90,35858,1,2,3:2:0:0:
84,90,35946,1,2,3:2:0:0:
84,90,36034,6,0,B|120:64|165:86|145:92|186:112|221:91,1,144,2|2,1:2|1:2,0:2:0:0:
340,26,36564,1,2,0:2:0:0:
340,26,36740,2,0,L|327:96,1,72,0|8,1:2|0:2,0:0:0:0:
452,174,37093,2,0,L|439:103,1,72,0|2,1:2|0:2,0:0:0:0:
372,226,37446,6,0,P|407:264|495:259,1,144,2|2,1:2|1:2,0:2:0:0:
407,134,37976,2,0,P|373:124|339:133,1,72,2|0,0:2|0:2,0:2:0:0:
279,58,38328,2,0,P|254:83|245:117,1,72,2|8,0:2|0:2,0:0:0:0:
336,238,38681,1,2,3:2:0:0:
336,238,38770,1,0,3:2:0:0:
336,238,38858,6,0,B|250:206|250:206|204:238,1,144,0|0,1:2|1:2,0:2:0:0:
100,318,39387,1,8,0:2:0:0:
100,318,39564,2,0,L|113:243,1,72,2|0,1:2|0:2,0:2:0:0:
0,162,39917,2,0,L|13:237,1,72,6|0,1:2|0:2,0:2:0:0:
96,66,40270,6,0,P|62:56|28:66,1,72,2|0,1:2|0:2,0:2:0:0:
96,230,40623,1,2,1:2:0:0:
184,106,40799,2,0,P|218:96|252:106,1,72,2|0,0:2|1:2,0:2:0:0:
199,268,41152,2,0,L|212:198,1,72,2|0,0:2|1:2,0:2:0:0:
336,58,41505,1,2,3:2:0:0:
336,58,41593,1,0,3:2:0:0:
336,58,41681,6,0,B|365:100|365:100|333:186,1,144,0|2,1:2|1:2,0:2:0:0:
228,290,42211,1,0,0:2:0:0:
228,290,42387,2,0,L|298:277,1,72,2|8,1:2|0:2,0:0:0:0:
168,190,42740,2,0,L|98:177,1,72,2|0,1:2|0:2,0:2:0:0:
240,94,43093,6,0,B|305:82|305:82|317:89|317:89|379:78,1,144,6|0,1:2|1:2,0:2:0:0:
468,202,43623,2,0,P|478:167|468:133,1,72,0|0,0:2|1:2,0:0:0:0:
396,266,43976,2,0,P|420:291|454:300,1,72,0|0,0:2|1:2,0:0:0:0:
372,178,44328,1,0,3:2:0:0:
372,178,44417,1,0,3:2:0:0:
372,178,44505,6,0,L|302:191,1,72,2|2,0:2|0:2,0:2:0:0:
120,114,44858,1,2,0:2:0:0:
300,50,45034,1,10,0:2:0:0:
300,50,45123,1,8,0:2:0:0:
300,50,45211,5,10,0:2:0:0:
72,202,45564,5,10,0:2:0:0:
348,366,45917,5,4,1:2:0:0:
332,161,46093,1,0,1:2:0:0:
208,332,46270,1,2,1:2:0:0:
200,344,46623,1,10,0:2:0:0:
192,356,46976,1,2,3:2:0:0:
432,252,47152,1,10,0:2:0:0:
432,252,47240,1,8,0:2:0:0:
432,252,47328,5,2,1:2:0:0:
213,161,47504,1,0,1:2:0:0:
424,84,47681,1,2,1:2:0:0:
440,76,48034,1,10,0:2:0:0:
456,68,48387,1,2,3:2:0:0:
276,268,48741,5,2,1:2:0:0:
258,43,48917,1,0,1:2:0:0:
115,216,49094,1,2,1:2:0:0:
104,228,49446,1,10,0:2:0:0:
96,240,49799,1,2,3:2:0:0:
384,128,49976,1,10,0:2:0:0:
384,128,50065,1,8,0:2:0:0:
384,128,50153,5,0,1:2:0:0:
356,352,50329,1,2,1:2:0:0:
216,172,50506,1,0,1:2:0:0:
496,56,50858,5,10,0:2:0:0:
368,256,51035,1,2,1:2:0:0:
310,17,51211,2,0,L|293:106,1,80.9999975280763,10|2,0:2|0:2,0:2:0:0:
252,272,51564,6,0,B|196:302|140:272|140:272|168:264|186:241,1,170.999995433807,4|10,1:2|0:2,0:2:0:0:
120,68,52093,1,0,0:2:0:0:
32,236,52270,2,0,P|22:280|36:323,1,85.4999977169037,2|0,1:2|1:2,0:0:0:0:
200,216,52623,2,0,P|166:185|121:176,1,85.4999977169037,10|0,0:2|0:2,0:2:0:0:
200,368,52976,6,0,B|277:353|277:353|292:362|292:362|366:348,1,170.999995433807,2|8,1:2|0:2,0:2:0:0:
464,160,53505,1,0,0:2:0:0:
288,264,53681,5,2,1:2:0:0:
408,80,53858,1,2,1:2:0:0:
440,296,54034,1,10,0:2:0:0:
424,64,54211,1,2,0:2:0:0:
288,264,54387,6,0,P|207:284|140:236,1,170.999995433807,0|10,1:2|0:2,0:2:0:0:
148,32,54917,1,0,0:2:0:0:
292,176,55093,2,0,P|336:186|379:172,1,85.4999977169037,2|0,1:2|1:2,0:0:0:0:
456,16,55446,2,0,P|412:6|369:20,1,85.4999977169037,10|0,0:2|0:2,0:2:0:0:
200,136,55799,6,0,P|190:180|204:223,1,85.4999977169037,2|0,1:2|0:2,0:2:0:0:
356,316,56152,2,0,P|325:286|284:275,1,85.4999977169037,10|0,0:2|0:2,0:2:0:0:
122,361,56505,2,0,P|162:349|192:319,1,85.4999977169037,2|0,1:2|1:2,0:0:0:0:
288,112,56858,1,10,0:2:0:0:
356,316,57034,1,0,0:2:0:0:
424,116,57211,6,0,P|466:102|509:112,1,90,14|0,0:2|1:2,0:0:0:0:
296,248,57564,5,10,0:2:0:0:
356,0,57740,1,0,1:2:0:0:
204,288,57917,5,10,0:2:0:0:
144,40,58093,1,0,1:2:0:0:
276,344,58270,5,10,0:2:0:0:
336,96,58446,1,0,1:2:0:0:
424,316,58623,6,0,P|467:327|510:316,1,90,10|0,0:2|1:2,0:0:0:0:
320,80,58976,2,0,L|303:169,1,90,10|0,0:2|1:2,0:0:0:0:
44,264,59328,5,10,0:2:0:0:
320,320,59505,1,0,1:2:0:0:
28,248,59681,5,10,0:2:0:0:
319,184,59858,1,0,1:2:0:0:
139,384,60034,6,0,L|154:290,1,94.499997116089,14|0,0:2|0:2,0:2:0:0:
264,104,60387,1,0,1:2:0:0:
320,320,60564,1,0,1:2:0:0:
354,63,60740,1,0,1:2:0:0:
238,282,60917,1,0,1:2:0:0:
182,39,61093,2,0,L|167:133,1,94.499997116089,0|0,1:2|1:2,0:0:0:0:
403,350,61446,5,10,0:2:0:0:
101,231,61623,1,10,0:2:0:0:
396,120,61799,1,10,0:2:0:0:
60,0,62152,5,10,0:2:0:0:
480,124,62505,6,0,P|523:177|513:245,1,141.749995674133,6|0,0:2|0:2,0:2:0:0:
372,346,62858,6,0,B|431:378|490:346|490:346|460:338|444:316,1,180,6|8,1:2|0:2,0:2:0:0:
346,107,63387,1,2,0:2:0:0:
265,310,63564,2,0,P|222:320|179:309,1,90,2|0,1:2|1:2,0:2:0:0:
40,139,63917,1,8,0:2:0:0:
225,215,64093,1,2,0:2:0:0:
24,124,64270,6,0,L|39:212,1,90,2|0,1:2|0:2,0:2:0:0:
160,383,64623,1,10,0:2:0:0:
152,138,64799,1,2,0:2:0:0:
0,312,64976,2,0,P|43:321|86:310,1,90,2|0,1:2|1:2,0:2:0:0:
264,115,65328,6,0,L|234:280,1,168.75,10|0,0:2|0:2,0:2:0:0:
192,370,65681,6,0,B|237:402|293:374|268:366|319:342|363:367,1,180,2|8,1:2|0:2,0:2:0:0:
392,132,66211,1,2,0:2:0:0:
234,281,66387,2,0,P|190:292|147:282,1,90,2|0,1:2|1:2,0:2:0:0:
0,81,66740,1,8,0:2:0:0:
192,191,66917,1,2,0:2:0:0:
0,284,67093,6,0,L|15:196,1,90,2|0,1:2|0:2,0:2:0:0:
102,0,67446,1,10,0:2:0:0:
192,191,67623,1,2,0:2:0:0:
273,1,67799,2,0,P|316:-9|359:-1,1,90,2|0,1:2|1:2,0:2:0:0:
256,272,68152,6,0,P|175:292|108:244,1,168.75,10|0,0:2|0:2,0:2:0:0:
177,103,68505,6,0,L|192:191,1,90,6|0,1:2|0:2,0:2:0:0:
364,332,68858,2,0,L|379:244,1,90,10|0,0:2|0:2,0:2:0:0:
256,44,69211,2,0,L|271:132,1,90,2|0,1:2|1:2,0:2:0:0:
447,313,69564,1,10,0:2:0:0:
362,107,69740,1,2,0:2:0:0:
258,309,69917,6,0,P|214:319|171:310,1,90,2|0,1:2|0:2,0:2:0:0:
271,132,70270,2,0,P|302:163|315:206,1,90,10|0,0:2|0:2,0:2:0:0:
115,206,70623,2,0,P|128:163|158:130,1,90,2|0,1:2|1:2,0:2:0:0:
300,16,70976,1,10,0:2:0:0:
215,215,71152,1,2,0:2:0:0:
124,16,71328,5,2,1:2:0:0:
352,120,71505,1,2,0:2:0:0:
115,206,71681,1,10,0:2:0:0:
316,0,71858,2,0,B|361:-32|417:-4|392:4|443:28|487:3,1,180,2|2,0:2|1:2,0:2:0:0:
352,206,72387,2,0,P|342:163|352:120,1,90,10|0,0:2|0:2,0:2:0:0:
440,340,72740,5,10,0:2:0:0:
158,241,72917,1,8,0:2:0:0:
440,164,73093,1,10,0:2:0:0:
186,35,73446,5,10,0:2:0:0:
62,305,73799,6,0,P|103:254|93:189,1,135,6|0,0:2|0:2,0:2:0:0:
0,125,74152,6,0,B|107:85|107:85|161:122,1,180,6|8,1:2|0:2,0:2:0:0:
256,288,74681,1,2,0:2:0:0:
336,108,74858,2,0,P|380:98|423:108,1,90,2|0,1:2|1:2,0:2:0:0:
368,320,75211,1,8,0:2:0:0:
244,152,75387,1,2,3:2:0:0:
244,152,75476,1,0,3:2:0:0:
244,152,75564,6,0,P|234:108|244:65,1,90,2|0,1:2|0:2,0:2:0:0:
464,240,75917,1,10,0:2:0:0:
372,24,76093,1,2,0:2:0:0:
288,240,76270,2,0,P|244:250|201:240,1,90,2|0,1:2|1:2,0:2:0:0:
36,96,76623,6,0,L|66:261,1,168.75,10|0,0:2|0:2,0:2:0:0:
25,351,76976,6,0,B|70:383|126:355|101:347|152:323|196:348,1,180,2|8,1:2|0:2,0:2:0:0:
388,252,77505,1,2,0:2:0:0:
196,164,77681,2,0,P|186:207|196:250,1,90,2|0,1:2|1:2,0:2:0:0:
380,76,78034,1,8,0:2:0:0:
292,276,78211,1,2,1:2:0:0:
196,72,78387,6,0,P|153:62|110:72,1,90,14|0,0:2|1:2,0:0:0:0:
220,324,78740,5,14,0:2:0:0:
284,96,78917,1,2,1:2:0:0:
131,365,79093,5,14,0:2:0:0:
72,148,79270,1,0,1:2:0:0:
300,384,79446,6,0,P|320:303|272:236,1,168.75,14|0,0:2|0:2,0:2:0:0:
131,339,79799,6,0,L|219:324,1,90,6|0,1:2|0:2,0:2:0:0:
340,144,80152,2,0,L|252:129,1,90,10|0,0:2|0:2,0:2:0:0:
80,260,80505,2,0,L|168:245,1,90,2|0,1:2|1:2,0:2:0:0:
252,40,80858,1,10,0:2:0:0:
336,236,81034,1,2,0:2:0:0:
160,88,81211,6,0,P|149:44|158:1,1,90,2|0,1:2|0:2,0:2:0:0:
388,88,81564,1,10,0:2:0:0:
160,188,81740,1,2,0:2:0:0:
404,72,81917,2,0,L|389:160,1,90,2|0,1:2|1:2,0:2:0:0:
332,384,82270,1,8,0:2:0:0:
246,186,82446,1,2,0:2:0:0:
246,186,82534,1,2,0:2:0:0:
246,186,82623,6,0,P|202:176|159:187,1,90,6|0,1:2|1:2,0:0:0:0:
332,384,82976,5,10,0:2:0:0:
389,149,83152,1,0,1:2:0:0:
252,342,83328,5,10,0:2:0:0:
192,92,83504,1,0,1:2:0:0:
332,300,83681,5,10,0:2:0:0:
397,28,83857,1,0,1:2:0:0:
88,252,84034,5,10,0:2:0:0:
389,149,84211,1,8,0:2:0:0:
93,25,84387,1,8,0:2:0:0:
220,384,85093,6,0,P|230:319|188:268,1,135,6|0,0:1|0:2,0:2:0:0:
125,189,85446,6,0,B|199:176|199:176|213:183|213:183|283:171,1,161.999995056153,6|8,1:2|0:2,0:2:0:0:
420,96,85976,2,0,L|333:80,1,80.9999975280763,2|0,1:2|0:0,0:2:0:0:
200,16,86328,1,2,1:2:0:0:
200,16,86417,1,2,0:2:0:0:
200,16,86505,2,0,L|279:1,1,80.9999975280763,10|2,0:2|0:2,0:2:0:0:
96,192,86858,6,0,B|62:98|62:98|97:45,1,161.999995056153,2|8,1:2|0:2,0:0:0:0:
220,164,87387,2,0,L|205:243,1,80.9999975280763,2|0,1:2|0:0,0:2:0:0:
52,384,87740,1,2,1:2:0:0:
52,384,87829,1,2,0:2:0:0:
52,384,87917,2,0,L|37:305,1,80.9999975280763,10|2,0:2|0:2,0:2:0:0:
32,276,88181,1,8,0:2:0:0:
32,276,88270,6,0,P|72:268|112:276,1,80.9999975280763,2|0,1:2|1:2,0:2:0:0:
200,72,88623,1,10,0:2:0:0:
280,276,88799,1,0,1:2:0:0:
84,128,89152,5,2,1:2:0:0:
360,0,89505,6,0,B|394:51|394:51|360:145,1,161.999995056153,6|2,1:2|1:2,0:2:0:0:
268,336,90034,1,10,0:2:0:0:
184,148,90211,1,2,1:2:0:0:
400,308,90387,5,10,0:2:0:0:
144,368,90740,5,10,0:2:0:0:
440,148,91093,6,0,B|399:119|349:144|371:151|325:173|286:150,1,161.999995056153,6|8,1:2|0:2,0:2:0:0:
188,4,91623,2,0,P|196:44|188:84,1,80.9999975280763,2|0,1:2|0:0,0:2:0:0:
116,228,91976,1,2,1:2:0:0:
116,228,92064,1,2,0:2:0:0:
116,228,92152,2,0,P|146:201|185:188,1,80.9999975280763,10|2,0:2|0:2,0:2:0:0:
300,352,92505,6,0,B|374:339|374:339|388:346|388:346|458:334,1,161.999995056153,2|8,1:2|0:2,0:0:0:0:
304,168,93034,2,0,L|319:247,1,80.9999975280763,2|0,1:2|0:0,0:2:0:0:
460,160,93387,1,2,1:2:0:0:
460,160,93476,1,2,0:2:0:0:
460,160,93564,2,0,L|475:81,1,80.9999975280763,10|2,0:2|0:2,0:2:0:0:
484,48,93828,1,8,0:2:0:0:
484,48,93916,6,0,P|444:40|404:48,1,80.9999975280763,2|0,1:2|1:2,0:2:0:0:
319,247,94270,1,10,0:2:0:0:
228,44,94446,1,0,1:2:0:0:
128,276,94799,5,2,1:2:0:0:
404,172,95152,6,0,B|310:138|310:138|257:173,1,161.999995056153,6|2,1:2|1:2,0:2:0:0:
128,276,95681,1,10,0:2:0:0:
196,68,95858,1,2,1:2:0:0:
304,260,96034,1,10,0:2:0:0:
76,152,96387,5,10,0:2:0:0:
344,4,96740,6,0,L|325:110,1,90,14|0,0:2|1:2,0:2:0:0:
228,332,97093,5,8,0:2:0:0:
136,88,97270,1,2,1:2:0:0:
356,240,97446,1,8,0:2:0:0:
88,232,97623,1,2,1:2:0:0:
88,232,97711,1,2,0:2:0:0:
88,232,97799,2,0,L|194:213,1,90,10|2,0:2|1:2,0:0:0:0:
396,0,98152,5,10,0:2:0:0:
464,248,98328,1,0,1:2:0:0:
312,68,98505,1,8,0:2:0:0:
244,316,98681,1,2,1:2:0:0:
412,112,98858,1,8,0:2:0:0:
480,360,99034,1,2,1:2:0:0:
480,360,99123,1,2,0:2:0:0:
480,360,99211,2,0,L|499:254,1,90,10|2,0:2|1:2,0:0:0:0:
220,76,99564,5,10,0:2:0:0:
500,2,99740,1,0,1:2:0:0:
204,92,99917,1,10,0:2:0:0:
503,161,100093,1,0,1:2:0:0:
252,260,100270,5,10,0:2:0:0:
376,0,100446,1,2,1:2:0:0:
400,304,100623,1,8,0:2:0:0:
296,44,100799,1,2,1:2:0:0:
212,352,100976,6,0,P|255:360|299:350,1,90,8|2,0:2|1:2,0:0:0:0:
512,152,101328,1,10,0:2:0:0:
252,260,101505,1,2,1:2:0:0:
512,352,101681,1,10,0:2:0:0:
232,144,102034,5,10,0:2:0:0:
512,32,102387,6,0,L|423:16,1,90,14|0,0:2|1:2,0:2:0:0:
148,52,102740,5,8,0:2:0:0:
424,131,102917,1,2,1:2:0:0:
148,228,103093,1,8,0:2:0:0:
312,32,103270,1,2,1:2:0:0:
312,32,103358,1,2,0:2:0:0:
312,32,103446,2,0,L|296:121,1,90,10|2,0:2|1:2,0:0:0:0:
356,384,103799,5,10,0:2:0:0:
424,132,103975,1,0,1:2:0:0:
272,316,104152,1,8,0:2:0:0:
204,63,104328,1,2,1:2:0:0:
372,272,104505,1,8,0:2:0:0:
440,19,104681,1,2,1:2:0:0:
440,19,104770,1,2,0:2:0:0:
440,19,104858,2,0,P|397:11|353:21,1,90,10|2,0:2|1:2,0:0:0:0:
148,188,105211,5,10,0:2:0:0:
408,116,105387,1,0,1:2:0:0:
152,0,105564,1,10,0:2:0:0:
360,256,105740,1,0,1:2:0:0:
68,152,106093,5,10,0:2:0:0:
156,196,106270,1,0,3:2:0:0:
156,196,106358,1,0,3:2:0:0:
155,197,106446,2,0,P|169:155|156:112,1,90,6|0,1:2|0:0,0:2:0:0:
100,32,106976,6,0,B|154:1|211:34|211:34|230:20|230:20|286:48|338:20,1,252,2|4,0:0|0:2,0:0:0:0:
256,192,109534,12,0,115270,0:2:0:0:
