osu file format v14

[General]
AudioFilename: audio.mp3
AudioLeadIn: 0
PreviewTime: 62417
Countdown: 0
SampleSet: Soft
StackLeniency: 0.7
Mode: 0
LetterboxInBreaks: 0
WidescreenStoryboard: 1

[Editor]
DistanceSpacing: 1
BeatDivisor: 4
GridSize: 8
TimelineZoom: 1.5

[Metadata]
Title:Now On Stage!!
TitleUnicode:Now On Stage!!
Artist:nonet
ArtistUnicode:nonet
Creator:Kuki1537
Version:Normal
Source:ガールフレンド(♪)
Tags:girlfriend note onpu kari fumio murakami chloe lemaire kokomi shina mutsumi shigino momoko asahina haruka kazemachi sakura tange satomi minami tsuda yui ogura saori hayami rina sato minako kotobuki livetune ameba mugmomoko akane sakurai saya kagurazaka kaori nazuka mug japanese pop video game kz torriru lets short ver
BeatmapID:3122810
BeatmapSetID:1526418

[Difficulty]
HPDrainRate:3
CircleSize:3.5
OverallDifficulty:4
ApproachRate:5.5
SliderMultiplier:1.1
SliderTickRate:1

[Events]
//Background and Video events
0,0,"aaaaaa.jpg",0,0
//Break Periods
//Storyboard Layer 0 (Background)
//Storyboard Layer 1 (Fail)
//Storyboard Layer 2 (Pass)
//Storyboard Layer 3 (Foreground)
//Storyboard Layer 4 (Overlay)
//Storyboard Sound Samples

[TimingPoints]
-671,352.941176470588,4,2,21,60,1,0
652,-100,4,2,21,5,0,0
740,-100,4,2,21,60,0,0
9211,-100,4,2,21,70,0,0
11681,-100,4,2,21,75,0,0
11946,-100,4,2,21,5,0,0
12034,-100,4,2,21,80,0,0
21828,-100,4,2,22,50,0,0
22270,-100,4,2,21,50,0,0
22976,-100,4,2,21,70,0,0
23328,-111.111111111111,4,2,21,60,0,0
33211,-100,4,2,21,75,0,0
34623,-100,4,2,21,65,0,0
45211,-100,4,2,21,70,0,0
45917,-100,4,2,21,75,0,0
57211,-100,4,2,21,85,0,0
62770,-100,4,2,21,5,0,0
62858,-100,4,2,21,90,0,1
65593,-100,4,2,21,5,0,1
65681,-100,4,2,21,90,0,1
68417,-100,4,2,21,5,0,1
68505,-100,4,2,21,90,0,1
73711,-100,4,2,21,5,0,1
73799,-100,4,2,21,90,0,1
74064,-100,4,2,21,5,0,1
74152,-100,4,2,21,90,0,1
76887,-100,4,2,21,5,0,1
76976,-100,4,2,21,90,0,1
79710,-100,4,2,21,5,0,1
79799,-100,4,2,21,90,0,1
84387,-100,4,2,21,80,0,0
96740,-100,4,2,21,90,0,1
106446,-100,4,2,21,90,0,0
106534,-100,4,2,22,60,0,0
106976,-100,4,2,21,60,0,0

[Colours]
Combo1 : 30,49,225
Combo2 : 241,74,50
Combo3 : 236,189,91
Combo4 : 234,123,242
Combo5 : 106,172,238

[HitObjects]
138,50,740,6,0,P|96:30|63:154,1,220,6|2,3:2|3:2,0:2:0:0:
204,312,2152,2,0,B|317:272|299:376|417:334,1,220,2|2,3:2|3:2,0:2:0:0:
501,133,3564,2,0,B|446:112|405:79|405:79|355:102|282:108,1,220,2|2,3:2|3:2,0:2:0:0:
81,137,4976,2,0,L|61:252,1,110,2|2,3:2|3:2,0:2:0:0:
22,348,5681,2,0,P|67:330|145:345,1,110,2|0,3:2|3:2,0:2:0:0:
230,373,6387,5,6,1:2:0:0:
448,351,7093,1,6,1:2:0:0:
426,133,7799,1,6,1:2:0:0:
208,155,8505,1,6,1:2:0:0:
230,373,9211,6,0,P|264:343|341:341,1,110,14|10,0:2|0:2,0:0:0:0:
384,352,9740,1,0,1:2:0:0:
384,352,9917,2,0,L|371:284,1,55,10|0,0:2|1:2,0:0:0:0:
363,243,10270,1,10,0:2:0:0:
386,135,10623,1,10,0:2:0:0:
395,81,10799,1,8,0:2:0:0:
405,26,10976,1,8,0:2:0:0:
187,6,11681,1,6,1:2:0:0:
144,107,12034,6,0,L|164:232,1,110,6|8,1:2|0:2,0:2:0:0:
203,251,12564,2,0,L|194:313,1,55,2|0,1:2|0:0,0:2:0:0:
177,360,12917,1,2,1:2:0:0:
177,360,13093,1,10,0:2:0:0:
71,378,13446,5,2,1:2:0:0:
71,378,13623,2,0,P|42:380|17:370,1,55,0|8,1:2|0:2,0:0:0:0:
0,318,13976,2,0,L|15:203,1,110,2|2,1:2|1:2,0:2:0:0:
22,154,14505,1,10,0:2:0:0:
124,114,14858,5,2,1:2:0:0:
207,193,15211,1,10,0:2:0:0:
207,193,15387,2,0,P|236:207|316:198,1,110,0|2,1:2|1:2,0:2:0:0:
421,208,16093,6,0,L|441:93,1,110,6|2,1:2|1:2,0:2:0:0:
457,47,16623,2,0,L|393:58,1,55,10|2,0:2|1:2,0:0:0:0:
348,66,16976,1,10,0:2:0:0:
253,10,17328,1,10,0:2:0:0:
148,45,17681,6,0,P|103:36|36:70,1,110,6|8,1:2|0:2,0:2:0:0:
11,104,18211,2,0,L|22:173,1,55,2|0,1:2|0:0,0:2:0:0:
33,216,18564,1,2,1:2:0:0:
33,216,18740,1,10,0:2:0:0:
129,278,19093,5,2,1:2:0:0:
129,278,19270,2,0,L|119:336,1,55,0|8,1:2|0:2,0:0:0:0:
149,378,19623,2,0,P|189:359|268:374,1,110,2|2,1:2|1:2,0:2:0:0:
305,382,20152,1,10,0:2:0:0:
399,326,20505,5,2,1:2:0:0:
344,236,20858,1,10,0:2:0:0:
344,236,21034,2,0,L|366:109,1,110,0|2,1:2|1:2,0:2:0:0:
434,43,21740,6,0,B|344:-17|235:48|278:78|176:144|72:80,1,385,6|8,1:2|0:2,0:2:0:0:
34,172,23328,6,0,L|52:271,1,98.9999969787599,6|2,1:2|1:2,0:2:0:0:
37,317,23858,2,0,B|89:308|89:308|128:331|128:331|195:319,1,148.49999546814,2|0,0:2|1:2,0:2:0:0:
262,269,24740,1,2,1:2:0:0:
193,197,25093,2,0,L|185:147,1,49.4999984893799,2|2,1:2|0:2,0:0:0:0:
156,107,25446,2,0,P|202:113|270:91,1,98.9999969787599,0|0,1:2|1:2,0:2:0:0:
327,35,26152,6,0,L|429:52,1,98.9999969787599,2|2,1:2|1:2,0:2:0:0:
467,27,26681,2,0,P|447:87|455:136,1,98.9999969787599,2|2,0:2|0:2,0:2:0:0:
484,214,27387,2,0,P|396:220|243:282,1,247.4999924469,2|0,3:2|1:2,0:0:0:0:
185,354,28623,1,2,1:2:0:0:
88,331,28976,6,0,P|59:286|73:232,1,98.9999969787599,2|2,1:2|1:2,0:2:0:0:
157,206,29681,2,0,P|186:161|173:107,1,98.9999969787599,2|2,1:2|1:2,0:2:0:0:
122,37,30387,2,0,L|22:54,2,98.9999969787599,2|2|2,1:2|1:2|1:2,0:2:0:0:
220,19,31446,1,2,1:2:0:0:
283,94,31799,6,0,L|267:193,1,98.9999969787599,2|0,1:2|1:2,0:2:0:0:
224,217,32328,2,0,P|274:237|296:322,1,148.49999546814,2|0,0:2|1:2,0:2:0:0:
397,378,33211,1,10,0:2:0:0:
397,378,33387,2,0,L|456:364,1,55,8|8,3:3|3:3,0:0:0:0:
497,336,33740,2,0,L|478:225,1,110,6|0,1:2|1:2,0:2:0:0:
468,172,34270,1,10,0:2:0:0:
500,67,34623,6,0,P|449:43|383:55,1,110,6|2,1:2|1:2,0:2:0:0:
365,93,35152,2,0,P|338:117|211:109,1,165,2|8,0:2|0:2,0:2:0:0:
128,47,36034,2,0,L|109:161,1,110,2|2,1:2|1:2,0:2:0:0:
78,201,36564,1,2,0:2:0:0:
78,201,36740,2,0,P|42:193|14:198,2,55,0|8|0,1:2|0:2|1:2,0:0:0:0:
122,302,37446,6,0,L|234:281,1,110,2|2,1:2|1:2,0:2:0:0:
274,314,37976,2,0,L|386:335,1,110,2|2,0:2|0:2,0:2:0:0:
490,353,38681,2,0,P|517:302|509:248,1,110,2|0,3:2|0:0,0:0:0:0:
474,209,39211,2,0,L|466:151,1,55,0|8,1:2|0:2,0:0:0:0:
461,99,39564,1,2,1:2:0:0:
364,45,39917,1,6,1:2:0:0:
279,115,40270,6,0,P|247:136|164:124,1,110,2|2,1:2|1:2,0:2:0:0:
131,102,40799,2,0,L|148:213,1,110,2|2,0:2|0:2,0:2:0:0:
218,302,41505,1,2,3:2:0:0:
218,302,41681,2,0,P|269:292|334:319,2,110,0|2|2,1:2|1:2|1:2,0:2:0:0:
130,369,42740,1,2,1:2:0:0:
27,328,43093,6,0,L|6:212,1,110,6|0,1:2|1:2,0:2:0:0:
64,125,43799,2,0,P|111:105|176:116,1,110,0|0,1:2|1:2,0:2:0:0:
261,53,44505,2,0,L|251:-4,2,55,2|2|2,0:2|0:2|0:2,0:2:0:0:
307,91,45034,1,10,0:2:0:0:
307,91,45211,2,0,L|285:215,1,110,10|10,0:2|0:2,0:2:0:0:
230,293,45917,6,0,P|192:286|166:290,2,55,4|0|2,1:2|1:2|1:2,0:0:0:0:
276,332,46446,1,2,0:2:0:0:
276,332,46623,2,0,L|387:312,1,110,10|2,0:2|3:2,0:2:0:0:
492,330,47328,2,0,L|503:385,2,55,2|0|2,1:2|1:2|1:2,0:0:0:0:
457,225,48034,1,10,0:2:0:0:
433,117,48387,1,2,3:2:0:0:
458,12,48740,6,0,L|514:21,2,55,2|0|2,1:2|1:2|1:2,0:0:0:0:
361,64,49446,2,0,L|242:83,1,110,10|2,0:2|3:2,0:2:0:0:
201,92,49976,1,10,0:2:0:0:
201,92,50152,2,0,L|210:34,2,55,0|2|0,1:2|1:2|1:2,0:0:0:0:
146,188,50858,2,0,L|158:244,1,55,10|2,0:2|1:2,0:0:0:0:
190,292,51211,1,10,0:2:0:0:
190,292,51387,1,2,0:2:0:0:
156,336,51564,6,0,P|84:336|34:353,1,110,4|10,1:2|0:2,0:2:0:0:
1,248,52270,2,0,L|12:189,1,55,2|0,1:2|1:2,0:0:0:0:
21,139,52623,1,10,0:2:0:0:
87,51,52976,2,0,P|127:30|194:40,1,110,2|8,1:2|0:2,0:2:0:0:
258,123,53681,2,0,L|249:179,2,55,2|2|10,1:2|1:2|0:2,0:0:0:0:
303,90,54211,1,2,0:2:0:0:
303,90,54387,6,0,P|333:109|416:102,1,110,0|10,1:2|0:2,0:2:0:0:
500,51,55093,2,0,L|510:106,1,55,2|0,1:2|1:2,0:0:0:0:
497,158,55446,1,10,0:2:0:0:
434,248,55799,1,2,1:2:0:0:
327,220,56152,1,10,0:2:0:0:
252,301,56505,2,0,L|261:360,2,55,2|0|10,1:2|1:2|0:2,0:0:0:0:
144,279,57211,5,14,0:2:0:0:
43,234,57564,1,10,0:2:0:0:
55,124,57917,1,10,0:2:0:0:
162,101,58270,1,10,0:2:0:0:
217,197,58623,5,10,0:2:0:0:
325,173,58976,1,10,0:2:0:0:
336,64,59328,1,10,0:2:0:0:
236,19,59681,1,10,0:2:0:0:
162,101,60034,6,0,P|104:85|43:111,1,110,14|0,0:2|1:2,0:2:0:0:
16,136,60564,1,0,1:2:0:0:
16,136,60740,2,0,L|6:77,2,55,0|0|0,1:2|1:2|1:2,0:0:0:0:
11,246,61446,5,10,0:2:0:0:
63,262,61623,1,10,0:2:0:0:
116,274,61799,2,0,L|243:249,1,110,10|10,0:2|0:2,0:0:0:0:
303,175,62505,1,6,0:2:0:0:
400,228,62858,6,0,P|448:234|507:201,1,110,6|8,1:2|0:2,0:2:0:0:
512,156,63387,1,2,0:2:0:0:
512,156,63564,2,0,L|492:44,1,110,2|8,1:2|0:2,0:2:0:0:
385,20,64270,6,0,L|273:39,1,110,2|10,1:2|0:2,0:2:0:0:
226,31,64799,1,2,0:2:0:0:
226,31,64976,2,0,L|238:95,1,55,2|0,1:2|1:2,0:2:0:0:
240,139,65328,1,10,0:2:0:0:
314,219,65681,6,0,P|334:259|311:324,1,110,2|8,1:2|0:2,0:2:0:0:
272,352,66211,1,2,0:2:0:0:
272,352,66387,2,0,L|155:336,1,110,2|8,1:2|0:2,0:2:0:0:
58,373,67093,5,2,1:2:0:0:
19,269,67446,1,10,0:2:0:0:
111,210,67799,1,2,1:2:0:0:
76,105,68152,2,0,L|86:50,1,55,10|0,0:2|0:0,0:2:0:0:
61,1,68505,6,0,P|98:-4|173:27,1,110,6|10,1:2|0:2,0:2:0:0:
269,55,69211,2,0,P|303:51|331:40,1,55,2|0,1:2|1:2,0:2:0:0:
367,11,69564,1,10,0:2:0:0:
367,11,69740,1,2,0:2:0:0:
412,41,69917,6,0,P|437:91|423:159,1,110,2|10,1:2|0:2,0:2:0:0:
328,184,70623,2,0,P|303:234|317:302,1,110,2|10,1:2|0:2,0:2:0:0:
344,334,71152,1,2,0:2:0:0:
344,334,71328,6,0,L|404:323,2,55,2|2|10,1:2|0:2|0:2,0:0:0:0:
306,375,71858,2,0,L|181:356,1,110,2|2,0:2|1:2,0:2:0:0:
143,346,72387,1,10,0:2:0:0:
36,374,72740,5,10,0:2:0:0:
25,319,72917,1,8,0:2:0:0:
14,265,73093,2,0,L|39:149,1,110,10|10,0:2|0:2,0:2:0:0:
136,108,73799,1,6,0:2:0:0:
193,201,74152,6,0,P|233:225|305:214,1,110,6|8,1:2|0:2,0:2:0:0:
334,182,74681,1,2,0:2:0:0:
334,182,74858,2,0,P|374:158|446:169,1,110,2|8,1:2|0:2,0:2:0:0:
507,79,75564,6,0,L|389:55,1,110,2|10,1:2|0:2,0:2:0:0:
360,25,76093,1,2,0:2:0:0:
360,25,76270,2,0,L|295:38,1,55,2|0,1:2|1:2,0:2:0:0:
252,49,76623,1,10,0:2:0:0:
144,26,76976,6,0,P|107:17|42:53,1,110,2|8,1:2|0:2,0:2:0:0:
14,94,77505,1,2,0:2:0:0:
14,94,77681,2,0,L|34:211,1,110,2|8,1:2|0:2,0:2:0:0:
5,309,78387,6,0,L|61:298,1,55,14|0,0:2|1:2,0:0:0:0:
108,323,78740,2,0,L|164:312,1,55,14|2,0:2|1:2,0:0:0:0:
211,337,79093,2,0,L|267:326,1,55,14|0,0:2|1:2,0:0:0:0:
308,292,79446,1,14,0:2:0:0:
245,201,79799,6,0,L|229:92,1,110,6|10,1:2|0:2,0:2:0:0:
307,14,80505,2,0,P|335:24|365:23,1,55,2|0,1:2|1:2,0:2:0:0:
414,4,80858,1,10,0:2:0:0:
414,4,81034,1,2,0:2:0:0:
456,39,81211,6,0,P|483:76|475:138,1,110,2|10,1:2|0:2,0:2:0:0:
434,173,81740,1,2,0:2:0:0:
434,173,81917,2,0,L|449:285,1,110,2|8,1:2|0:2,0:2:0:0:
385,372,82623,5,6,1:2:0:0:
298,303,82976,2,0,L|232:313,1,55,10|0,0:2|1:2,0:0:0:0:
202,347,83328,2,0,L|136:337,1,55,10|0,0:2|1:2,0:0:0:0:
103,305,83681,1,10,0:2:0:0:
30,222,84034,5,10,0:2:0:0:
40,167,84211,1,8,0:2:0:0:
50,112,84387,1,8,0:2:0:0:
246,13,85093,1,6,0:1:0:0:
311,101,85446,6,0,P|312:158|286:213,1,110,6|8,1:2|0:2,0:2:0:0:
242,232,85976,2,0,P|241:267|253:296,1,55,2|0,1:2|0:0,0:2:0:0:
279,336,86328,1,2,1:2:0:0:
279,336,86505,1,10,0:2:0:0:
386,376,86858,5,2,1:2:0:0:
386,376,87034,2,0,L|397:317,1,55,0|8,1:2|0:2,0:0:0:0:
437,285,87387,2,0,L|419:171,1,110,2|2,1:2|1:2,0:2:0:0:
440,124,87917,1,10,0:2:0:0:
378,32,88270,5,2,1:2:0:0:
283,85,88623,1,10,0:2:0:0:
283,85,88799,2,0,L|172:70,1,110,0|2,1:2|1:2,0:2:0:0:
82,8,89505,6,0,P|61:45|79:123,1,110,6|2,1:2|1:2,0:2:0:0:
101,155,90034,2,0,L|92:210,1,55,10|2,0:2|1:2,0:0:0:0:
56,251,90387,1,10,0:2:0:0:
92,354,90740,1,10,0:2:0:0:
200,373,91093,6,0,P|246:345|309:346,1,110,6|8,1:2|0:2,0:2:0:0:
341,305,91623,2,0,L|332:245,1,55,2|0,1:2|0:0,0:2:0:0:
306,208,91976,1,2,1:2:0:0:
306,208,92152,1,10,0:2:0:0:
236,122,92505,5,2,1:2:0:0:
236,122,92681,2,0,L|247:63,1,55,0|8,1:2|0:2,0:0:0:0:
278,23,93034,2,0,P|311:7|385:14,1,110,2|2,1:2|1:2,0:2:0:0:
426,46,93564,1,10,0:2:0:0:
498,128,93917,5,2,1:2:0:0:
436,220,94270,1,10,0:2:0:0:
436,220,94446,2,0,L|453:341,1,110,0|2,1:2|1:2,0:2:0:0:
353,379,95152,6,0,P|313:346|251:346,1,110,6|2,1:2|1:2,0:2:0:0:
207,368,95681,2,0,L|150:359,1,55,10|2,0:2|1:2,0:0:0:0:
98,351,96034,1,10,0:2:0:0:
17,276,96387,1,10,0:2:0:0:
72,180,96740,6,0,L|51:66,1,110,14|8,0:2|0:2,0:2:0:0:
136,1,97446,1,8,0:2:0:0:
225,64,97799,1,10,0:2:0:0:
194,169,98152,5,10,0:2:0:0:
265,252,98505,1,8,0:2:0:0:
373,233,98858,1,8,0:2:0:0:
400,126,99211,1,10,0:2:0:0:
324,45,99564,6,0,P|278:27|219:36,1,110,10|10,0:2|0:2,0:2:0:0:
136,108,100270,2,0,P|118:154|127:213,1,110,10|8,0:2|0:2,0:0:0:0:
153,319,100976,5,8,0:2:0:0:
255,359,101328,1,10,0:2:0:0:
356,317,101681,2,0,L|474:336,1,110,10|10,0:2|0:2,0:0:0:0:
485,226,102387,6,0,L|376:208,1,110,14|8,0:2|0:2,0:2:0:0:
273,248,103093,1,8,0:2:0:0:
182,184,103446,1,10,0:2:0:0:
222,81,103799,5,10,0:2:0:0:
146,1,104152,1,8,0:2:0:0:
51,57,104505,1,8,0:2:0:0:
73,164,104858,1,10,0:2:0:0:
182,184,105211,6,0,L|166:299,1,110,10|10,0:2|0:2,0:2:0:0:
135,338,105740,2,0,P|182:329|257:346,1,110,0|10,1:2|0:2,0:2:0:0:
297,365,106270,1,0,3:2:0:0:
348,345,106446,1,6,1:2:0:0:
256,192,106623,12,4,109446,0:2:0:0:
256,192,109799,12,0,115270,0:2:0:0:
