osu file format v14

[General]
AudioFilename: audio.mp3
AudioLeadIn: 0
PreviewTime: 62417
Countdown: 0
SampleSet: Soft
StackLeniency: 0.7
Mode: 0
LetterboxInBreaks: 0
WidescreenStoryboard: 0

[Editor]
DistanceSpacing: 1.4
BeatDivisor: 4
GridSize: 8
TimelineZoom: 1.5

[Metadata]
Title:Now On Stage!!
TitleUnicode:Now On Stage!!
Artist:nonet
ArtistUnicode:nonet
Creator:Kuki1537
Version:Let's Dance!!
Source:ガールフレンド(♪)
Tags:girlfriend note onpu kari fumio murakami chloe lemaire kokomi shina mutsumi shigino momoko asahina haruka kazemachi sakura tange satomi minami tsuda yui ogura saori hayami rina sato minako kotobuki livetune ameba mugmomoko akane sakurai saya kagurazaka kaori nazuka mug japanese pop video game kz torriru lets short ver
BeatmapID:3122809
BeatmapSetID:1526418

[Difficulty]
HPDrainRate:5
CircleSize:3.8
OverallDifficulty:9
ApproachRate:9.2
SliderMultiplier:1.8
SliderTickRate:1

[Events]
//Background and Video events
0,0,"aaaaaa.jpg",0,0
//Break Periods
//Storyboard Layer 0 (Background)
//Storyboard Layer 1 (Fail)
//Storyboard Layer 2 (Pass)
//Storyboard Layer 3 (Foreground)
//Storyboard Layer 4 (Overlay)
//Storyboard Sound Samples

[TimingPoints]
-671,352.941176470588,4,2,21,60,1,0
387,-200,4,2,21,60,0,0
652,-200,4,2,21,5,0,0
740,-133.333333333333,4,2,21,60,0,0
9211,-133.333333333333,4,2,21,70,0,0
11681,-100,4,2,21,75,0,0
11946,-100,4,2,21,5,0,0
12034,-100,4,2,21,80,0,0
21740,-200,4,2,21,80,0,0
21828,-200,4,2,22,50,0,0
22270,-200,4,2,21,50,0,0
22976,-200,4,2,21,70,0,0
23328,-133.333333333333,4,2,21,60,0,0
33211,-111.111111111111,4,2,21,75,0,0
34623,-125,4,2,21,65,0,0
45211,-100,4,2,21,70,0,0
45917,-111.111111111111,4,2,21,75,0,0
57211,-111.111111111111,4,2,21,85,0,0
62505,-79.9999999999999,4,2,21,85,0,0
62770,-79.9999999999999,4,2,21,5,0,0
62858,-95.2380952380951,4,2,21,90,0,1
65328,-80,4,2,21,90,0,1
65593,-80,4,2,21,5,0,1
65681,-95.2380952380952,4,2,21,90,0,1
68152,-80,4,2,21,90,0,1
68417,-80,4,2,21,5,0,1
68505,-95.2380952380952,4,2,21,90,0,1
73446,-80,4,2,21,90,0,1
73711,-80,4,2,21,5,0,1
73799,-80,4,2,21,90,0,1
74064,-80,4,2,21,5,0,1
74152,-95.2380952380952,4,2,21,90,0,1
76623,-80,4,2,21,90,0,1
76887,-80,4,2,21,5,0,1
76976,-95.2380952380952,4,2,21,90,0,1
79446,-80,4,2,21,90,0,1
79710,-80,4,2,21,5,0,1
79799,-95.2380952380952,4,2,21,90,0,1
84387,-95.2380952380952,4,2,21,80,0,0
85093,-86.9565217391304,4,2,21,80,0,0
85446,-100,4,2,21,80,0,0
96740,-100,4,2,21,90,0,1
106446,-200,4,2,21,90,0,0
106534,-200,4,2,22,60,0,0
106976,-200,4,2,21,60,0,0

[Colours]
Combo1 : 30,49,225
Combo2 : 241,74,50
Combo3 : 236,189,91
Combo4 : 234,123,242
Combo5 : 106,172,238

[HitObjects]
0,82,387,6,0,P|33:74|63:61,1,67.5,2|0,0:2|0:2,0:2:0:0:
124,0,740,6,0,L|100:139,1,135.000005149842,6|0,3:2|0:2,0:2:0:0:
21,228,1270,1,2,0:2:0:0:
21,228,1446,2,0,P|75:217|155:264,1,135.000005149842,2|0,3:2|0:2,0:2:0:0:
193,331,1976,1,2,0:2:0:0:
251,187,2152,6,0,L|239:253,1,67.5000025749208,2|0,3:2|0:2,0:2:0:0:
323,380,2505,1,2,0:2:0:0:
193,331,2681,1,2,0:2:0:0:
332,263,2858,2,0,B|404:246|391:300|465:286,1,135.000005149842,2|0,3:2|0:2,0:2:0:0:
427,0,3564,6,0,B|382:34|382:34|398:114,1,135.000005149842,2|0,3:2|0:2,0:2:0:0:
499,196,4093,1,2,0:2:0:0:
499,196,4270,2,0,B|451:189|451:189|418:206|418:206|361:198,1,135.000005149842,2|0,3:2|0:2,0:2:0:0:
304,125,4799,1,2,0:2:0:0:
240,230,4976,6,0,P|207:236|174:229,1,67.5000025749208,2|0,3:2|0:2,0:2:0:0:
39,156,5328,1,2,3:2:0:0:
89,271,5505,1,2,0:2:0:0:
135,145,5681,2,0,L|123:78,1,67.5000025749208,2|0,3:2|0:2,0:2:0:0:
239,0,6034,2,0,L|227:67,1,67.5000025749208,0|0,3:2|0:2,0:2:0:0:
451,192,6387,6,0,P|412:176|325:230,1,135.000005149842,6|2,1:2|0:2,0:2:0:0:
178,384,7093,2,0,L|167:311,1,67.5000025749208,6|0,1:2|0:2,0:2:0:0:
211,172,7446,1,2,3:2:0:0:
153,298,7623,1,2,0:2:0:0:
70,104,7799,6,0,B|25:138|25:138|41:218,1,135.000005149842,6|2,1:2|0:2,0:2:0:0:
20,318,8328,1,2,0:2:0:0:
136,211,8505,2,0,B|208:194|195:248|269:234,1,135.000005149842,6|0,1:2|0:2,0:2:0:0:
349,187,9034,1,2,0:2:0:0:
349,187,9123,1,2,0:2:0:0:
349,187,9211,5,14,0:2:0:0:
380,344,9387,1,0,1:2:0:0:
425,124,9564,5,10,0:2:0:0:
299,296,9740,1,0,1:2:0:0:
296,77,9917,5,10,0:2:0:0:
438,276,10093,1,0,1:2:0:0:
383,35,10270,5,10,0:2:0:0:
299,296,10446,1,0,1:2:0:0:
210,41,10623,5,10,0:2:0:0:
492,197,10799,1,8,0:2:0:0:
194,283,10976,1,8,0:2:0:0:
184,292,11328,6,0,L|116:282,1,67.5000025749208,2|0,0:2|1:2,0:2:0:0:
97,302,11593,1,0,1:2:0:0:
97,302,11681,6,0,P|73:234|62:169,1,135,6|0,1:2|0:2,0:2:0:0:
18,91,12034,6,0,P|62:79|114:96,1,90,6|0,1:2|0:2,0:2:0:0:
275,250,12387,1,8,0:2:0:0:
245,0,12564,2,0,B|192:39|192:39|212:157,1,180,2|2,1:2|1:2,0:2:0:0:
230,169,13005,1,2,0:2:0:0:
230,169,13093,2,0,P|275:158|324:173,1,90,10|2,0:2|0:2,0:2:0:0:
408,320,13446,5,2,1:2:0:0:
179,243,13623,1,0,1:2:0:0:
404,133,13799,1,8,0:2:0:0:
307,325,13976,2,0,B|244:314|244:314|198:338|198:338|122:325,1,180,2|2,1:2|1:2,0:2:0:0:
116,340,14417,1,2,0:2:0:0:
116,340,14505,2,0,L|101:248,1,90,10|2,0:2|0:2,0:2:0:0:
57,170,14770,1,8,0:2:0:0:
57,170,14858,6,0,L|71:81,1,90,2|0,1:2|1:2,0:2:0:0:
274,186,15211,1,10,0:2:0:0:
101,251,15387,6,0,P|56:262|7:249,1,90,0|2,1:2|0:2,0:2:0:0:
236,88,15740,2,0,P|279:78|322:89,1,90,2|0,1:2|0:2,0:2:0:0:
512,262,16093,6,0,B|415:229|435:309|337:277,1,180,6|2,1:2|1:2,0:2:0:0:
166,135,16623,1,10,0:2:0:0:
297,380,16799,1,2,1:2:0:0:
403,91,16976,5,10,0:2:0:0:
101,251,17328,5,10,0:2:0:0:
444,381,17681,6,0,L|428:288,1,90,6|0,1:2|0:2,0:2:0:0:
419,71,18034,1,8,0:2:0:0:
273,248,18211,2,0,B|210:237|210:237|164:261|164:261|88:248,1,180,2|2,1:2|1:2,0:2:0:0:
83,234,18652,1,2,0:2:0:0:
83,234,18740,2,0,P|72:189|86:139,1,90,10|2,0:2|0:2,0:2:0:0:
275,8,19093,5,2,1:2:0:0:
181,215,19270,1,0,1:2:0:0:
107,3,19446,1,8,0:2:0:0:
281,162,19623,2,0,B|317:137|364:142|364:142|389:189|445:186,1,180,2|2,1:2|1:2,0:2:0:0:
458,170,20064,1,2,0:2:0:0:
458,170,20152,2,0,P|472:123|460:73,1,90,10|2,0:2|0:2,0:2:0:0:
212,62,20505,6,0,L|311:46,1,90,2|0,1:2|1:2,0:0:0:0:
453,267,20858,1,10,0:2:0:0:
218,230,21034,6,0,L|119:214,1,90,0|2,1:2|0:2,0:2:0:0:
301,48,21387,2,0,P|313:90|301:137,1,90,2|0,1:2|3:2,0:2:0:0:
284,150,21652,1,0,3:2:0:0:
284,150,21740,6,0,B|207:98|114:151|165:177|70:232|-6:182,1,315,6|8,1:2|0:2,0:2:0:0:
106,358,23328,6,0,L|178:347,1,67.5000025749208,6|0,1:2|0:2,0:2:0:0:
218,230,23681,1,2,1:2:0:0:
218,230,23858,2,0,P|240:277|321:286,1,135.000005149842,2|0,0:2|0:2,0:2:0:0:
422,338,24387,2,0,L|408:259,1,67.5000025749208,0|0,1:2|3:2,0:2:0:0:
424,256,24652,1,0,3:2:0:0:
424,256,24740,6,0,P|463:263|509:250,1,67.5000025749208,2|0,1:2|0:2,0:2:0:0:
510,112,25093,1,2,1:2:0:0:
510,112,25270,1,2,0:2:0:0:
389,172,25446,2,0,B|340:178|340:178|306:160|306:160|250:167,1,135.000005149842,0|0,1:2|1:2,0:2:0:0:
143,0,26152,6,0,L|156:77,1,67.5000025749208,2|0,1:2|0:2,0:2:0:0:
94,158,26505,1,2,1:2:0:0:
94,158,26681,2,0,P|130:151|167:161,1,67.5000025749208,2|0,0:2|1:2,0:2:0:0:
33,228,27034,2,0,P|8:200|0:163,1,67.5000025749208,2|0,0:2|1:2,0:2:0:0:
133,250,27387,1,2,3:2:0:0:
133,250,27476,1,0,3:2:0:0:
133,250,27564,6,0,L|122:326,1,67.5000025749208,0|0,1:2|0:2,0:2:0:0:
228,384,27917,2,0,L|217:308,1,67.5000025749208,0|0,1:2|0:2,0:2:0:0:
321,249,28270,2,0,L|310:325,1,67.5000025749208,0|0,1:2|0:2,0:2:0:0:
287,166,28623,2,0,P|327:159|363:171,1,67.5000025749208,2|0,1:2|0:2,0:2:0:0:
495,96,28976,6,0,P|455:89|419:101,1,67.5000025749208,2|0,1:2|0:2,0:2:0:0:
429,237,29328,2,0,P|455:205|462:168,1,67.5000025749208,2|0,1:2|0:2,0:2:0:0:
339,251,29681,2,0,P|352:289|381:314,1,67.5000025749208,2|0,1:2|0:2,0:2:0:0:
464,326,30034,1,2,1:2:0:0:
325,384,30211,1,0,3:2:0:0:
325,384,30299,1,0,3:2:0:0:
325,384,30387,6,0,L|255:373,1,67.5000025749208,2|0,1:2|0:2,0:2:0:0:
142,290,30740,2,0,L|208:279,1,67.5000025749208,2|0,1:2|0:2,0:2:0:0:
325,199,31093,2,0,L|255:188,1,67.5000025749208,2|0,1:2|0:2,0:2:0:0:
189,113,31446,1,2,1:2:0:0:
178,101,31799,6,0,B|107:78|120:136|41:116,1,135.000005149842,2|0,1:2|1:2,0:2:0:0:
221,17,32328,2,0,P|268:65|259:146,1,135.000005149842,2|0,0:2|0:2,0:2:0:0:
156,178,32858,1,0,1:2:0:0:
292,235,33034,1,0,3:2:0:0:
292,235,33123,1,0,3:2:0:0:
292,235,33211,5,10,0:2:0:0:
178,101,33387,1,8,3:3:0:0:
130,256,33564,1,8,3:3:0:0:
267,129,33740,2,0,B|323:120|323:120|362:144|362:144|420:134,1,161.999995056153,6|0,1:2|1:2,0:2:0:0:
478,263,34270,2,0,L|397:250,1,80.9999975280763,10|0,0:2|0:2,0:2:0:0:
234,383,34623,6,0,P|241:341|230:302,1,72,6|0,1:2|0:2,0:2:0:0:
166,222,34976,1,2,1:2:0:0:
84,383,35152,2,0,P|123:368|152:339,1,72,2|0,0:2|1:2,0:2:0:0:
251,292,35505,1,0,0:2:0:0:
56,202,35681,2,0,L|68:274,1,72,8|2,0:2|3:2,0:2:0:0:
71,294,35946,1,2,3:2:0:0:
71,294,36034,6,0,L|0:283,1,72,2|0,1:2|0:2,0:2:0:0:
79,112,36387,1,2,1:2:0:0:
166,222,36564,2,0,L|237:211,1,72,2|0,0:2|1:2,0:2:0:0:
128,27,36917,1,8,0:2:0:0:
56,202,37093,1,0,1:2:0:0:
182,117,37270,1,2,0:2:0:0:
182,117,37358,1,2,0:2:0:0:
182,117,37446,6,0,P|228:111|260:122,1,72,2|0,1:2|0:2,0:2:0:0:
309,219,37799,1,2,1:2:0:0:
307,44,37976,2,0,P|335:80|341:114,1,72,2|0,0:2|0:2,0:2:0:0:
408,257,38328,1,2,0:2:0:0:
452,95,38505,1,8,0:2:0:0:
309,219,38681,1,2,3:2:0:0:
309,219,38770,1,0,3:2:0:0:
309,219,38858,6,0,B|256:211|256:211|223:231|223:231|161:222,1,144,0|0,1:2|1:2,0:2:0:0:
32,174,39387,1,8,0:2:0:0:
135,308,39564,2,0,P|175:315|216:303,1,72,2|0,1:2|0:2,0:2:0:0:
181,152,39917,2,0,L|170:230,1,72,6|0,1:2|0:2,0:2:0:0:
303,371,40270,6,0,L|292:293,1,72,2|0,1:2|0:2,0:2:0:0:
363,160,40623,1,2,1:2:0:0:
402,311,40799,2,0,L|413:233,1,72,2|0,0:2|1:2,0:2:0:0:
268,136,41152,2,0,L|278:207,1,72,2|0,0:2|1:2,0:2:0:0:
303,48,41505,1,2,3:2:0:0:
303,48,41593,1,0,3:2:0:0:
303,48,41681,6,0,P|267:41|232:48,1,72,0|0,1:2|0:2,0:2:0:0:
138,187,42034,2,0,P|161:160|172:126,1,72,2|0,1:2|0:2,0:2:0:0:
0,43,42387,1,2,1:2:0:0:
47,181,42564,1,8,0:2:0:0:
102,9,42740,2,0,L|89:91,1,72,2|0,1:2|0:2,0:2:0:0:
0,272,43093,6,0,B|74:250|60:315|140:295,1,144,6|0,1:2|1:2,0:2:0:0:
273,239,43623,1,0,0:2:0:0:
236,384,43799,2,0,L|223:307,1,72,0|0,1:2|0:2,0:2:0:0:
297,153,44152,1,0,1:2:0:0:
346,306,44328,1,0,3:2:0:0:
346,306,44417,1,0,3:2:0:0:
346,306,44505,6,0,P|386:312|423:304,2,72,2|2|2,0:2|0:2|0:2,0:2:0:0:
183,234,45034,1,10,0:2:0:0:
183,234,45123,1,8,0:2:0:0:
183,234,45211,6,0,P|193:188|202:96,1,135,10|0,0:2|0:2,0:2:0:0:
152,28,45564,2,0,P|192:58|285:47,1,135,10|0,0:2|0:2,0:2:0:0:
375,24,45917,5,4,1:2:0:0:
319,248,46093,1,0,1:2:0:0:
382,0,46270,1,2,1:2:0:0:
253,155,46446,1,2,0:2:0:0:
439,97,46623,2,0,L|450:198,1,80.9999975280763,10|0,0:2|0:2,0:2:0:0:
284,333,46976,1,2,3:2:0:0:
360,168,47152,1,10,0:2:0:0:
360,168,47240,1,8,0:2:0:0:
360,168,47328,5,2,1:2:0:0:
426,384,47505,1,0,1:2:0:0:
274,238,47681,2,0,P|235:230|185:242,1,80.9999975280763,2|0,1:2|0:2,0:2:0:0:
113,384,48034,2,0,L|129:289,1,80.9999975280763,10|0,0:2|0:2,0:2:0:0:
50,138,48387,2,0,L|66:233,1,80.9999975280763,2|0,3:2|0:2,0:2:0:0:
248,93,48740,5,2,1:2:0:0:
0,55,48917,1,0,1:2:0:0:
272,97,49093,2,0,L|359:111,1,80.9999975280763,2|0,1:2|0:2,0:2:0:0:
159,135,49446,2,0,P|149:92|167:38,1,80.9999975280763,10|0,0:2|0:2,0:2:0:0:
351,109,49799,1,2,3:2:0:0:
198,235,49976,1,10,0:2:0:0:
198,235,50064,1,8,0:2:0:0:
198,235,50152,5,0,1:2:0:0:
271,0,50328,1,2,1:2:0:0:
370,238,50505,2,0,L|357:326,1,80.9999975280763,0|0,1:2|0:2,0:2:0:0:
238,147,50858,1,10,0:2:0:0:
452,95,51034,1,2,1:2:0:0:
276,234,51211,2,0,P|237:242|188:230,1,80.9999975280763,10|2,0:2|0:2,0:2:0:0:
158,0,51564,6,0,L|145:87,1,80.9999975280763,4|0,1:2|0:2,0:2:0:0:
0,231,51917,2,0,P|39:223|78:231,1,80.9999975280763,10|0,0:2|0:2,0:2:0:0:
241,374,52270,1,2,1:2:0:0:
170,189,52446,1,0,1:2:0:0:
71,369,52623,2,0,P|110:376|149:368,1,80.9999975280763,10|0,0:2|0:2,0:2:0:0:
219,129,52976,6,0,B|166:170|166:170|186:278,1,161.999995056153,2|8,1:2|0:2,0:2:0:0:
367,374,53505,1,0,0:2:0:0:
320,122,53681,1,2,1:2:0:0:
255,350,53858,1,2,1:2:0:0:
424,176,54034,1,10,0:2:0:0:
184,264,54211,1,2,0:2:0:0:
465,349,54387,6,0,L|477:260,1,80.9999975280763,0|0,1:2|0:2,0:2:0:0:
320,122,54740,2,0,L|330:202,1,80.9999975280763,10|0,0:2|0:2,0:2:0:0:
367,374,55093,1,2,1:2:0:0:
424,176,55270,1,0,1:2:0:0:
255,350,55446,2,0,P|215:357|176:348,1,80.9999975280763,10|0,0:2|0:2,0:2:0:0:
205,150,55799,6,0,L|215:230,1,80.9999975280763,2|0,1:2|0:2,0:2:0:0:
38,384,56152,2,0,L|48:303,1,80.9999975280763,10|0,0:2|0:2,0:2:0:0:
71,67,56505,1,2,1:2:0:0:
135,268,56681,1,0,1:2:0:0:
213,71,56858,2,0,P|252:62|291:69,1,80.9999975280763,10|0,0:2|0:2,0:2:0:0:
341,303,57211,5,14,0:2:0:0:
105,176,57387,1,0,1:2:0:0:
387,81,57564,5,10,0:2:0:0:
226,330,57740,1,0,1:2:0:0:
110,74,57917,5,10,0:2:0:0:
398,197,58093,1,0,1:2:0:0:
98,291,58270,5,10,0:2:0:0:
236,35,58446,1,0,1:2:0:0:
321,347,58623,6,0,P|281:356|239:347,1,80.9999975280763,10|0,0:2|1:2,0:0:0:0:
342,49,58976,5,10,0:2:0:0:
421,341,59152,1,0,1:2:0:0:
193,113,59328,5,10,0:2:0:0:
495,197,59505,1,0,1:2:0:0:
199,269,59681,5,10,0:2:0:0:
512,182,59858,1,0,1:2:0:0:
181,32,60034,6,0,L|192:112,1,80.9999975280763,14|0,0:2|0:2,0:2:0:0:
219,355,60387,1,0,1:2:0:0:
105,138,60564,1,0,1:2:0:0:
300,310,60740,1,0,1:2:0:0:
289,78,60917,1,0,1:2:0:0:
115,316,61093,1,0,1:2:0:0:
181,32,61270,1,0,1:2:0:0:
399,308,61446,5,10,0:2:0:0:
46,199,61623,1,10,0:2:0:0:
391,87,61799,1,10,0:2:0:0:
34,359,62152,5,10,0:2:0:0:
208,30,62505,6,0,P|241:89|229:188,1,168.75,6|0,0:2|0:2,0:2:0:0:
142,220,62858,6,0,B|239:189|222:275|322:245,1,188.999994232178,6|8,1:2|0:2,0:2:0:0:
502,125,63387,1,2,0:2:0:0:
442,314,63564,2,0,L|425:212,1,94.499997116089,2|0,1:2|1:2,0:2:0:0:
289,28,63917,1,8,0:2:0:0:
502,125,64093,1,2,0:2:0:0:
320,245,64270,6,0,L|221:231,1,94.499997116089,2|0,1:2|0:2,0:2:0:0:
25,128,64623,1,10,0:2:0:0:
118,336,64799,1,2,0:2:0:0:
187,112,64976,2,0,P|239:101|286:114,1,94.499997116089,2|0,1:2|1:2,0:2:0:0:
243,255,65328,6,0,P|205:238|249:252,1,168.75,10|0,0:2|0:2,0:2:0:0:
383,333,65681,6,0,B|315:326|315:326|271:354|271:354|192:345,1,188.999994232178,2|8,1:2|0:2,0:2:0:0:
27,236,66211,1,2,0:2:0:0:
256,161,66387,2,0,L|242:258,1,94.499997116089,2|0,1:2|1:2,0:2:0:0:
75,145,66740,1,8,0:2:0:0:
319,93,66917,1,2,0:2:0:0:
118,237,67093,6,0,P|72:246|26:235,1,94.499997116089,2|0,1:2|0:2,0:2:0:0:
176,25,67446,1,10,0:2:0:0:
242,254,67623,1,2,0:2:0:0:
333,0,67799,2,0,L|318:101,1,94.499997116089,2|0,1:2|1:2,0:2:0:0:
344,276,68152,6,0,B|379:256|419:262|419:262|447:312|514:310,1,168.75,10|0,0:2|0:2,0:2:0:0:
512,128,68505,6,0,L|498:224,1,94.499997116089,6|0,1:2|0:2,0:2:0:0:
255,347,68858,2,0,L|241:253,1,94.499997116089,10|0,0:2|0:2,0:2:0:0:
425,62,69211,2,0,L|411:158,1,94.499997116089,2|0,1:2|1:2,0:2:0:0:
154,297,69564,1,10,0:2:0:0:
252,87,69740,1,2,0:2:0:0:
346,299,69917,6,0,P|395:309|446:297,1,94.499997116089,2|0,1:2|0:2,0:2:0:0:
235,180,70270,2,0,L|249:276,1,94.499997116089,10|0,0:2|0:2,0:2:0:0:
411,155,70623,2,0,L|425:62,1,94.499997116089,2|0,1:2|1:2,0:2:0:0:
145,225,70976,1,10,0:2:0:0:
289,31,71152,1,2,0:2:0:0:
346,299,71328,5,2,1:2:0:0:
169,93,71505,1,2,0:2:0:0:
430,174,71681,1,10,0:2:0:0:
192,310,71858,2,0,P|143:320|92:308,1,94.499997116089,2|0,0:2|1:2,0:2:0:0:
14,87,72211,1,2,1:2:0:0:
190,214,72387,2,0,P|236:222|282:212,1,94.499997116089,10|0,0:2|0:2,0:2:0:0:
161,0,72740,5,10,0:2:0:0:
82,290,72917,1,8,0:2:0:0:
255,39,73093,2,0,P|300:29|352:41,1,94.499997116089,10|0,0:2|0:2,0:2:0:0:
433,190,73446,6,0,B|346:166|360:236|270:208,1,168.75,10|0,0:2|0:2,0:2:0:0:
207,130,73799,6,0,P|227:190|234:309,1,168.75,6|0,0:2|0:2,0:2:0:0:
163,355,74152,6,0,B|202:330|256:338|256:338|284:381|334:382,1,188.999994232178,6|8,1:2|0:2,0:2:0:0:
505,269,74681,1,2,0:2:0:0:
303,121,74858,2,0,L|319:219,1,94.499997116089,2|0,1:2|1:2,0:2:0:0:
427,384,75211,1,8,0:2:0:0:
512,177,75387,1,2,3:2:0:0:
512,177,75476,1,0,3:2:0:0:
512,177,75564,6,0,P|464:167|414:178,1,94.499997116089,2|0,1:2|0:2,0:2:0:0:
272,317,75917,1,10,0:2:0:0:
512,298,76093,1,2,0:2:0:0:
333,121,76270,2,0,L|317:214,1,94.499997116089,2|0,1:2|1:2,0:2:0:0:
176,287,76623,6,0,P|138:270|182:284,1,168.75,10|0,0:2|0:2,0:2:0:0:
85,354,76976,6,0,B|32:313|32:313|57:168,1,188.999994232178,2|8,1:2|0:2,0:2:0:0:
130,0,77505,1,2,0:2:0:0:
186,199,77681,2,0,P|232:207|278:197,1,94.499997116089,2|0,1:2|1:2,0:2:0:0:
111,94,78034,1,8,0:2:0:0:
219,287,78211,1,2,1:2:0:0:
242,37,78387,5,14,0:2:0:0:
127,294,78564,1,0,1:2:0:0:
302,104,78740,5,14,0:2:0:0:
244,368,78917,1,2,1:2:0:0:
384,149,79093,5,14,0:2:0:0:
384,384,79270,1,0,1:2:0:0:
226,227,79446,6,0,B|270:233|302:200|302:200|328:239|378:239,1,168.75,14|0,0:2|0:2,0:2:0:0:
475,150,79799,6,0,P|430:139|372:155,1,94.499997116089,6|0,1:2|0:2,0:2:0:0:
181,313,80152,2,0,P|226:322|272:311,1,94.499997116089,10|0,0:2|0:2,0:2:0:0:
251,44,80505,2,0,L|236:141,1,94.499997116089,2|0,1:2|1:2,0:2:0:0:
90,357,80858,1,10,0:2:0:0:
26,130,81034,1,2,0:2:0:0:
181,313,81211,6,0,P|226:322|272:311,1,94.499997116089,2|0,1:2|0:2,0:2:0:0:
346,122,81564,1,10,0:2:0:0:
127,230,81740,1,2,0:2:0:0:
370,336,81917,2,0,L|355:240,1,94.499997116089,2|0,1:2|1:2,0:2:0:0:
258,28,82270,1,8,0:2:0:0:
462,142,82446,1,2,0:2:0:0:
462,142,82534,1,2,0:2:0:0:
462,142,82623,5,6,1:2:0:0:
261,283,82799,1,0,1:2:0:0:
396,42,82976,5,10,0:2:0:0:
370,336,83152,1,0,1:2:0:0:
278,13,83328,5,10,0:2:0:0:
478,282,83505,1,0,1:2:0:0:
175,83,83681,5,10,0:2:0:0:
504,164,83858,1,0,1:2:0:0:
155,319,84034,5,10,0:2:0:0:
278,13,84211,1,8,0:2:0:0:
370,336,84387,1,8,0:2:0:0:
71,1,85093,6,0,P|93:62|104:160,1,155.250002961159,6|0,0:1|0:2,0:2:0:0:
67,251,85446,6,0,L|162:237,1,90,6|0,1:2|0:2,0:2:0:0:
358,186,85799,1,8,0:2:0:0:
286,384,85976,2,0,B|231:349|231:349|255:226,1,180,2|2,1:2|1:2,0:2:0:0:
270,221,86417,1,2,0:2:0:0:
270,221,86505,2,0,L|255:128,1,90,10|2,0:2|0:2,0:2:0:0:
482,62,86858,5,2,1:2:0:0:
386,276,87034,1,0,1:2:0:0:
313,54,87211,1,8,0:2:0:0:
482,219,87387,2,0,B|501:330|501:330|476:371|435:365,1,180,2|2,1:2|1:2,0:2:0:0:
430,354,87828,1,2,0:2:0:0:
430,354,87917,2,0,P|389:364|342:354,1,90,10|2,0:2|0:2,0:2:0:0:
248,379,88181,1,8,0:2:0:0:
248,379,88270,6,0,L|262:281,1,90,2|0,1:2|1:2,0:2:0:0:
381,139,88623,1,10,0:2:0:0:
152,314,88799,6,0,L|138:216,1,90,0|2,1:2|0:2,0:2:0:0:
309,0,89152,2,0,L|295:98,1,90,2|0,1:2|0:2,0:2:0:0:
60,179,89505,6,0,B|157:150|132:231|235:202,1,180,6|2,1:2|1:2,0:2:0:0:
464,210,90034,1,10,0:2:0:0:
202,109,90211,1,2,1:2:0:0:
357,346,90387,5,10,0:2:0:0:
446,25,90740,5,10,0:2:0:0:
139,224,91093,6,0,L|151:313,1,90,6|0,1:2|0:2,0:2:0:0:
369,247,91446,1,8,0:2:0:0:
202,109,91623,2,0,B|137:102|137:102|96:131|96:131|27:124,1,180,2|2,1:2|1:2,0:2:0:0:
14,142,92064,1,2,0:2:0:0:
14,142,92152,2,0,L|29:236,1,90,10|2,0:2|0:2,0:2:0:0:
244,202,92505,5,2,1:2:0:0:
64,38,92681,1,0,1:2:0:0:
137,266,92858,1,8,0:2:0:0:
252,36,93034,2,0,B|309:-2|309:-2|289:115,1,180,2|2,1:2|1:2,0:2:0:0:
305,128,93476,1,2,0:2:0:0:
305,128,93564,2,0,P|351:118|402:133,1,90,10|2,0:2|0:2,0:2:0:0:
439,215,93828,1,8,0:2:0:0:
439,215,93916,6,0,L|425:309,1,90,2|0,1:2|1:2,0:2:0:0:
232,276,94270,1,10,0:2:0:0:
392,127,94446,6,0,P|438:117|489:132,1,90,0|2,1:2|0:2,0:2:0:0:
272,363,94799,2,0,P|228:372|184:362,1,90,2|0,1:2|0:2,0:2:0:0:
118,12,95152,6,0,B|170:54|170:54|150:174,1,180,6|2,1:2|1:2,0:2:0:0:
163,375,95681,5,10,0:2:0:0:
58,108,95858,1,2,1:2:0:0:
365,222,96034,5,10,0:2:0:0:
13,346,96387,5,10,0:2:0:0:
262,32,96740,6,0,L|276:131,1,90,14|0,0:2|1:2,0:2:0:0:
311,380,97093,1,8,0:2:0:0:
380,99,97270,1,2,1:2:0:0:
177,294,97446,5,8,0:2:0:0:
470,208,97623,1,2,1:2:0:0:
470,208,97711,1,2,0:2:0:0:
470,208,97799,2,0,P|421:199|375:213,1,90,10|2,0:2|1:2,0:0:0:0:
172,384,98152,5,10,0:2:0:0:
109,110,98328,1,0,1:2:0:0:
262,344,98505,1,8,0:2:0:0:
301,75,98681,1,2,1:2:0:0:
90,313,98858,5,8,0:2:0:0:
191,33,99034,1,2,1:2:0:0:
191,33,99123,1,2,0:2:0:0:
191,33,99211,2,0,L|206:128,1,90,10|2,0:2|1:2,0:0:0:0:
332,362,99564,5,10,0:2:0:0:
301,75,99740,1,0,1:2:0:0:
113,328,99917,1,10,0:2:0:0:
394,209,100093,1,0,1:2:0:0:
96,122,100270,5,10,0:2:0:0:
216,376,100446,1,2,1:2:0:0:
301,75,100623,1,8,0:2:0:0:
113,328,100799,1,2,1:2:0:0:
404,182,100976,5,8,0:2:0:0:
61,100,101152,1,2,1:2:0:0:
422,202,101328,5,10,0:2:0:0:
26,298,101505,1,2,1:2:0:0:
416,83,101681,5,10,0:2:0:0:
216,376,102034,5,10,0:2:0:0:
153,22,102387,6,0,L|168:110,1,90,14|0,0:2|1:2,0:2:0:0:
304,322,102740,1,8,0:2:0:0:
382,48,102917,1,2,1:2:0:0:
156,210,103093,5,8,0:2:0:0:
455,284,103270,1,2,1:2:0:0:
455,284,103358,1,2,0:2:0:0:
455,284,103446,2,0,L|439:193,1,90,10|2,0:2|1:2,0:0:0:0:
268,4,103799,5,10,0:2:0:0:
202,304,103976,1,0,1:2:0:0:
352,64,104152,1,8,0:2:0:0:
403,350,104328,1,2,1:2:0:0:
265,102,104505,5,8,0:2:0:0:
296,384,104681,1,2,1:2:0:0:
296,384,104770,1,2,0:2:0:0:
296,384,104858,2,0,L|310:292,1,90,10|2,0:2|1:2,0:0:0:0:
92,326,105211,6,0,P|43:337|-9:321,1,90,10|0,0:2|1:2,0:2:0:0:
76,49,105564,1,10,0:2:0:0:
244,246,105740,6,0,P|293:257|345:241,1,90,0|2,1:2|0:2,0:2:0:0:
507,6,106093,2,0,P|463:-2|419:8,1,90,10|0,0:2|3:2,0:2:0:0:
400,25,106358,1,0,3:2:0:0:
400,25,106446,6,0,B|345:152|429:248|429:248|442:169|506:147|506:147|434:83|340:125|383:163|296:201|217:149|217:149|259:161|303:132,1,765,6|4,1:2|0:2,0:2:0:0:
256,192,109534,12,0,115270,0:2:0:0:
