osu file format v14

[General]
AudioFilename: audio.mp3
AudioLeadIn: 0
PreviewTime: 62417
Countdown: 0
SampleSet: Soft
StackLeniency: 0.7
Mode: 0
LetterboxInBreaks: 0
WidescreenStoryboard: 1

[Editor]
DistanceSpacing: 1
BeatDivisor: 4
GridSize: 8
TimelineZoom: 1.5

[Metadata]
Title:Now On Stage!!
TitleUnicode:Now On Stage!!
Artist:nonet
ArtistUnicode:nonet
Creator:Kuki1537
Version:Insane
Source:ガールフレンド(♪)
Tags:girlfriend note onpu kari fumio murakami chloe lemaire kokomi shina mutsumi shigino momoko asahina haruka kazemachi sakura tange satomi minami tsuda yui ogura saori hayami rina sato minako kotobuki livetune ameba mugmomoko akane sakurai saya kagurazaka kaori nazuka mug japanese pop video game kz torriru lets short ver
BeatmapID:3122808
BeatmapSetID:1526418

[Difficulty]
HPDrainRate:4.5
CircleSize:3.8
OverallDifficulty:8
ApproachRate:9
SliderMultiplier:1.6
SliderTickRate:1

[Events]
//Background and Video events
0,0,"aaaaaa.jpg",0,0
//Break Periods
//Storyboard Layer 0 (Background)
//Storyboard Layer 1 (Fail)
//Storyboard Layer 2 (Pass)
//Storyboard Layer 3 (Foreground)
//Storyboard Layer 4 (Overlay)
//Storyboard Sound Samples

[TimingPoints]
-671,352.941176470588,4,2,21,60,1,0
652,-100,4,2,21,5,0,0
740,-133.333333333333,4,2,21,60,0,0
9211,-100,4,2,21,70,0,0
11681,-100,4,2,21,75,0,0
11946,-100,4,2,21,5,0,0
12034,-100,4,2,21,80,0,0
21740,-250,4,2,21,80,0,0
21828,-250,4,2,22,50,0,0
22270,-250,4,2,21,50,0,0
22976,-250,4,2,21,70,0,0
23328,-133.333333333333,4,2,21,60,0,0
33211,-111.111111111111,4,2,21,75,0,0
34623,-133.333333333333,4,2,21,65,0,0
45211,-100,4,2,21,70,0,0
45917,-111.111111111111,4,2,21,75,0,0
57211,-90.9090909090908,4,2,21,85,0,0
62770,-90.9090909090908,4,2,21,5,0,0
62858,-100,4,2,21,90,0,1
65593,-100,4,2,21,5,0,1
65681,-100,4,2,21,90,0,1
68417,-100,4,2,21,5,0,1
68505,-100,4,2,21,90,0,1
73711,-100,4,2,21,5,0,1
73799,-100,4,2,21,90,0,1
74064,-100,4,2,21,5,0,1
74152,-100,4,2,21,90,0,1
76887,-100,4,2,21,5,0,1
76976,-100,4,2,21,90,0,1
79710,-100,4,2,21,5,0,1
79799,-100,4,2,21,90,0,1
84387,-100,4,2,21,80,0,0
96740,-100,4,2,21,90,0,1
106446,-357.142857142857,4,2,21,90,0,0
106534,-357.142857142857,4,2,22,60,0,0
106976,-357.142857142857,4,2,21,60,0,0

[Colours]
Combo1 : 30,49,225
Combo2 : 241,74,50
Combo3 : 236,189,91
Combo4 : 234,123,242
Combo5 : 106,172,238

[HitObjects]
12,112,740,6,0,P|46:88|126:98,1,120.000004577637,6|0,3:2|0:2,0:2:0:0:
239,49,1446,2,0,L|218:176,1,120.000004577637,2|0,3:2|0:2,0:2:0:0:
57,321,2152,6,0,B|120:306|108:353|179:340,1,120.000004577637,2|2,3:2|0:2,0:2:0:0:
252,285,2681,1,2,0:2:0:0:
252,285,2858,2,0,P|290:257|366:272,1,120.000004577637,2|0,3:2|0:2,0:2:0:0:
512,384,3564,6,0,L|491:263,1,120.000004577637,2|0,3:2|0:2,0:2:0:0:
358,266,4270,2,0,L|378:147,1,120.000004577637,2|0,3:2|0:2,0:2:0:0:
454,17,4976,6,0,P|412:-2|333:6,1,120.000004577637,2|2,3:2|3:2,0:2:0:0:
262,89,5505,1,2,0:2:0:0:
262,89,5681,2,0,L|136:71,1,120.000004577637,2|0,3:2|3:2,0:2:0:0:
5,238,6387,6,0,L|131:220,1,120.000004577637,6|2,1:2|0:2,0:2:0:0:
248,365,7093,2,0,L|122:347,1,120.000004577637,6|2,1:2|3:2,0:2:0:0:
33,328,7623,1,2,0:2:0:0:
123,221,7799,6,0,B|164:215|164:215|198:232|198:232|260:223,1,120.000004577637,6|2,1:2|0:2,0:2:0:0:
338,225,8328,1,2,0:2:0:0:
321,103,8505,2,0,P|273:93|216:154,1,120.000004577637,6|0,1:2|0:2,0:2:0:0:
145,305,9034,1,2,0:2:0:0:
145,305,9123,1,2,0:2:0:0:
145,305,9211,6,0,P|108:290|58:293,1,80,14|0,0:2|1:2,0:0:0:0:
14,174,9564,2,0,P|53:174|90:159,1,80,10|0,0:2|1:2,0:0:0:0:
234,55,9917,2,0,L|220:136,1,80,10|0,0:2|1:2,0:0:0:0:
351,303,10270,2,0,L|337:222,1,80,10|0,0:2|1:2,0:0:0:0:
415,45,10623,5,10,0:2:0:0:
220,133,10799,1,8,0:2:0:0:
422,185,10976,1,8,0:2:0:0:
411,175,11505,5,0,1:2:0:0:
411,175,11593,1,0,1:2:0:0:
411,175,11681,2,0,P|423:233|437:297,1,120,6|0,1:2|0:2,0:2:0:0:
503,369,12034,6,0,P|454:335|354:343,1,160,6|8,1:2|0:2,0:2:0:0:
232,214,12564,2,0,B|274:175|274:175|257:282,1,160,2|2,1:2|1:2,0:2:0:0:
250,318,13005,1,2,0:2:0:0:
250,318,13093,2,0,P|208:305|172:312,1,80,10|2,0:2|0:2,0:2:0:0:
7,263,13446,5,2,1:2:0:0:
153,327,13623,1,0,1:2:0:0:
12,381,13799,1,8,0:2:0:0:
101,253,13976,2,0,L|76:92,1,160,2|2,1:2|1:2,0:2:0:0:
71,49,14417,1,2,0:2:0:0:
71,49,14505,2,0,P|111:62|154:56,1,80,10|2,0:2|0:2,0:2:0:0:
298,4,14858,6,0,L|284:89,1,80,2|0,1:2|1:2,0:2:0:0:
174,152,15211,1,10,0:2:0:0:
344,236,15387,6,0,P|389:246|430:237,1,80,0|2,1:2|0:2,0:2:0:0:
362,78,15740,2,0,P|322:72|284:82,1,80,2|0,1:2|0:2,0:2:0:0:
472,314,16093,6,0,B|517:272|517:272|495:157,1,160,6|2,1:2|1:2,0:2:0:0:
450,10,16623,1,10,0:2:0:0:
385,162,16799,1,2,1:2:0:0:
300,6,16976,5,10,0:2:0:0:
498,175,17328,5,10,0:2:0:0:
263,271,17681,6,0,B|201:265|201:265|171:285|171:285|104:279,1,160,6|8,1:2|0:2,0:2:0:0:
0,120,18211,2,0,P|40:102|137:178,1,160,2|2,1:2|1:2,0:2:0:0:
144,198,18652,1,2,0:2:0:0:
144,198,18740,2,0,P|107:191|61:204,1,80,10|2,0:2|0:2,0:2:0:0:
159,368,19093,5,2,1:2:0:0:
268,249,19270,1,0,1:2:0:0:
109,279,19446,1,8,0:2:0:0:
257,350,19623,2,0,B|340:331|327:395|414:372,1,160,2|2,1:2|1:2,0:2:0:0:
443,345,20064,1,2,0:2:0:0:
443,345,20152,2,0,L|426:255,1,80,10|2,0:2|0:2,0:2:0:0:
306,165,20505,6,0,P|349:172|402:157,1,80,2|0,1:2|1:2,0:0:0:0:
509,103,20858,1,10,0:2:0:0:
334,0,21034,6,0,L|347:81,1,80,0|2,1:2|0:2,0:2:0:0:
197,232,21387,2,0,L|210:151,1,80,2|0,1:2|3:2,0:2:0:0:
216,109,21652,1,0,3:2:0:0:
216,109,21740,6,0,B|101:70|118:169|0:134,1,224,6|8,1:2|0:2,0:2:0:0:
1,382,23328,6,0,P|33:334|98:318,1,120.000004577637,6|2,1:2|1:2,0:2:0:0:
177,354,23858,2,0,L|299:339,1,120.000004577637,2|0,0:2|0:2,0:2:0:0:
388,327,24387,1,0,1:2:0:0:
333,252,24564,1,0,3:2:0:0:
333,252,24652,1,0,3:2:0:0:
333,252,24740,6,0,L|312:131,1,120.000004577637,2|2,1:2|1:2,0:2:0:0:
258,60,25270,1,2,0:2:0:0:
333,5,25446,2,0,P|368:-7|460:24,1,120.000004577637,0|0,1:2|1:2,0:2:0:0:
501,184,26152,6,0,B|437:168|448:213|380:197,1,120.000004577637,2|2,1:2|1:2,0:2:0:0:
312,133,26681,2,0,P|273:126|251:130,1,60.0000022888184,2|0,0:2|1:2,0:2:0:0:
204,208,27034,2,0,P|165:215|143:211,1,60.0000022888184,2|0,0:2|1:2,0:2:0:0:
51,162,27387,1,2,3:2:0:0:
51,162,27476,1,0,3:2:0:0:
51,162,27564,6,0,L|74:292,2,120.000004577637,0|0|0,1:2|1:2|1:2,0:2:0:0:
125,22,28623,2,0,P|155:34|199:31,1,60.0000022888184,2|0,1:2|0:2,0:2:0:0:
283,0,28976,6,0,L|265:125,1,120.000004577637,2|2,1:2|1:2,0:2:0:0:
182,320,29681,2,0,L|164:195,1,120.000004577637,2|2,1:2|1:2,0:2:0:0:
153,113,30211,1,0,3:2:0:0:
153,113,30299,1,0,3:2:0:0:
153,113,30387,6,0,P|204:98|274:126,1,120.000004577637,2|2,1:2|1:2,0:2:0:0:
441,190,31093,2,0,P|385:210|328:195,1,120.000004577637,2|2,1:2|1:2,0:2:0:0:
357,11,31799,6,0,B|394:43|394:43|380:134,1,120.000004577637,2|0,1:2|1:2,0:2:0:0:
328,195,32328,2,0,L|349:316,1,120.000004577637,2|0,0:2|0:2,0:2:0:0:
289,384,32858,1,0,1:2:0:0:
216,312,33034,1,0,3:2:0:0:
216,312,33123,1,0,3:2:0:0:
216,312,33211,6,0,P|180:324|143:319,2,71.9999978027344,10|8|8,0:2|3:3|3:3,0:0:0:0:
296,187,33740,2,0,P|221:182|175:230,1,143.999995605469,6|0,1:2|1:2,0:2:0:0:
66,295,34270,2,0,L|79:219,1,71.9999978027344,10|0,0:2|0:2,0:2:0:0:
18,118,34623,6,0,L|-1:-2,1,120.000004577637,6|2,1:2|1:2,0:2:0:0:
100,54,35152,2,0,P|130:71|222:56,1,120.000004577637,2|0,0:2|0:2,0:2:0:0:
282,2,35681,1,8,0:2:0:0:
351,67,35858,1,2,3:2:0:0:
351,67,35946,1,2,3:2:0:0:
351,67,36034,6,0,L|332:189,1,120.000004577637,2|2,1:2|1:2,0:2:0:0:
272,257,36564,2,0,P|240:264|209:259,1,60.0000022888184,2|0,0:2|1:2,0:2:0:0:
157,185,36917,1,8,0:2:0:0:
68,229,37093,1,0,1:2:0:0:
4,384,37446,6,0,L|123:364,1,120.000004577637,2|2,1:2|1:2,0:2:0:0:
192,305,37976,2,0,L|257:317,1,60.0000022888184,2|0,0:2|0:2,0:2:0:0:
329,378,38328,2,0,L|394:366,1,60.0000022888184,2|8,0:2|0:2,0:0:0:0:
463,310,38681,1,2,3:2:0:0:
463,310,38770,1,0,3:2:0:0:
463,310,38858,6,0,P|494:278|488:196,1,120.000004577637,0|0,1:2|1:2,0:2:0:0:
478,112,39387,1,8,0:2:0:0:
393,151,39564,2,0,P|356:162|325:158,1,60.0000022888184,2|0,1:2|0:2,0:2:0:0:
269,81,39917,2,0,P|232:70|201:74,1,60.0000022888184,6|0,1:2|0:2,0:2:0:0:
232,171,40270,6,0,L|254:299,1,120.000004577637,2|2,1:2|1:2,0:2:0:0:
201,381,40799,2,0,P|172:371|143:372,1,60.0000022888184,2|0,0:2|1:2,0:2:0:0:
75,305,41152,2,0,P|46:315|17:314,1,60.0000022888184,2|0,0:2|1:2,0:2:0:0:
36,221,41505,1,2,3:2:0:0:
36,221,41593,1,0,3:2:0:0:
36,221,41681,6,0,L|57:91,2,120.000004577637,0|2|2,1:2|1:2|1:2,0:2:0:0:
75,305,42564,1,8,0:2:0:0:
132,234,42740,2,0,P|165:226|194:230,1,60.0000022888184,2|0,1:2|0:2,0:2:0:0:
276,350,43093,6,0,P|225:357|165:301,1,120.000004577637,6|0,1:2|1:2,0:2:0:0:
335,282,43623,2,0,B|371:314|371:314|360:385,1,120.000004577637,0|0,0:2|0:2,0:0:0:0:
276,350,44152,1,0,1:2:0:0:
245,272,44328,1,0,3:2:0:0:
245,272,44417,1,0,3:2:0:0:
245,272,44505,6,0,L|235:208,2,60.0000022888184,2|2|2,0:2|0:2|0:2,0:2:0:0:
321,202,45034,1,10,0:2:0:0:
321,202,45123,1,8,0:2:0:0:
321,202,45211,6,0,P|370:182|450:173,1,120,10|0,0:2|0:2,0:2:0:0:
484,176,45564,1,10,0:2:0:0:
327,286,45917,5,4,1:2:0:0:
366,107,46093,1,0,1:2:0:0:
454,268,46270,2,0,L|443:341,1,71.9999978027344,2|2,1:2|0:2,0:0:0:0:
241,248,46623,2,0,P|273:212|376:206,1,143.999995605469,10|2,0:2|3:2,0:2:0:0:
256,338,47152,1,10,0:2:0:0:
256,338,47240,1,8,0:2:0:0:
256,338,47328,5,2,1:2:0:0:
190,165,47505,1,0,1:2:0:0:
327,286,47681,2,0,L|405:274,1,71.9999978027344,2|0,1:2|0:2,0:2:0:0:
313,53,48034,2,0,B|269:87|269:87|287:184,1,143.999995605469,10|2,0:2|3:2,0:2:0:0:
129,353,48740,5,2,1:2:0:0:
190,165,48917,1,0,1:2:0:0:
110,367,49093,2,0,P|74:376|35:371,1,71.9999978027344,2|0,1:2|0:2,0:2:0:0:
0,223,49446,2,0,B|51:215|51:215|82:241|82:241|144:232,1,143.999995605469,10|2,0:2|3:2,0:2:0:0:
210,54,49976,1,10,0:2:0:0:
210,54,50064,1,8,0:2:0:0:
210,54,50152,5,0,1:2:0:0:
37,130,50328,1,2,1:2:0:0:
222,218,50505,2,0,L|207:140,1,71.9999978027344,0|0,1:2|0:2,0:2:0:0:
82,22,50858,5,10,0:2:0:0:
133,233,51034,1,2,1:2:0:0:
239,36,51211,1,10,0:2:0:0:
37,130,51387,1,2,0:2:0:0:
222,218,51564,6,0,P|261:226|301:215,1,71.9999978027344,4|0,1:2|0:2,0:2:0:0:
400,75,51917,2,0,P|364:68|330:76,1,71.9999978027344,10|0,0:2|0:2,0:2:0:0:
469,240,52270,1,2,1:2:0:0:
512,100,52446,1,0,1:2:0:0:
369,159,52623,2,0,L|381:234,1,71.9999978027344,10|0,0:2|0:2,0:2:0:0:
312,348,52976,6,0,B|386:327|373:383|458:364,2,143.999995605469,2|8|2,1:2|0:2|1:2,0:2:0:0:
158,236,53858,1,2,1:2:0:0:
207,380,54034,1,10,0:2:0:0:
285,249,54211,1,2,0:2:0:0:
136,324,54387,6,0,L|54:338,1,71.9999978027344,0|0,1:2|0:2,0:2:0:0:
0,197,54740,2,0,L|70:209,1,71.9999978027344,10|0,0:2|0:2,0:2:0:0:
197,104,55093,1,2,1:2:0:0:
45,65,55270,1,0,1:2:0:0:
160,183,55446,2,0,P|200:192|236:184,1,71.9999978027344,10|0,0:2|0:2,0:2:0:0:
274,18,55799,6,0,L|287:93,1,71.9999978027344,2|0,1:2|0:2,0:2:0:0:
393,256,56152,2,0,L|406:181,1,71.9999978027344,10|0,0:2|0:2,0:2:0:0:
374,22,56505,1,2,1:2:0:0:
316,176,56681,1,0,1:2:0:0:
442,88,56858,2,0,P|479:80|518:89,1,71.9999978027344,10|0,0:2|0:2,0:2:0:0:
496,290,57211,6,0,L|406:276,1,88.000002685547,14|0,0:2|1:2,0:0:0:0:
306,90,57564,2,0,P|319:147|302:206,1,88.000002685547,10|0,0:2|1:2,0:0:0:0:
97,198,57917,2,0,P|139:156|198:142,1,88.000002685547,10|0,0:2|1:2,0:0:0:0:
296,324,58270,2,0,P|238:306|196:261,1,88.000002685547,10|0,0:2|1:2,0:0:0:0:
50,106,58623,5,10,0:2:0:0:
132,277,58799,1,0,1:2:0:0:
218,81,58976,1,10,0:2:0:0:
77,212,59152,1,0,1:2:0:0:
7,22,59328,2,0,P|51:10|103:24,1,88.000002685547,10|0,0:2|1:2,0:0:0:0:
256,181,59681,2,0,P|213:189|171:177,1,88.000002685547,10|0,0:2|1:2,0:0:0:0:
315,7,60034,6,0,B|366:40|366:40|346:156,1,176.000005371094,14|0,0:2|1:2,0:2:0:0:
290,262,60564,1,0,1:2:0:0:
267,80,60740,1,0,1:2:0:0:
388,240,60917,1,0,1:2:0:0:
183,193,61093,1,0,1:2:0:0:
426,150,61270,1,0,1:2:0:0:
305,360,61446,5,10,0:2:0:0:
263,155,61623,1,10,0:2:0:0:
310,384,61799,1,10,0:2:0:0:
383,68,62152,5,10,0:2:0:0:
229,304,62505,6,0,P|183:296|92:301,1,132.00000402832,6|0,0:2|0:2,0:2:0:0:
32,359,62858,6,0,B|81:314|81:314|59:207,1,160,6|8,1:2|0:2,0:2:0:0:
98,65,63387,1,2,0:2:0:0:
166,201,63564,2,0,P|210:209|254:197,1,80,2|0,1:2|1:2,0:2:0:0:
339,38,63917,1,8,0:2:0:0:
177,115,64093,1,2,0:2:0:0:
348,213,64270,6,0,L|335:133,1,80,2|0,1:2|0:2,0:2:0:0:
487,25,64623,1,10,0:2:0:0:
434,187,64799,1,2,0:2:0:0:
339,38,64976,2,0,P|296:30|249:40,1,80,2|0,1:2|1:2,0:2:0:0:
191,193,65328,2,0,L|176:112,1,80,10|0,0:2|0:0,0:2:0:0:
71,270,65681,6,0,B|130:263|130:263|165:285|165:285|237:275,1,160,2|8,1:2|0:2,0:2:0:0:
347,197,66211,1,2,0:2:0:0:
176,114,66387,2,0,L|191:193,1,80,2|0,1:2|1:2,0:2:0:0:
313,347,66740,1,8,0:2:0:0:
365,179,66917,1,2,0:2:0:0:
223,276,67093,6,0,P|181:284|140:274,1,80,2|0,1:2|0:2,0:2:0:0:
38,188,67446,1,10,0:2:0:0:
100,355,67623,1,2,0:2:0:0:
191,193,67799,2,0,L|176:114,1,80,2|0,1:2|1:2,0:2:0:0:
5,83,68152,2,0,P|46:92|93:80,1,80,10|0,0:2|0:0,0:2:0:0:
299,12,68505,6,0,B|239:6|239:6|204:26|204:26|144:19,2,160,6|10|2,1:2|0:2|1:2,0:2:0:0:
415,173,69387,1,0,1:2:0:0:
259,96,69564,1,10,0:2:0:0:
434,37,69740,1,2,0:2:0:0:
321,169,69917,6,0,L|310:259,1,80,2|0,1:2|0:2,0:2:0:0:
512,201,70270,2,0,L|501:111,1,80,10|0,0:2|0:2,0:2:0:0:
396,292,70623,2,0,P|441:301|483:289,1,80,2|0,1:2|1:2,0:2:0:0:
321,169,70976,1,10,0:2:0:0:
266,328,71152,1,2,0:2:0:0:
219,146,71328,5,2,1:2:0:0:
342,277,71505,1,2,0:2:0:0:
286,84,71681,1,10,0:2:0:0:
196,255,71858,2,0,P|155:263|115:255,1,80,2|0,0:2|1:2,0:2:0:0:
116,68,72211,1,2,1:2:0:0:
242,167,72387,2,0,P|283:175|323:167,1,80,10|0,0:2|0:2,0:2:0:0:
403,0,72740,5,10,0:2:0:0:
199,94,72917,1,8,0:2:0:0:
415,152,73093,1,10,0:2:0:0:
111,279,73446,5,10,0:2:0:0:
304,96,73799,6,0,P|315:141|322:221,1,120,6|0,0:2|0:2,0:2:0:0:
250,261,74152,6,0,P|305:239|397:277,1,160,6|8,1:2|0:2,0:2:0:0:
314,350,74681,1,2,0:2:0:0:
168,221,74858,2,0,P|157:263|169:308,1,80,2|0,1:2|1:2,0:2:0:0:
251,165,75211,1,8,0:2:0:0:
111,130,75387,1,2,3:2:0:0:
250,261,75564,6,0,L|334:247,1,80,2|0,1:2|0:2,0:2:0:0:
406,100,75917,1,10,0:2:0:0:
251,165,76093,1,2,0:2:0:0:
416,287,76270,2,0,P|423:247|410:198,1,80,2|0,1:2|1:2,0:2:0:0:
484,86,76623,2,0,L|390:102,1,80,10|0,0:2|0:0,0:2:0:0:
220,31,76976,6,0,B|268:64|268:64|249:174,1,160,2|8,1:2|0:2,0:2:0:0:
220,293,77505,1,2,0:2:0:0:
153,141,77681,2,0,L|166:224,1,80,2|0,1:2|1:2,0:2:0:0:
227,380,78034,1,8,0:2:0:0:
292,231,78211,1,2,1:2:0:0:
145,338,78387,6,0,P|102:346|57:335,1,80,14|0,0:2|1:2,0:0:0:0:
153,141,78740,1,14,0:2:0:0:
220,293,78917,1,2,1:2:0:0:
290,141,79093,2,0,P|333:133|378:144,1,80,14|0,0:2|1:2,0:0:0:0:
428,315,79446,2,0,L|415:233,1,80,14|0,0:2|0:0,0:2:0:0:
338,44,79799,6,0,B|421:18|408:86|496:59,2,160,6|10|2,1:2|0:2|1:2,0:2:0:0:
204,180,80681,1,0,1:2:0:0:
368,139,80858,1,10,0:2:0:0:
214,50,81034,1,2,0:2:0:0:
295,205,81211,6,0,L|282:289,1,80,2|0,1:2|0:2,0:2:0:0:
117,165,81564,1,10,0:2:0:0:
281,114,81740,1,2,0:2:0:0:
153,251,81917,2,0,P|109:258|64:245,1,80,2|0,1:2|1:2,0:2:0:0:
124,73,82270,1,8,0:2:0:0:
236,198,82446,1,2,0:2:0:0:
236,198,82534,1,2,0:2:0:0:
236,198,82623,6,0,L|249:282,1,80,6|0,1:2|1:2,0:0:0:0:
396,145,82976,2,0,L|409:61,1,80,10|0,0:2|1:2,0:0:0:0:
349,282,83328,2,0,P|390:290|445:273,1,80,10|0,0:2|1:2,0:0:0:0:
274,117,83681,2,0,P|234:109|196:117,1,80,10|0,0:2|1:2,0:0:0:0:
129,297,84034,5,10,0:2:0:0:
328,198,84211,1,8,0:2:0:0:
111,145,84387,1,8,0:2:0:0:
280,323,85093,6,0,P|323:306|407:298,1,120,6|0,0:1|0:2,0:2:0:0:
442,371,85446,6,0,L|416:204,1,160,6|8,1:2|0:2,0:2:0:0:
492,85,85976,2,0,B|449:127|449:127|339:111,1,160,2|2,1:2|1:2,0:2:0:0:
328,81,86417,1,2,0:2:0:0:
328,81,86505,2,0,P|286:71|245:80,1,80,10|2,0:2|0:2,0:2:0:0:
122,155,86858,5,2,1:2:0:0:
187,9,87034,1,0,1:2:0:0:
240,165,87211,1,8,0:2:0:0:
121,66,87387,2,0,B|60:52|12:95|12:95|32:114|35:158,1,160,2|2,1:2|1:2,0:2:0:0:
32,171,87828,1,2,0:2:0:0:
32,171,87916,2,0,P|21:213|35:257,1,80,10|2,0:2|0:2,0:2:0:0:
196,221,88270,6,0,L|115:210,1,80,2|0,1:2|1:2,0:2:0:0:
119,370,88623,1,10,0:2:0:0:
279,262,88799,6,0,P|289:221|273:171,1,80,0|2,1:2|0:2,0:2:0:0:
125,35,89152,2,0,P|115:76|131:126,1,80,2|0,1:2|0:2,0:2:0:0:
368,64,89505,6,0,B|309:57|309:57|273:82|273:82|207:75,1,160,6|2,1:2|1:2,0:2:0:0:
170,200,90034,1,10,0:2:0:0:
336,149,90211,1,2,1:2:0:0:
125,35,90387,5,10,0:2:0:0:
275,266,90740,5,10,0:2:0:0:
424,0,91093,6,0,B|472:34|472:34|453:140,1,160,6|8,1:2|0:2,0:2:0:0:
363,238,91623,2,0,P|408:218|506:270,1,160,2|2,1:2|1:2,0:2:0:0:
500,305,92064,1,2,0:2:0:0:
500,305,92152,2,0,P|460:316|419:306,1,80,10|2,0:2|0:2,0:2:0:0:
225,273,92505,5,2,1:2:0:0:
380,217,92681,1,0,1:2:0:0:
309,354,92858,1,8,0:2:0:0:
267,190,93034,2,0,P|222:181|133:249,1,160,2|2,1:2|1:2,0:2:0:0:
132,291,93476,1,2,0:2:0:0:
132,291,93564,2,0,L|52:278,1,80,10|2,0:2|0:2,0:2:0:0:
50,103,93917,6,0,P|60:143|51:189,1,80,2|0,1:2|1:2,0:2:0:0:
79,370,94270,1,10,0:2:0:0:
185,202,94446,6,0,L|269:188,1,80,0|2,1:2|0:2,0:2:0:0:
394,364,94799,2,0,L|315:350,1,80,2|0,1:2|0:2,0:2:0:0:
244,103,95152,6,0,B|330:80|311:147|406:126,1,160,6|2,1:2|1:2,0:2:0:0:
512,58,95681,1,10,0:2:0:0:
434,223,95858,1,2,1:2:0:0:
368,33,96034,5,10,0:2:0:0:
271,284,96387,5,10,0:2:0:0:
155,36,96740,6,0,P|101:18|15:96,1,160,14|8,0:2|0:2,0:2:0:0:
50,247,97270,1,2,1:2:0:0:
158,128,97446,2,0,P|206:118|242:128,1,80,8|2,0:2|1:2,0:0:0:0:
277,151,97711,1,2,0:2:0:0:
277,151,97799,2,0,L|263:240,1,80,10|2,0:2|1:2,0:0:0:0:
145,333,98152,5,10,0:2:0:0:
102,155,98328,1,0,1:2:0:0:
249,331,98505,1,8,0:2:0:0:
49,368,98681,1,2,1:2:0:0:
186,230,98858,2,0,P|232:222|275:234,1,80,8|2,0:2|1:2,0:0:0:0:
306,258,99123,1,2,0:2:0:0:
306,258,99211,2,0,P|352:266|395:254,1,80,10|2,0:2|1:2,0:0:0:0:
354,91,99564,6,0,L|342:172,1,80,10|0,0:2|1:2,0:2:0:0:
491,305,99917,2,0,L|479:224,1,80,10|0,0:2|1:2,0:2:0:0:
470,36,100270,1,10,0:2:0:0:
363,187,100446,2,0,P|320:194|274:183,1,80,2|8,1:2|0:2,0:0:0:0:
170,23,100799,1,2,1:2:0:0:
354,91,100976,5,8,0:2:0:0:
134,213,101152,1,2,1:2:0:0:
264,54,101328,1,10,0:2:0:0:
334,270,101505,1,2,1:2:0:0:
113,114,101681,5,10,0:2:0:0:
427,258,102034,5,10,0:2:0:0:
104,344,102387,6,0,B|153:312|153:312|132:202,1,160,14|8,0:2|0:2,0:2:0:0:
66,24,102917,1,2,1:2:0:0:
198,151,103093,2,0,P|243:158|285:147,1,80,8|2,0:2|1:2,0:0:0:0:
299,108,103358,1,2,0:2:0:0:
299,108,103446,2,0,L|286:18,1,80,10|2,0:2|1:2,0:0:0:0:
96,118,103799,5,10,0:2:0:0:
242,250,103976,1,0,1:2:0:0:
195,60,104152,1,8,0:2:0:0:
96,226,104328,1,2,1:2:0:0:
299,108,104505,2,0,P|340:100|385:112,1,80,8|2,0:2|1:2,0:0:0:0:
408,142,104770,1,2,0:2:0:0:
408,142,104858,2,0,P|416:183|404:228,1,80,10|2,0:2|1:2,0:0:0:0:
255,328,105211,6,0,L|239:232,1,80,10|0,0:2|1:2,0:2:0:0:
314,85,105564,1,10,0:2:0:0:
157,263,105740,6,0,L|170:184,1,80,0|2,1:2|0:2,0:2:0:0:
214,0,106093,2,0,L|227:78,1,80,10|0,0:2|3:2,0:2:0:0:
231,112,106358,1,0,3:2:0:0:
231,112,106446,6,0,B|91:56|109:185|-20:134|-20:134|45:143|88:104,1,380.800004648438,6|4,1:2|0:2,0:2:0:0:
256,192,109534,12,0,115270,0:2:0:0:
