osu file format v14

[General]
AudioFilename: loli.mp3
AudioLeadIn: 0
PreviewTime: 62505
Countdown: 0
SampleSet: Soft
StackLeniency: 0.4
Mode: 0
LetterboxInBreaks: 0
WidescreenStoryboard: 1

[Editor]
DistanceSpacing: 1.4
BeatDivisor: 4
GridSize: 32
TimelineZoom: 1.5

[Metadata]
Title:Now On Stage!!
TitleUnicode:Now On Stage!!
Artist:nonet
ArtistUnicode:nonet
Creator:Basensorex
Version:Rosiie's Insane!!
Source:ガールフレンド(♪)
Tags:girlfriend note onpu kari fumio murakami chloe lemaire kokomi shina mutsumi shigino momoko asahina haruka kazemachi sakura tange satomi minami tsuda yui ogura saori hayami rina sato minako kotobuki livetune ameba mugmomoko akane sakurai saya kagurazaka kaori nazuka mug chiga rosiie japanese pop video game kz
BeatmapID:2689746
BeatmapSetID:1275018

[Difficulty]
HPDrainRate:5
CircleSize:3.8
OverallDifficulty:8
ApproachRate:9
SliderMultiplier:1.65
SliderTickRate:1

[Events]
//Background and Video events
0,0,"loligirlfriend.png",0,0
//Break Periods
//Storyboard Layer 0 (Background)
//Storyboard Layer 1 (Fail)
//Storyboard Layer 2 (Pass)
//Storyboard Layer 3 (Foreground)
//Storyboard Layer 4 (Overlay)
//Storyboard Sound Samples

[TimingPoints]
740,352.941176470588,4,2,22,35,1,0
740,-166.666666666667,4,2,22,35,0,0
6387,-142.857142857143,4,2,22,45,0,0
9210,-125,4,2,22,70,0,0
12034,-100,4,2,22,65,0,0
17328,-125,4,2,22,65,0,0
17681,-100,4,2,22,65,0,0
21739,-200,4,2,22,65,0,0
23328,-133.333333333333,4,2,22,45,0,0
33739,-117.647058823529,4,2,22,45,0,0
34622,-117.647058823529,4,2,22,55,0,0
45916,-117.647058823529,4,2,22,65,0,0
51563,-108.695652173913,4,2,22,70,0,0
62151,-133.333333333333,4,2,22,70,0,0
62857,-95.2380952380952,4,2,22,80,0,1
73445,-117.647058823529,4,2,22,80,0,1
73798,-133.333333333333,4,2,22,80,0,1
74151,-95.2380952380952,4,2,22,80,0,1
84739,-125,4,2,22,80,0,1
85445,-103.092783505155,4,2,22,65,0,0
96739,-95.2380952380952,4,2,22,80,0,1
106445,-400,4,2,22,65,0,1
106534,-400,4,2,22,65,0,1
109356,-400,4,2,22,5,0,1
109445,-95.2380952380952,4,2,22,50,0,0
110151,-95.2380952380952,4,2,22,50,0,0
110857,-95.2380952380952,4,2,22,50,0,0
111563,-95.2380952380952,4,2,22,50,0,0
112269,-95.2380952380952,4,2,22,50,0,0
112975,-95.2380952380952,4,2,22,50,0,0
113681,-95.2380952380952,4,2,22,50,0,0
114387,-95.2380952380952,4,2,22,50,0,0

[Colours]
Combo1 : 196,196,196
Combo2 : 255,128,128
Combo3 : 232,205,237
Combo4 : 47,125,168

[HitObjects]
502,61,740,6,0,P|470:69|397:95,1,98.9999969787599,6|0,1:2|0:0,0:0:0:0:
340,153,1269,1,2,0:2:0:0:
340,153,1445,2,0,P|293:136|245:123,1,98.9999969787599,2|0,0:2|0:0,0:0:0:0:
165,61,1975,1,2,0:2:0:0:
165,61,2151,6,0,P|141:93|151:160,1,98.9999969787599,2|2,1:2|0:2,0:0:0:0:
190,241,2681,1,2,0:2:0:0:
190,241,2857,2,0,P|151:249|74:271,1,98.9999969787599,2|0,0:2|0:0,0:0:0:0:
236,354,3563,6,0,P|284:351|327:309,1,98.9999969787599,2|0,1:2|0:0,0:0:0:0:
416,268,4092,1,2,0:2:0:0:
416,268,4269,2,0,P|410:296|391:374,1,98.9999969787599,2|0,1:2|0:0,0:0:0:0:
295,211,4798,1,2,0:2:0:0:
295,211,4975,6,0,P|322:205|347:200,1,49.4999984893799,2|0,1:2|0:0,0:0:0:0:
229,289,5328,2,0,P|253:293|277:299,1,49.4999984893799,2|2,1:2|0:2,0:0:0:0:
172,182,5681,2,0,P|125:191|70:208,1,98.9999969787599,2|2,1:2|1:2,0:0:0:0:
379,35,6387,6,0,B|404:73|404:73|383:153,1,115.49999647522,6|2,1:2|0:2,0:0:0:0:
199,237,7092,2,0,P|228:213|302:216,1,115.49999647522,6|2,1:2|1:2,0:0:0:0:
363,315,7622,1,2,0:2:0:0:
478,194,7798,6,0,P|474:238|457:325,1,115.49999647522,6|2,1:2|0:2,0:0:0:0:
512,384,8328,1,2,0:2:0:0:
330,244,8504,2,0,P|334:288|351:375,1,115.49999647522,6|0,1:2|0:0,0:0:0:0:
251,157,9034,1,2,0:2:0:0:
251,157,9122,1,2,0:2:0:0:
251,157,9210,6,0,P|289:147|319:138,1,66,10|0,0:2|1:2,0:0:0:0:
218,279,9563,2,0,P|180:269|150:260,1,66,10|0,0:2|1:2,0:0:0:0:
142,102,9916,2,0,P|152:140|161:170,1,66,10|0,0:2|1:2,0:0:0:0:
291,60,10269,1,10,0:2:0:0:
235,203,10445,1,0,1:2:0:0:
148,28,10622,5,8,0:2:0:0:
331,129,10798,1,8,0:2:0:0:
149,241,10975,1,8,0:2:0:0:
478,53,11504,5,0,1:2:0:0:
478,53,11592,1,0,1:2:0:0:
478,53,11681,2,0,P|473:99|469:173,1,99,10|0,0:2|0:0,0:0:0:0:
444,192,12034,6,0,B|342:180|406:133|298:109,1,165,6|8,1:2|0:2,0:0:0:0:
204,58,12563,2,0,P|218:96|239:223,1,165,2|2,1:2|1:2,0:0:0:0:
219,249,13004,1,2,0:2:0:0:
219,249,13092,1,10,0:2:0:0:
117,148,13269,1,2,0:2:0:0:
40,311,13445,6,0,P|102:360|180:342,1,165,2|8,1:2|0:2,0:0:0:0:
304,202,13975,2,0,P|284:254|267:369,1,165,2|2,1:2|1:2,0:0:0:0:
234,375,14416,1,2,0:2:0:0:
234,375,14504,1,10,0:2:0:0:
129,242,14681,1,2,1:2:0:0:
129,242,14769,1,0,1:2:0:0:
129,242,14857,6,0,P|118:196|105:156,1,82.5,2|0,1:2|1:2,0:0:0:0:
259,76,15210,2,0,P|246:115|237:155,1,82.5,10|0,0:2|1:2,0:0:0:0:
312,277,15563,1,2,0:2:0:0:
415,116,15739,1,2,1:2:0:0:
177,262,16092,6,0,P|141:223|154:114,1,165,6|2,1:2|1:2,0:0:0:0:
236,27,16622,1,10,0:2:0:0:
330,181,16798,1,2,1:2:0:0:
414,3,16975,1,10,0:2:0:0:
319,189,17328,2,0,P|328:231|340:304,1,99,10|0,0:2|0:0,0:0:0:0:
309,328,17681,6,0,P|259:355|170:273,1,165,6|8,1:2|0:2,0:0:0:0:
74,201,18210,2,0,B|174:182|115:141|211:119,1,165,2|2,1:2|1:2,0:0:0:0:
251,154,18651,1,2,0:2:0:0:
251,154,18739,1,10,0:2:0:0:
337,17,18916,1,2,0:2:0:0:
431,197,19092,6,0,B|466:152|466:152|434:48,1,165,2|8,1:2|0:2,0:0:0:0:
344,232,19622,2,0,P|382:277|488:266,1,165,2|2,1:2|1:2,0:0:0:0:
504,245,20063,1,2,0:2:0:0:
504,245,20151,1,10,0:2:0:0:
431,372,20328,1,2,0:2:0:0:
336,216,20504,6,0,P|296:227|257:241,1,82.5,2|0,1:2|1:2,0:0:0:0:
177,346,20857,2,0,P|216:357|255:371,1,82.5,10|0,0:2|1:2,0:0:0:0:
146,205,21210,1,2,0:2:0:0:
58,355,21387,1,10,0:2:0:0:
0,187,21563,1,0,1:2:0:0:
0,187,21651,1,0,1:2:0:0:
0,187,21739,6,0,B|101:188|146:106|79:110|150:40|226:42,1,288.75,6|10,1:2|0:2,0:0:0:0:
377,8,23328,6,0,P|368:49|356:138,1,123.750004720688,6|2,1:2|1:2,0:0:0:0:
403,223,23857,1,2,0:2:0:0:
403,223,24034,2,0,P|436:216|467:202,1,61.875002360344,0|0,1:2|0:0,0:0:0:0:
337,288,24387,2,0,P|304:281|273:265,1,61.875002360344,0|0,1:2|3:2,0:0:0:0:
241,235,24651,1,0,3:2:0:0:
241,235,24739,6,0,P|208:266|208:355,1,123.750004720688,2|2,1:2|1:2,0:0:0:0:
102,364,25269,1,2,0:2:0:0:
102,364,25445,2,0,P|97:331|86:288,1,61.875002360344,0|0,1:2|0:0,0:0:0:0:
198,212,25798,2,0,P|190:244|186:272,1,61.875002360344,0|0,1:2|0:0,0:0:0:0:
26,179,26151,6,0,P|86:174|128:130,1,123.750004720688,2|2,1:2|1:2,0:0:0:0:
166,12,26681,2,0,P|134:23|102:28,1,61.875002360344,2|0,0:2|1:2,0:0:0:0:
219,109,27034,2,0,P|251:120|283:125,1,61.875002360344,2|0,0:2|1:2,0:0:0:0:
387,51,27387,1,2,3:2:0:0:
387,51,27475,1,0,3:2:0:0:
387,51,27563,6,0,P|377:93|368:191,2,123.750004720688,0|0|0,1:2|1:2|1:2,0:0:0:0:
474,264,28622,2,0,P|442:275|404:284,1,61.875002360344,2|0,1:2|3:2,0:0:0:0:
280,331,28975,6,0,P|273:289|265:248,1,61.875002360344,2|0,1:2|0:0,0:0:0:0:
368,172,29328,2,0,P|362:202|357:232,1,61.875002360344,2|0,1:2|0:0,0:0:0:0:
288,343,29681,2,0,P|281:301|273:260,1,61.875002360344,2|0,1:2|0:0,0:0:0:0:
376,184,30034,2,0,P|370:214|365:244,1,61.875002360344,2|0,1:2|3:2,0:0:0:0:
390,282,30298,1,0,3:2:0:0:
390,282,30387,6,0,P|425:276|459:267,1,61.875002360344,2|0,1:2|0:0,0:0:0:0:
291,183,30739,2,0,P|260:177|230:170,1,61.875002360344,2|0,1:2|0:0,0:0:0:0:
401,300,31092,2,0,P|436:294|470:285,1,61.875002360344,2|0,1:2|0:0,0:0:0:0:
302,201,31445,2,0,P|271:195|241:188,1,61.875002360344,2|0,1:2|0:0,0:0:0:0:
118,105,31798,6,0,P|137:155|147:228,1,123.750004720688,2|0,1:2|1:2,0:0:0:0:
99,317,32328,1,2,0:2:0:0:
99,317,32504,2,0,P|132:323|166:331,1,61.875002360344,0|0,1:2|0:0,0:0:0:0:
226,218,32857,2,0,P|193:224|159:232,1,61.875002360344,0|0,1:2|0:0,0:0:0:0:
382,323,33210,5,8,0:2:0:0:
295,187,33387,1,0,1:2:0:0:
237,343,33563,1,0,1:2:0:0:
385,236,33739,2,0,B|408:201|408:201|372:101,1,140.250002675056,12|0,0:2|1:2,0:0:0:0:
282,12,34269,2,0,P|272:51|265:92,1,70.1250013375282,10|0,0:2|0:0,0:0:0:0:
171,160,34622,6,0,B|252:173|208:214|297:231,1,140.250002675056,6|2,1:2|1:2,0:0:0:0:
381,138,35151,1,2,0:2:0:0:
460,245,35328,2,0,P|422:255|391:267,1,70.1250013375282,0|0,1:2|0:0,0:0:0:0:
324,348,35681,2,0,P|291:335|257:326,1,70.1250013375282,0|0,1:2|3:2,0:0:0:0:
219,349,35945,1,0,3:2:0:0:
219,349,36034,6,0,P|210:280|189:213,1,140.250002675056,2|2,1:2|1:2,0:0:0:0:
86,166,36563,1,2,0:2:0:0:
161,69,36739,1,0,1:2:0:0:
30,37,36916,1,8,0:2:0:0:
30,37,37092,2,0,P|40:83|49:123,1,70.1250013375282,0|0,1:2|3:2,0:0:0:0:
2,239,37445,6,0,P|28:199|121:192,1,140.250002675056,2|2,1:2|1:2,0:0:0:0:
186,276,37975,2,0,P|149:285|111:299,1,70.1250013375282,2|0,0:2|1:2,0:0:0:0:
210,172,38328,2,0,P|247:181|285:195,1,70.1250013375282,2|8,0:2|1:2,0:0:0:0:
358,290,38681,1,2,3:2:0:0:
358,290,38769,1,0,3:2:0:0:
358,290,38857,6,0,P|402:291|455:204,1,140.250002675056,0|0,1:2|1:2,0:0:0:0:
377,122,39387,1,8,0:2:0:0:
498,53,39563,2,0,P|495:91|486:139,1,70.1250013375282,2|0,1:2|0:0,0:0:0:0:
346,47,39916,2,0,P|380:30|426:14,1,70.1250013375282,2|0,1:2|0:0,0:0:0:0:
281,173,40269,6,0,B|202:153|255:113|159:89,1,140.250002675056,2|2,1:2|1:2,0:0:0:0:
35,76,40798,2,0,P|46:120|54:159,1,70.1250013375282,2|0,0:2|1:2,0:0:0:0:
140,236,41151,2,0,P|147:201|156:167,1,70.1250013375282,2|0,0:2|1:2,0:0:0:0:
27,309,41504,1,2,3:2:0:0:
27,309,41592,1,0,3:2:0:0:
27,309,41681,6,0,P|67:328|105:326,1,70.1250013375282,0|0,1:2|0:0,0:0:0:0:
166,200,42034,2,0,P|131:202|100:219,1,70.1250013375282,2|0,1:2|0:0,0:0:0:0:
208,316,42387,1,2,1:2:0:0:
208,316,42563,1,8,0:2:0:0:
304,199,42739,2,0,P|308:234|314:277,1,70.1250013375282,2|0,1:2|0:0,0:0:0:0:
427,358,43092,6,0,P|388:366|348:376,1,70.1250013375282,6|0,1:2|0:0,0:0:0:0:
428,249,43445,2,0,P|467:257|507:267,1,70.1250013375282,0|0,1:2|0:0,0:0:0:0:
304,199,43798,2,0,P|308:233|312:268,1,70.1250013375282,0|0,1:2|0:0,0:0:0:0:
426,136,44151,2,0,P|421:170|417:205,1,70.1250013375282,0|0,1:2|3:2,0:0:0:0:
319,55,44504,5,0,1:2:0:0:
319,55,44681,1,0,0:0:0:0:
261,160,44857,1,0,1:2:0:0:
190,40,45034,1,8,0:2:0:0:
190,40,45122,1,8,0:2:0:0:
190,40,45210,2,0,P|151:51|114:67,1,70.1250013375282,8|0,1:2|0:0,0:0:0:0:
55,155,45563,2,0,P|94:166|161:194,1,105.187502006292,8|0,1:2|0:0,0:0:0:0:
185,217,45916,5,4,1:2:0:0:
247,111,46092,1,0,1:2:0:0:
326,238,46269,2,0,P|337:200|345:155,1,70.1250013375282,2|2,1:2|0:2,0:0:0:0:
426,99,46622,2,0,P|432:133|442:166,1,70.1250013375282,10|0,0:2|0:0,0:0:0:0:
316,28,46975,1,2,1:2:0:0:
259,151,47151,1,2,1:2:0:0:
259,151,47239,1,0,1:2:0:0:
259,151,47328,5,2,1:2:0:0:
183,28,47504,1,0,1:2:0:0:
116,169,47681,2,0,P|153:162|183:145,1,70.1250013375282,2|0,1:2|0:0,0:0:0:0:
108,270,48034,2,0,P|71:263|41:246,1,70.1250013375282,10|0,0:2|0:0,0:0:0:0:
196,334,48387,2,0,P|202:295|213:248,1,70.1250013375282,2|0,1:2|1:0,0:0:0:0:
307,144,48739,5,2,1:2:0:0:
373,260,48916,1,0,1:2:0:0:
450,127,49092,2,0,P|419:139|381:145,1,70.1250013375282,2|0,1:2|0:0,0:0:0:0:
313,37,49445,2,0,P|344:49|382:55,1,70.1250013375282,10|0,0:2|0:0,0:0:0:0:
262,162,49798,1,2,1:2:0:0:
176,41,49975,1,2,1:2:0:0:
176,41,50063,1,0,1:2:0:0:
176,41,50151,5,0,1:2:0:0:
128,153,50328,1,2,1:2:0:0:
38,37,50504,2,0,P|45:69|52:114,1,70.1250013375282,0|0,1:2|0:0,0:0:0:0:
42,262,50857,1,10,0:2:0:0:
128,153,51034,1,2,1:2:0:0:
128,153,51210,1,10,0:2:0:0:
197,282,51387,1,2,1:2:0:0:
291,127,51563,6,0,P|255:135|217:147,1,75.8999974520875,4|0,1:2|0:0,0:0:0:0:
364,266,51916,2,0,P|327:254|290:246,1,75.8999974520875,10|0,0:2|0:0,0:0:0:0:
407,149,52269,1,2,1:2:0:0:
407,149,52445,1,0,1:2:0:0:
499,286,52622,2,0,P|505:244|517:196,1,75.8999974520875,10|0,0:2|0:0,0:0:0:0:
470,76,52975,6,0,P|431:108|365:97,1,113.849996178131,2|0,1:2|0:0,0:0:0:0:
341,68,53328,2,0,P|303:79|259:93,1,75.8999974520875,8|0,0:2|0:0,0:0:0:0:
182,176,53681,1,2,1:2:0:0:
100,63,53857,1,2,1:2:0:0:
100,63,54034,1,10,0:2:0:0:
50,203,54210,1,2,0:2:0:0:
196,101,54387,6,0,P|186:141|181:184,1,75.8999974520875,0|0,1:2|0:0,0:0:0:0:
79,281,54739,2,0,P|73:243|64:206,1,75.8999974520875,10|0,0:2|0:0,0:0:0:0:
186,344,55092,1,2,1:2:0:0:
186,344,55269,1,0,1:2:0:0:
245,211,55445,2,0,P|204:219|169:227,1,75.8999974520875,10|0,0:2|0:0,0:0:0:0:
328,334,55798,6,0,P|336:291|344:253,1,75.8999974520875,2|0,1:2|0:0,0:0:0:0:
443,187,56151,2,0,P|450:224|457:261,1,75.8999974520875,10|0,0:2|0:0,0:0:0:0:
312,146,56504,1,2,1:2:0:0:
312,146,56681,1,0,1:2:0:0:
411,45,56857,2,0,P|373:32|333:22,1,75.8999974520875,10|0,0:2|0:0,0:0:0:0:
189,129,57210,6,0,P|179:83|167:41,1,75.8999974520875,10|0,0:2|1:2,0:0:0:0:
319,211,57563,2,0,P|309:247|301:284,1,75.8999974520875,10|0,0:2|1:2,0:0:0:0:
144,334,57916,1,10,0:2:0:0:
237,233,58092,1,0,1:2:0:0:
95,167,58269,2,0,P|139:151|175:132,1,75.8999974520875,10|0,0:2|1:2,0:0:0:0:
308,54,58622,6,0,P|296:102|290:147,1,75.8999974520875,10|0,0:2|1:2,0:0:0:0:
180,211,58975,2,0,P|173:173|163:136,1,75.8999974520875,10|0,0:2|1:2,0:0:0:0:
273,311,59328,1,10,0:2:0:0:
345,187,59504,1,0,1:2:0:0:
426,346,59681,2,0,P|385:340|352:327,1,75.8999974520875,10|0,0:2|1:2,0:0:0:0:
258,185,60034,5,10,0:2:0:0:
151,344,60387,5,0,1:2:0:0:
151,344,60563,1,0,1:2:0:0:
60,252,60739,1,0,1:2:0:0:
60,252,60916,1,0,1:2:0:0:
202,173,61092,2,0,P|194:216|188:257,1,75.8999974520875,0|0,1:2|1:2,0:0:0:0:
48,86,61445,5,10,0:2:0:0:
202,173,61622,1,8,0:2:0:0:
41,282,61798,1,8,0:2:0:0:
123,46,62151,6,0,P|166:50|233:63,1,92.812503540516,8|0,0:2|0:0,0:0:0:0:
251,41,62504,2,0,P|266:81|250:127,1,92.812503540516,2|0,1:2|0:0,0:0:0:0:
219,161,62857,6,0,B|316:185|254:233|359:252,1,173.24999471283,6|8,1:2|0:2,0:0:0:0:
481,170,63387,1,2,0:2:0:0:
344,88,63563,2,0,P|352:141|358:188,1,86.6249973564149,2|0,1:2|1:2,0:0:0:0:
316,334,63916,1,8,0:2:0:0:
432,230,64092,1,2,0:2:0:0:
257,167,64269,6,0,P|207:180|161:196,1,86.6249973564149,2|0,1:2|0:0,0:0:0:0:
47,279,64622,1,10,0:2:0:0:
107,115,64798,1,2,0:2:0:0:
233,251,64975,2,0,P|223:298|216:341,1,86.6249973564149,2|0,1:2|1:2,0:0:0:0:
105,167,65328,2,0,P|147:156|187:136,1,86.6249973564149,10|0,0:2|0:0,0:0:0:0:
354,43,65681,6,0,P|334:95|319:216,1,173.24999471283,2|8,1:2|0:2,0:0:0:0:
157,120,66210,1,2,0:2:0:0:
239,0,66387,2,0,B|252:55|262:103|262:102,1,86.6249973564149,2|0,1:2|1:2,0:0:0:0:
101,197,66739,1,8,0:2:0:0:
159,36,66916,1,2,0:2:0:0:
266,187,67092,6,0,P|222:198|179:209,1,86.6249973564149,2|0,1:2|0:0,0:0:0:0:
386,351,67445,1,10,0:2:0:0:
263,266,67622,1,2,0:2:0:0:
430,175,67798,2,0,P|421:224|413:274,1,86.6249973564149,2|0,1:2|1:2,0:0:0:0:
512,86,68151,2,0,P|476:52|388:65,1,129.937496034622,10|0,0:2|0:0,0:0:0:0:
386,93,68504,6,0,P|352:111|294:124,1,86.6249973564149,6|0,1:2|0:0,0:0:0:0:
188,0,68857,2,0,P|222:18|280:31,1,86.6249973564149,10|0,0:2|0:0,0:0:0:0:
161,178,69210,2,0,P|153:128|141:76,1,86.6249973564149,2|0,1:2|1:2,0:0:0:0:
200,326,69563,1,10,0:2:0:0:
78,225,69739,1,2,0:2:0:0:
251,147,69916,6,0,P|294:157|339:170,1,86.6249973564149,2|0,1:2|0:0,0:0:0:0:
432,294,70269,2,0,P|389:304|344:317,1,86.6249973564149,10|0,0:2|0:0,0:0:0:0:
479,132,70622,2,0,P|467:181|458:229,1,86.6249973564149,2|0,1:2|1:2,0:0:0:0:
301,83,70975,1,8,0:2:0:0:
381,233,71151,1,2,0:2:0:0:
479,37,71328,6,0,P|436:48|388:63,1,86.6249973564149,2|2,1:2|0:2,0:0:0:0:
304,188,71681,1,10,0:2:0:0:
218,23,71857,2,0,P|210:65|204:121,1,86.6249973564149,2|0,0:2|1:2,0:0:0:0:
239,233,72210,1,2,1:2:0:0:
82,100,72387,2,0,P|91:137|99:199,1,86.6249973564149,10|0,0:2|0:0,0:0:0:0:
180,313,72739,5,10,0:2:0:0:
24,210,72916,1,8,0:2:0:0:
204,108,73092,2,0,P|247:116|294:130,1,86.6249973564149,10|0,0:2|0:0,0:0:0:0:
435,248,73445,2,0,P|382:261|324:279,1,105.187502006292,10|0,0:2|0:0,0:0:0:0:
297,307,73798,2,0,P|258:331|196:316,1,92.812503540516,2|0,1:2|0:0,0:0:0:0:
173,305,74151,6,0,P|161:219|128:125,1,173.24999471283,6|8,1:2|0:2,0:0:0:0:
243,36,74681,1,2,0:2:0:0:
353,160,74857,2,0,P|309:177|255:185,1,86.6249973564149,2|0,1:2|1:2,0:0:0:0:
512,59,75210,1,8,0:2:0:0:
435,201,75387,1,2,0:2:0:0:
318,40,75563,6,0,P|324:82|329:125,1,86.6249973564149,2|0,1:2|0:0,0:0:0:0:
231,297,75916,1,10,0:2:0:0:
359,197,76092,1,2,0:2:0:0:
198,105,76269,2,0,P|191:147|186:190,1,86.6249973564149,2|0,1:2|1:2,0:0:0:0:
107,316,76622,2,0,P|150:360|232:341,1,129.937496034622,10|0,0:2|0:0,0:0:0:0:
259,363,76975,6,0,B|295:318|295:318|258:193,1,173.24999471283,2|8,1:2|0:2,0:0:0:0:
361,106,77504,1,2,0:2:0:0:
205,30,77681,2,0,P|259:20|297:1,1,86.6249973564149,2|0,1:2|1:2,0:0:0:0:
63,160,78034,1,8,0:2:0:0:
127,0,78210,1,2,1:2:0:0:
233,142,78387,6,0,P|226:184|218:236,1,86.6249973564149,14|0,0:2|1:2,0:0:0:0:
295,357,78739,1,10,0:2:0:0:
128,243,78916,1,2,1:2:0:0:
302,172,79092,1,10,0:2:0:0:
199,337,79269,1,0,1:2:0:0:
98,146,79445,2,0,P|149:108|215:115,1,129.937496034622,10|0,0:2|0:0,0:0:0:0:
246,138,79798,6,0,P|290:133|333:114,1,86.6249973564149,2|0,1:2|0:0,0:0:0:0:
420,243,80151,2,0,P|376:238|333:219,1,86.6249973564149,10|0,0:2|0:0,0:0:0:0:
460,73,80504,2,0,P|449:114|442:157,1,86.6249973564149,2|0,1:2|1:2,0:0:0:0:
386,320,80857,1,10,0:2:0:0:
510,221,81034,1,2,0:2:0:0:
340,127,81210,6,0,P|296:137|256:150,1,86.6249973564149,2|0,1:2|0:0,0:0:0:0:
121,258,81563,1,10,0:2:0:0:
193,85,81739,1,2,0:2:0:0:
295,227,81916,2,0,P|285:276|279:318,1,86.6249973564149,2|0,1:2|1:2,0:0:0:0:
126,160,82269,1,8,0:2:0:0:
279,61,82445,1,2,0:2:0:0:
279,61,82534,1,2,0:2:0:0:
279,61,82622,6,0,P|327:69|373:79,1,86.6249973564149,6|0,1:2|0:0,0:0:0:0:
506,171,82975,1,10,0:2:0:0:
427,11,83151,1,0,1:2:0:0:
330,160,83328,2,0,P|339:212|346:258,1,86.6249973564149,10|0,0:2|1:2,0:0:0:0:
474,368,83681,2,0,P|480:325|488:282,1,86.6249973564149,10|0,0:2|1:2,0:0:0:0:
325,140,84034,5,10,0:2:0:0:
263,347,84210,1,8,0:2:0:0:
449,201,84387,1,8,0:2:0:0:
209,42,84739,6,0,P|198:87|187:156,1,99,2|0,0:2|0:0,0:0:0:0:
164,182,85092,2,0,P|199:206|266:192,1,99,2|0,1:2|0:0,0:0:0:0:
275,175,85445,6,0,B|368:193|305:244|409:268,1,160.050003785362,6|8,1:2|0:2,0:0:0:0:
512,154,85975,2,0,P|495:206|472:321,1,160.050003785362,2|2,1:2|1:2,0:0:0:0:
453,337,86416,1,2,0:2:0:0:
453,337,86504,1,10,0:2:0:0:
370,189,86681,1,2,0:2:0:0:
276,351,86857,6,0,B|236:312|236:312|274:192,1,160.050003785362,2|8,1:2|0:2,0:0:0:0:
367,111,87387,2,0,P|309:59|233:74,1,160.050003785362,2|2,1:2|1:2,0:0:0:0:
210,99,87828,1,2,0:2:0:0:
210,99,87916,1,10,0:2:0:0:
66,22,88092,1,2,1:2:0:0:
66,22,88181,1,0,1:2:0:0:
66,22,88269,6,0,P|72:74|81:128,1,80.0250018926812,2|0,1:2|1:2,0:0:0:0:
190,216,88622,2,0,P|196:176|201:136,1,80.0250018926812,10|0,0:2|1:2,0:0:0:0:
137,340,88975,1,2,0:2:0:0:
276,154,89151,1,2,1:2:0:0:
382,363,89504,6,0,P|393:313|424:203,1,160.050003785362,6|2,1:2|1:2,0:0:0:0:
334,70,90034,1,10,0:2:0:0:
265,212,90210,1,2,1:2:0:0:
158,70,90387,1,10,0:2:0:0:
250,120,90563,1,2,0:2:0:0:
139,191,90739,2,0,P|95:183|52:163,1,80.0250018926812,10|0,0:2|0:0,0:0:0:0:
249,310,91092,6,0,B|348:292|294:245|385:228,1,160.050003785362,6|8,1:2|0:2,0:0:0:0:
472,339,91622,2,0,P|481:291|518:168,1,160.050003785362,2|2,1:2|1:2,0:0:0:0:
494,151,92063,1,2,0:2:0:0:
494,151,92151,1,10,0:2:0:0:
397,267,92328,1,2,0:2:0:0:
302,117,92504,6,0,P|243:167|152:149,1,160.050003785362,2|8,1:2|0:2,0:0:0:0:
49,90,93034,2,0,P|70:137|89:250,1,160.050003785362,2|2,1:2|1:2,0:0:0:0:
114,274,93475,1,2,0:2:0:0:
114,274,93563,1,10,0:2:0:0:
238,154,93739,1,2,1:2:0:0:
238,154,93828,1,0,1:0:0:0:
238,154,93916,6,0,P|275:144|319:135,1,80.0250018926812,2|0,1:2|1:2,0:0:0:0:
401,271,94269,2,0,P|364:261|320:252,1,80.0250018926812,10|0,0:2|1:2,0:0:0:0:
201,313,94622,1,2,0:2:0:0:
315,135,94798,1,2,1:2:0:0:
34,58,95151,6,0,P|52:112|68:221,1,160.050003785362,6|2,1:2|1:2,0:0:0:0:
130,336,95681,1,10,0:2:0:0:
0,255,95857,1,0,1:2:0:0:
149,152,96034,2,0,P|187:163|227:164,1,80.0250018926812,10|0,0:2|0:0,0:0:0:0:
312,281,96387,2,0,P|273:292|233:293,1,80.0250018926812,10|0,0:2|0:0,0:0:0:0:
467,195,96739,6,0,P|458:244|452:293,1,86.6249973564149,14|0,0:2|1:0,0:0:0:0:
315,151,97092,1,8,0:0:0:0:
474,91,97269,5,2,1:2:0:0:
372,269,97445,2,0,P|330:257|282:238,1,86.6249973564149,8|2,0:0|1:2,0:0:0:0:
274,217,97710,1,2,0:2:0:0:
274,217,97798,1,10,0:2:0:0:
196,368,97975,1,2,1:2:0:0:
69,209,98151,6,0,P|120:194|160:179,1,86.6249973564149,10|2,0:2|1:2,0:0:0:0:
288,89,98504,1,8,0:0:0:0:
201,268,98681,5,2,1:2:0:0:
107,74,98857,2,0,P|154:83|198:97,1,86.6249973564149,8|2,0:0|1:2,0:0:0:0:
218,130,99122,1,2,0:2:0:0:
218,130,99210,1,10,0:2:0:0:
298,276,99387,1,2,1:2:0:0:
423,86,99563,6,0,P|413:134|405:183,1,86.6249973564149,10|0,0:2|1:0,0:0:0:0:
470,304,99916,5,10,0:2:0:0:
317,202,100092,1,0,1:0:0:0:
488,132,100269,5,10,0:2:0:0:
381,305,100445,2,0,P|334:296|291:279,1,86.6249973564149,2|8,1:2|0:0,0:0:0:0:
199,175,100798,6,0,P|191:220|180:267,1,86.6249973564149,2|8,1:2|0:0,0:0:0:0:
8,158,101151,1,2,1:2:0:0:
95,309,101328,5,10,0:2:0:0:
168,111,101504,1,2,1:2:0:0:
1,243,101681,6,0,P|6:289|17:337,1,86.6249973564149,10|0,0:2|0:0,0:0:0:0:
98,108,102034,2,0,P|143:146|214:137,1,129.937496034622,10|0,0:2|0:0,0:0:0:0:
244,107,102387,6,0,P|252:159|261:205,1,86.6249973564149,14|0,0:2|1:0,0:0:0:0:
329,320,102739,1,8,0:0:0:0:
176,233,102916,5,2,1:2:0:0:
369,152,103092,2,0,P|357:200|347:259,1,86.6249973564149,8|2,0:0|1:2,0:0:0:0:
340,282,103357,1,2,0:2:0:0:
340,282,103445,1,10,0:2:0:0:
463,188,103622,1,2,1:2:0:0:
280,80,103798,6,0,P|332:67|368:50,1,86.6249973564149,10|2,0:2|1:2,0:0:0:0:
188,210,104151,1,8,0:0:0:0:
81,67,104328,5,2,1:2:0:0:
8,225,104504,2,0,P|18:272|28:321,1,86.6249973564149,8|2,0:0|1:2,0:0:0:0:
55,342,104769,1,2,0:2:0:0:
55,342,104857,1,10,0:2:0:0:
153,194,105034,1,2,1:2:0:0:
250,349,105210,6,0,P|209:362|163:378,1,86.6249973564149,2|0,1:2|1:0,0:0:0:0:
284,205,105563,5,10,0:2:0:0:
386,364,105739,1,0,1:0:0:0:
463,191,105916,5,2,0:2:0:0:
381,384,106092,1,10,0:2:0:0:
216,172,106269,1,0,1:0:0:0:
216,172,106357,1,0,1:0:0:0:
216,172,106445,6,0,B|324:187|373:85|309:75|378:-8|481:8,1,340.3125,6|0,1:2|0:0,0:0:0:0:
512,43,109445,5,6,1:2:0:0:
256,192,109534,12,0,115445,1:0:0:0:
