osu file format v14

[General]
AudioFilename: loli.mp3
AudioLeadIn: 0
PreviewTime: 62505
Countdown: 0
SampleSet: Soft
StackLeniency: 0.5
Mode: 0
LetterboxInBreaks: 0
WidescreenStoryboard: 1

[Editor]
DistanceSpacing: 1
BeatDivisor: 4
GridSize: 16
TimelineZoom: 1

[Metadata]
Title:Now On Stage!!
TitleUnicode:Now On Stage!!
Artist:nonet
ArtistUnicode:nonet
Creator:Basensorex
Version:Normal!!
Source:ガールフレンド(♪)
Tags:girlfriend note onpu kari fumio murakami chloe lemaire kokomi shina mutsumi shigino momoko asahina haruka kazemachi sakura tange satomi minami tsuda yui ogura saori hayami rina sato minako kotobuki livetune ameba mugmomoko akane sakurai saya kagurazaka kaori nazuka mug chiga rosiie japanese pop video game kz
BeatmapID:2659380
BeatmapSetID:1275018

[Difficulty]
HPDrainRate:3.6
CircleSize:3.5
OverallDifficulty:3.6
ApproachRate:5.2
SliderMultiplier:1
SliderTickRate:1

[Events]
//Background and Video events
0,0,"loligirlfriend.png",0,0
//Break Periods
//Storyboard Layer 0 (Background)
//Storyboard Layer 1 (Fail)
//Storyboard Layer 2 (Pass)
//Storyboard Layer 3 (Foreground)
//Storyboard Layer 4 (Overlay)
//Storyboard Sound Samples

[TimingPoints]
740,352.941176470588,4,2,22,35,1,0
740,-111.111111111111,4,2,22,35,0,0
6387,-111.111111111111,4,2,22,45,0,0
9210,-111.111111111111,4,2,22,70,0,0
12034,-100,4,2,22,65,0,0
22269,-111.111111111111,4,2,22,65,0,0
23328,-111.111111111111,4,2,22,45,0,0
34622,-111.111111111111,4,2,22,55,0,0
45916,-100,4,2,22,65,0,0
51563,-100,4,2,22,70,0,0
62857,-90.9090909090909,4,2,22,80,0,1
73798,-90.9090909090909,4,2,22,80,0,0
74151,-90.9090909090909,4,2,22,80,0,1
85092,-100,4,2,22,80,0,0
85445,-100,4,2,22,65,0,0
96739,-90.9090909090909,4,2,22,80,0,1
106445,-100,4,2,22,65,0,0
109357,-100,4,2,22,5,0,0
109445,-100,4,2,22,50,0,0

[Colours]
Combo1 : 196,196,196
Combo2 : 255,128,128
Combo3 : 232,205,237
Combo4 : 47,125,168

[HitObjects]
305,359,740,6,0,B|369:375|401:343|385:327|417:295|481:311,1,179.999994506836,6|2,1:2|0:2,0:0:0:0:
467,308,2151,2,0,P|479:265|467:222,1,89.9999972534181,2|2,1:2|0:2,0:0:0:0:
422,143,2857,1,2,0:2:0:0:
422,143,3563,6,0,B|390:95|390:95|262:111,1,179.999994506836,2|2,1:2|1:2,0:0:0:0:
268,110,4975,2,0,L|172:101,1,89.9999972534181,2|2,1:2|1:2,0:0:0:0:
129,25,5681,1,2,1:2:0:0:
40,43,6034,1,2,1:2:0:0:
18,130,6387,6,0,B|6:171|6:171|18:216,1,89.9999972534181,6|2,1:2|0:2,0:0:0:0:
46,302,7092,1,6,1:2:0:0:
131,274,7445,2,0,L|179:278,1,44.999998626709,2|2,1:2|0:2,0:0:0:0:
201,315,7798,2,0,L|297:306,1,89.9999972534181,6|2,1:2|0:2,0:0:0:0:
360,363,8504,1,6,1:2:0:0:
483,232,9210,6,0,B|494:190|494:190|482:145,1,89.9999972534181,10|10,0:2|0:2,0:0:0:0:
453,59,9916,1,10,0:2:0:0:
367,32,10269,1,10,0:2:0:0:
290,80,10622,2,0,L|284:143,1,44.999998626709,8|8,0:2|0:2,0:0:0:0:
282,169,10975,1,8,0:2:0:0:
266,348,11681,1,10,0:2:0:0:
168,368,12034,6,0,L|68:358,1,100,6|8,1:2|0:2,0:0:0:0:
18,350,12563,2,0,B|30:302|30:302|17:251,1,100,2|2,1:2|1:2,0:0:0:0:
0,207,13092,1,10,0:2:0:0:
81,148,13445,2,0,B|68:100|68:100|81:49,1,100,2|8,1:2|0:2,0:0:0:0:
104,6,13975,2,0,L|203:15,1,100,2|2,1:2|1:2,0:0:0:0:
252,23,14503,1,10,0:2:0:0:
283,118,14857,6,0,B|329:113|329:113|342:123|342:123|388:120,1,100,2|10,1:2|0:2,0:0:0:0:
429,115,15387,1,0,1:2:0:0:
488,195,15739,1,2,1:2:0:0:
412,260,16092,2,0,B|424:307|424:307|411:358,1,100,6|2,1:2|1:2,0:0:0:0:
363,369,16622,2,0,L|299:363,1,50,10|2,0:2|1:2,0:0:0:0:
274,361,16975,1,10,0:2:0:0:
223,274,17328,1,10,0:2:0:0:
135,322,17681,6,0,B|87:334|87:334|36:321,1,100,6|8,1:2|0:2,0:0:0:0:
1,290,18210,2,0,L|10:190,1,100,2|2,1:2|1:2,0:0:0:0:
16,140,18739,1,10,0:2:0:0:
76,59,19092,2,0,B|123:46|123:46|174:59,1,100,2|8,1:2|0:2,0:0:0:0:
210,91,19622,2,0,L|200:190,1,100,2|2,1:2|1:2,0:0:0:0:
195,241,20150,1,10,0:2:0:0:
274,302,20504,6,0,B|306:280|306:280|371:302,1,100,2|10,1:2|0:2,0:0:0:0:
406,316,21034,1,0,1:2:0:0:
488,255,21387,2,0,L|493:191,1,50,10|0,0:2|1:2,0:0:0:0:
452,175,21739,2,0,L|442:75,1,100,6|2,1:2|0:2,0:0:0:0:
436,30,22269,6,0,B|375:14|345:45|360:60|330:90|269:75,1,179.999994506836,2|10,0:2|0:2,0:0:0:0:
195,29,23328,6,0,P|152:17|109:29,1,89.9999972534181,6|2,1:2|1:2,0:0:0:0:
73,56,23857,2,0,P|86:122|89:189,1,134.999995880127,2|0,0:2|1:2,0:0:0:0:
25,252,24739,1,2,1:2:0:0:
86,324,25092,1,2,1:2:0:0:
86,324,25269,2,0,P|147:349|211:325,1,134.999995880127,2|0,0:2|1:2,0:0:0:0:
298,342,26151,6,0,P|341:330|384:342,1,89.9999972534181,2|2,1:2|1:2,0:0:0:0:
424,362,26681,1,2,0:2:0:0:
495,307,27034,1,2,0:2:0:0:
461,223,27387,2,0,B|488:182|488:182|461:100,1,134.999995880127,2|0,3:2|1:2,0:0:0:0:
393,41,28269,1,0,1:2:0:0:
308,72,28622,1,2,1:2:0:0:
299,161,28975,6,0,L|307:250,1,89.9999972534181,2|2,1:2|1:2,0:0:0:0:
241,312,29681,2,0,P|198:300|155:311,1,89.9999972534181,2|2,1:2|1:2,0:0:0:0:
73,350,30387,1,2,1:2:0:0:
1,296,30739,1,2,1:2:0:0:
23,208,31092,2,0,L|14:118,1,89.9999972534181,2|2,1:2|1:2,0:0:0:0:
71,47,31798,6,0,P|113:35|156:47,1,89.9999972534181,2|0,1:2|1:2,0:0:0:0:
197,67,32328,2,0,B|235:76|266:55|254:44|282:25|321:32,1,134.999995880127,2|0,0:2|1:2,0:0:0:0:
407,59,33210,2,0,P|413:91|415:123,1,44.999998626709,8|0,0:2|1:2,0:0:0:0:
453,135,33563,1,0,1:2:0:0:
453,135,33739,2,0,P|439:201|436:268,1,134.999995880127,12|10,0:2|0:2,0:0:0:0:
400,351,34622,6,0,P|357:362|314:350,1,89.9999972534181,6|2,1:2|1:2,0:0:0:0:
277,324,35151,2,0,P|216:299|151:322,1,134.999995880127,2|0,0:2|1:2,0:0:0:0:
81,374,36034,1,2,1:2:0:0:
16,319,36387,1,2,1:2:0:0:
16,319,36563,2,0,P|12:251|0:185,1,134.999995880127,2|0,0:2|1:2,0:0:0:0:
57,116,37445,6,0,P|99:104|142:116,1,89.9999972534181,2|2,1:2|1:2,0:0:0:0:
180,141,37975,1,2,0:2:0:0:
139,221,38328,1,2,0:2:0:0:
196,290,38681,2,0,B|234:299|265:278|253:267|281:248|320:255,1,134.999995880127,2|0,3:2|1:2,0:0:0:0:
386,316,39563,1,2,1:2:0:0:
474,298,39916,1,2,1:2:0:0:
501,212,40269,6,0,L|492:122,1,89.9999972534181,2|2,1:2|1:2,0:0:0:0:
462,88,40798,2,0,P|419:73|376:83,1,89.9999972534181,2|2,0:2|0:2,0:0:0:0:
293,48,41504,2,0,P|250:62|207:52,1,89.9999972534181,2|0,3:2|0:0,0:0:0:0:
167,30,42034,1,2,1:2:0:0:
77,28,42387,1,2,1:2:0:0:
26,102,42739,1,2,1:2:0:0:
52,188,43092,6,0,B|131:181|131:181|146:163|146:163|223:156,1,179.999994506836,6|0,1:2|1:2,0:0:0:0:
289,95,44151,1,0,1:2:0:0:
367,139,44504,2,0,L|375:228,1,89.9999972534181,0|0,1:2|1:2,0:0:0:0:
411,264,45034,1,8,0:2:0:0:
411,264,45210,2,0,L|407:308,1,44.999998626709,8|0,1:2|0:0,0:0:0:0:
378,343,45563,1,8,1:2:0:0:
280,321,45916,6,0,L|284:271,2,50,4|0|2,1:2|1:2|1:2,0:0:0:0:
187,359,46622,2,0,P|140:374|91:363,1,100,10|2,0:2|1:2,0:0:0:0:
52,341,47151,1,2,1:2:0:0:
52,341,47328,2,0,L|43:241,1,100,2|2,1:2|1:2,0:0:0:0:
118,175,48034,1,10,0:2:0:0:
182,251,48387,1,2,1:2:0:0:
262,192,48739,6,0,L|257:142,2,50,2|0|2,1:2|1:2|1:2,0:0:0:0:
333,261,49445,2,0,P|379:276|428:265,1,100,10|2,0:2|1:2,0:0:0:0:
472,239,49975,2,0,L|480:139,1,100,2|2,1:2|1:2,0:0:0:0:
484,89,50504,1,0,1:2:0:0:
405,26,50857,2,0,L|355:30,1,50,10|2,0:2|1:2,0:0:0:0:
325,71,51210,1,10,0:2:0:0:
325,71,51387,6,0,B|278:82|246:58|259:45|231:21|188:30,1,150,2|10,1:2|0:2,0:0:0:0:
92,3,52269,1,2,1:2:0:0:
15,67,52622,1,10,0:2:0:0:
33,165,52975,2,0,L|25:265,1,100,2|8,1:2|0:2,0:0:0:0:
85,344,53681,2,0,L|135:340,1,50,2|2,1:2|1:2,0:0:0:0:
179,314,54034,1,10,0:2:0:0:
179,314,54210,6,0,B|245:319|245:319|257:334|257:334|321:340,1,150,2|10,0:2|0:2,0:0:0:0:
415,375,55092,1,2,1:2:0:0:
493,312,55445,1,10,0:2:0:0:
475,213,55798,2,0,L|483:113,1,100,2|10,1:2|0:2,0:0:0:0:
458,16,56504,1,2,1:2:0:0:
359,1,56857,1,10,0:2:0:0:
301,83,57210,6,0,P|285:129|297:177,1,100,10|10,0:2|0:2,0:0:0:0:
329,222,57739,1,0,1:2:0:0:
329,222,57916,2,0,L|321:322,1,100,10|10,0:2|0:2,0:0:0:0:
241,382,58622,1,10,0:2:0:0:
168,312,58975,6,0,L|118:316,1,50,10|0,0:2|1:2,0:0:0:0:
87,355,59328,2,0,L|37:351,1,50,10|0,0:2|1:2,0:0:0:0:
1,319,59681,1,10,0:2:0:0:
32,223,60034,6,0,B|-8:103|-8:103|33:41,1,200,10|0,0:2|1:2,0:0:0:0:
129,67,61092,1,0,1:2:0:0:
219,25,61445,6,0,L|268:20,1,50,10|8,0:2|0:2,0:0:0:0:
318,14,61798,1,8,0:2:0:0:
388,85,62151,1,8,0:2:0:0:
328,165,62504,1,2,1:2:0:0:
403,244,62857,6,0,P|423:293|413:349,1,110.000003356934,6|8,1:2|0:2,0:0:0:0:
367,375,63387,1,2,0:2:0:0:
367,375,63563,2,0,L|257:356,1,110.000003356934,2|8,1:2|0:2,0:0:0:0:
185,274,64269,2,0,L|75:292,1,110.000003356934,2|10,1:2|0:2,0:0:0:0:
30,271,64799,1,2,0:2:0:0:
30,271,64975,2,0,P|9:221|19:165,1,110.000003356934,2|10,1:2|0:2,0:0:0:0:
81,75,65681,6,0,L|190:93,1,110.000003356934,2|8,1:2|0:2,0:0:0:0:
233,58,66211,1,2,0:2:0:0:
233,58,66387,2,0,L|342:39,1,110.000003356934,2|8,1:2|0:2,0:0:0:0:
448,16,67092,1,2,1:2:0:0:
506,109,67445,1,10,0:2:0:0:
441,197,67798,2,0,L|450:251,2,55.0000016784668,2|0|10,1:2|1:2|0:2,0:0:0:0:
338,157,68504,6,0,P|288:136|232:146,1,110.000003356934,6|10,1:2|0:2,0:0:0:0:
140,88,69210,1,2,1:2:0:0:
59,163,69563,2,0,L|49:217,1,55.0000016784668,10|2,0:2|0:2,0:0:0:0:
1,243,69916,2,0,L|19:352,1,110.000003356934,2|10,1:2|0:2,0:0:0:0:
127,328,70622,2,0,L|136:273,2,55.0000016784668,2|0|8,1:2|1:2|0:2,0:0:0:0:
229,369,71328,6,0,L|283:359,1,55.0000016784668,2|2,1:2|0:2,0:0:0:0:
316,316,71681,1,10,0:2:0:0:
316,316,71857,2,0,L|425:334,1,110.000003356934,2|2,0:2|1:2,0:0:0:0:
478,348,72387,1,10,0:2:0:0:
502,241,72739,6,0,L|492:186,1,55.0000016784668,10|8,0:2|0:2,0:0:0:0:
480,133,73092,1,10,0:2:0:0:
410,47,73445,1,10,0:2:0:0:
302,69,73798,1,2,1:2:0:0:
269,173,74151,6,0,P|289:222|279:278,1,110.000003356934,6|8,1:2|0:2,0:0:0:0:
255,328,74681,1,2,0:2:0:0:
255,328,74857,2,0,L|145:346,1,110.000003356934,2|8,1:2|0:2,0:0:0:0:
39,321,75563,2,0,P|18:271|28:215,1,110.000003356934,2|10,1:2|0:2,0:0:0:0:
57,172,76092,1,2,0:2:0:0:
57,172,76269,2,0,L|166:153,1,110.000003356934,2|10,1:2|0:2,0:0:0:0:
230,64,76975,6,0,L|339:82,1,110.000003356934,2|8,1:2|0:2,0:0:0:0:
396,99,77505,1,2,0:2:0:0:
396,99,77681,2,0,P|416:148|406:204,1,110.000003356934,2|8,1:2|0:2,0:0:0:0:
347,295,78386,1,14,0:2:0:0:
250,242,78739,1,10,0:2:0:0:
178,325,79092,2,0,L|187:379,2,55.0000016784668,10|0|10,0:2|1:2|0:2,0:0:0:0:
80,272,79798,6,0,L|98:162,1,110.000003356934,2|10,1:2|0:2,0:0:0:0:
176,86,80504,1,2,1:2:0:0:
237,177,80857,2,0,L|291:167,1,55.0000016784668,10|2,0:2|0:2,0:0:0:0:
318,119,81210,2,0,L|427:137,1,110.000003356934,2|10,1:2|0:2,0:0:0:0:
457,243,81916,2,0,L|511:233,2,55.0000016784668,2|0|8,1:2|1:2|0:2,0:0:0:0:
395,334,82622,5,6,1:2:0:0:
285,349,82975,1,10,0:2:0:0:
195,284,83328,1,10,0:2:0:0:
85,299,83681,1,10,0:2:0:0:
4,224,84034,6,0,L|13:169,1,55.0000016784668,10|8,0:2|0:2,0:0:0:0:
24,116,84386,1,8,0:2:0:0:
200,21,85092,1,2,1:2:0:0:
270,92,85445,6,0,B|318:105|318:105|369:92,1,100,6|8,1:2|0:2,0:0:0:0:
415,80,85975,2,0,L|423:190,1,100,2|2,1:2|1:2,0:0:0:0:
427,229,86503,1,10,0:2:0:0:
379,317,86857,2,0,B|331:330|331:330|280:317,1,100,2|8,1:2|0:2,0:0:0:0:
237,295,87387,2,0,L|126:303,1,100,2|2,1:2|1:2,0:0:0:0:
87,306,87916,1,10,0:2:0:0:
15,236,88269,6,0,B|19:193|19:193|9:181|9:181|12:139,1,100,2|10,1:2|0:2,0:0:0:0:
16,89,88798,1,0,1:2:0:0:
97,31,89150,1,2,1:2:0:0:
177,90,89504,2,0,B|225:103|225:103|276:90,1,100,6|2,1:2|1:2,0:0:0:0:
319,69,90034,2,0,L|368:73,1,50,10|2,0:2|1:2,0:0:0:0:
417,83,90386,1,10,0:2:0:0:
467,169,90739,1,10,0:2:0:0:
418,256,91092,6,0,B|370:269|370:269|319:256,1,100,6|8,1:2|0:2,0:0:0:0:
283,289,91622,2,0,B|235:276|235:276|184:289,1,100,2|2,1:2|1:2,0:0:0:0:
139,306,92150,1,10,0:2:0:0:
55,250,92504,2,0,L|63:139,1,100,2|8,1:2|0:2,0:0:0:0:
97,113,93034,2,0,B|145:100|145:100|196:113,1,100,2|2,1:2|1:2,0:0:0:0:
237,134,93563,1,10,0:2:0:0:
274,226,93916,6,0,B|252:258|252:258|271:317,1,100,2|10,1:2|0:2,0:0:0:0:
290,362,94445,1,0,1:2:0:0:
378,314,94798,1,2,1:2:0:0:
467,358,95151,2,0,B|480:310|480:310|467:259,1,100,6|2,1:2|1:2,0:0:0:0:
454,212,95681,2,0,L|458:162,1,50,10|0,0:2|1:2,0:0:0:0:
462,112,96034,1,10,0:2:0:0:
396,37,96386,1,10,0:2:0:0:
312,108,96739,6,0,L|334:234,1,110.000003356934,14|8,0:2|0:0,0:0:0:0:
339,271,97269,2,0,B|288:298|288:298|236:294,1,110.000003356934,2|2,1:2|1:2,0:0:0:0:
184,276,97798,1,10,0:2:0:0:
125,369,98151,6,0,B|69:352|69:352|36:312,1,110.000003356934,10|8,0:2|0:0,0:0:0:0:
4,266,98681,2,0,L|26:139,1,110.000003356934,2|2,1:2|1:2,0:0:0:0:
35,103,99210,1,10,0:2:0:0:
124,38,99563,5,10,0:2:0:0:
217,96,99916,1,10,0:2:0:0:
205,205,100269,2,0,L|283:218,2,55.0000016784668,10|2|8,0:2|1:2|0:0,0:0:0:0:
160,237,100798,6,0,B|142:291|142:291|156:342,1,110.000003356934,2|2,1:2|1:2,0:0:0:0:
202,374,101328,2,0,L|280:360,1,55.0000016784668,10|2,0:2|1:2,0:0:0:0:
310,355,101681,1,10,0:2:0:0:
375,266,102034,1,10,0:2:0:0:
470,321,102387,6,0,B|487:266|487:266|473:215,1,110.000003356934,14|8,0:2|0:0,0:0:0:0:
450,165,102916,2,0,L|472:38,1,110.000003356934,2|2,1:2|1:2,0:0:0:0:
440,9,103446,1,10,0:2:0:0:
356,79,103798,6,0,B|301:96|301:96|250:82,1,110.000003356934,10|8,0:2|0:0,0:0:0:0:
213,123,104328,2,0,B|158:105|158:105|107:119,1,110.000003356934,2|2,1:2|1:2,0:0:0:0:
58,145,104858,1,10,0:2:0:0:
59,254,105210,6,0,L|4:263,2,55.0000016784668,2|0|10,1:2|1:0|0:2,0:0:0:0:
100,289,105739,1,0,1:0:0:0:
197,238,106092,2,0,L|252:247,1,55.0000016784668,10|0,0:2|1:0,0:0:0:0:
275,291,106445,6,0,L|373:275,1,100,6|2,1:2|0:2,0:0:0:0:
423,266,106975,1,2,0:2:0:0:
256,192,107151,12,6,109445,1:2:0:0:
