osu file format v14

[General]
AudioFilename: loli.mp3
AudioLeadIn: 0
PreviewTime: 62505
Countdown: 0
SampleSet: Soft
StackLeniency: 0.7
Mode: 0
LetterboxInBreaks: 0
WidescreenStoryboard: 1

[Editor]
Bookmarks: 96828
DistanceSpacing: 1.4
BeatDivisor: 4
GridSize: 16
TimelineZoom: 1.8

[Metadata]
Title:Now On Stage!!
TitleUnicode:Now On Stage!!
Artist:nonet
ArtistUnicode:nonet
Creator:Basensorex
Version:New Girlfriend!!
Source:ガールフレンド(♪)
Tags:girlfriend note onpu kari fumio murakami chloe lemaire kokomi shina mutsumi shigino momoko asahina haruka kazemachi sakura tange satomi minami tsuda yui ogura saori hayami rina sato minako kotobuki livetune ameba mugmomoko akane sakurai saya kagurazaka kaori nazuka mug chiga rosiie japanese pop video game kz
BeatmapID:2649249
BeatmapSetID:1275018

[Difficulty]
HPDrainRate:5.6
CircleSize:4
OverallDifficulty:8.8
ApproachRate:9.2
SliderMultiplier:1.6
SliderTickRate:1

[Events]
//Background and Video events
0,0,"loligirlfriend.png",0,0
//Break Periods
//Storyboard Layer 0 (Background)
//Storyboard Layer 1 (Fail)
//Storyboard Layer 2 (Pass)
//Storyboard Layer 3 (Foreground)
//Storyboard Layer 4 (Overlay)
//Storyboard Sound Samples

[TimingPoints]
740,352.941176470588,4,2,22,35,1,0
740,-192.307692307692,4,2,22,35,0,0
5681,-138.888888888889,4,2,22,35,0,0
6034,-108.695652173913,4,2,22,35,0,0
6387,-108.695652173913,4,2,22,45,0,0
9210,-108.695652173913,4,2,22,70,0,0
11681,-138.888888888889,4,2,22,70,0,0
12034,-89.2857142857143,4,2,22,65,0,0
21739,-192.307692307693,4,2,22,65,0,0
23328,-121.951219512195,4,2,22,45,0,0
28975,-108.695652173913,4,2,22,45,0,0
31798,-121.951219512195,4,2,22,45,0,0
33739,-108.695652173913,4,2,22,45,0,0
34622,-108.695652173913,4,2,22,55,0,0
45916,-108.695652173913,4,2,22,65,0,0
51387,-98.0392156862745,4,2,22,65,0,0
51563,-98.0392156862745,4,2,22,70,0,0
62504,-138.888888888889,4,2,22,70,0,0
62857,-81.9672131147541,4,2,22,80,0,1
73798,-138.888888888889,4,2,22,80,0,0
74151,-81.9672131147541,4,2,22,80,0,1
85092,-138.888888888889,4,2,22,80,0,0
85445,-89.2857142857144,4,2,22,65,0,0
96739,-81.9672131147541,4,2,22,80,0,1
106445,-192.307692307692,4,2,22,65,0,0
106975,-454.545454545452,4,2,22,65,0,0
109357,-454.545454545452,4,2,22,5,0,0
109445,-454.545454545452,4,2,22,50,0,0

[Colours]
Combo1 : 196,196,196
Combo2 : 255,128,128
Combo3 : 232,205,237
Combo4 : 47,125,168

[HitObjects]
75,91,740,6,0,P|126:31|206:42,1,166.399998984375,6|2,1:2|0:2,0:0:0:0:
167,192,2151,2,0,L|155:96,2,83.1999994921875,2|2|2,1:2|0:2|0:2,0:0:0:0:
29,244,3563,2,0,B|132:225|97:290|188:275,1,166.399998984375,2|2,1:2|1:2,0:0:0:0:
190,279,4975,5,2,1:2:0:0:
190,279,5328,2,0,L|237:273,1,41.5999997460938,2|2,1:2|0:2,0:0:0:0:
275,184,5681,2,0,L|324:233,1,57.60000140625,2|0,1:2|0:0,0:0:0:0:
414,180,6034,2,0,L|398:305,1,110.399996293945,2|0,1:2|0:0,0:0:0:0:
395,321,6387,5,6,1:2:0:0:
480,32,7092,1,6,1:2:0:0:
416,96,7445,1,2,1:2:0:0:
325,0,7798,5,6,1:2:0:0:
490,315,8504,1,6,1:2:0:0:
235,126,9034,5,2,0:2:0:0:
235,126,9122,1,2,0:2:0:0:
235,126,9210,5,10,0:2:0:0:
195,215,9387,1,0,1:2:0:0:
235,93,9563,5,10,0:2:0:0:
275,261,9739,1,0,1:2:0:0:
165,32,9916,5,10,0:2:0:0:
111,256,10093,1,0,1:2:0:0:
187,9,10269,5,10,0:2:0:0:
264,291,10445,1,0,1:2:0:0:
67,53,10622,5,8,0:2:0:0:
360,213,10798,1,8,0:2:0:0:
39,311,10975,1,8,0:2:0:0:
47,318,11504,5,0,1:2:0:0:
47,318,11592,1,0,1:2:0:0:
47,318,11681,2,0,P|45:285|67:318,1,86.4000021093751,10|0,0:2|0:0,0:0:0:0:
58,301,12034,6,0,B|139:315|109:265|191:278,1,134.400001640625,6|0,1:2|0:0,0:0:0:0:
216,289,12387,1,8,0:2:0:0:
86,123,12563,2,0,L|74:218,1,89.60000109375,2|0,1:2|0:0,0:0:0:0:
179,375,12916,1,2,1:2:0:0:
179,375,13004,1,2,0:2:0:0:
179,375,13092,1,10,0:2:0:0:
261,209,13269,1,2,0:2:0:0:
373,371,13445,5,2,1:2:0:0:
186,277,13622,1,2,1:2:0:0:
415,191,13798,1,8,0:2:0:0:
277,363,13975,2,0,B|230:318|230:318|262:206,1,179.2000021875,2|2,1:2|1:2,0:0:0:0:
277,179,14416,1,2,0:2:0:0:
277,179,14504,1,10,0:2:0:0:
471,271,14681,1,2,1:2:0:0:
471,271,14769,1,0,1:2:0:0:
471,271,14857,6,0,P|430:289|387:281,1,89.60000109375,2|0,1:2|1:2,0:0:0:0:
260,82,15210,1,10,0:2:0:0:
175,306,15387,2,0,L|270:295,1,89.60000109375,0|2,1:2|0:2,0:0:0:0:
420,188,15739,2,0,L|330:177,1,89.60000109375,2|0,1:2|0:0,0:0:0:0:
30,104,16092,6,0,L|41:199,1,89.60000109375,6|0,1:2|0:0,0:0:0:0:
277,217,16445,1,2,1:2:0:0:
111,40,16622,1,10,0:2:0:0:
71,296,16798,1,2,1:2:0:0:
210,16,16975,1,10,0:2:0:0:
292,363,17328,5,10,0:2:0:0:
292,363,17681,6,0,P|357:367|405:323,1,134.400001640625,6|0,1:2|0:0,0:0:0:0:
419,291,18034,1,8,0:2:0:0:
264,179,18210,2,0,L|275:274,1,89.60000109375,2|0,1:2|0:0,0:0:0:0:
351,123,18563,1,2,1:2:0:0:
351,123,18651,1,2,0:2:0:0:
351,123,18739,1,10,0:2:0:0:
168,192,18916,1,2,0:2:0:0:
295,36,19092,5,2,1:2:0:0:
359,229,19269,1,2,1:2:0:0:
204,102,19445,1,8,0:2:0:0:
437,70,19622,2,0,B|484:115|484:115|452:227,1,179.2000021875,2|2,1:2|1:2,0:0:0:0:
446,261,20063,1,2,0:2:0:0:
446,261,20151,1,10,0:2:0:0:
321,55,20328,1,2,0:2:0:0:
304,303,20504,5,2,1:2:0:0:
506,147,20681,1,0,1:2:0:0:
422,377,20857,1,10,0:2:0:0:
275,175,21034,2,0,P|315:158|358:165,1,89.60000109375,0|2,1:2|0:2,0:0:0:0:
207,370,21387,2,0,L|200:306,1,44.800000546875,10|0,0:2|0:0,0:0:0:0:
192,235,21563,1,0,1:2:0:0:
192,235,21651,1,0,1:2:0:0:
192,235,21739,6,0,P|151:239|113:222,1,83.1999994921875,6|2,1:2|0:2,0:0:0:0:
41,34,22269,2,0,B|78:95|39:156|39:156|36:124|22:106,1,166.399998984375,2|10,0:2|0:2,0:0:0:0:
30,120,23328,6,0,L|109:129,1,65.6000010009766,6|0,1:2|0:0,0:0:0:0:
121,36,23681,1,2,1:2:0:0:
121,36,23857,2,0,P|176:70|190:133,1,131.200002001953,2|0,0:2|0:0,0:0:0:0:
248,208,24387,1,0,1:2:0:0:
332,160,24563,1,0,3:2:0:0:
332,160,24651,1,0,3:2:0:0:
332,160,24739,6,0,L|411:150,1,65.6000010009766,2|0,1:2|0:0,0:0:0:0:
512,267,25092,1,2,1:2:0:0:
512,267,25269,2,0,L|382:250,1,131.200002001953,2|0,0:2|0:0,0:0:0:0:
252,331,25798,2,0,P|293:331|329:311,1,65.6000010009766,0|0,1:2|0:0,0:0:0:0:
179,213,26151,6,0,L|170:278,1,65.6000010009766,2|0,1:2|0:0,0:0:0:0:
139,129,26504,1,2,1:2:0:0:
139,129,26681,2,0,P|169:118|202:120,1,65.6000010009766,2|0,0:2|1:2,0:0:0:0:
78,236,27034,2,0,P|45:238|14:227,1,65.6000010009766,2|0,0:2|1:2,0:0:0:0:
201,308,27387,1,2,3:2:0:0:
201,308,27475,1,0,3:2:0:0:
201,308,27563,6,0,B|277:321|249:273|326:286,1,131.200002001953,0|0,1:2|1:2,0:0:0:0:
392,140,28092,1,0,0:0:0:0:
392,140,28269,2,0,L|383:205,1,65.6000010009766,0|0,1:2|3:2,0:0:0:0:
495,260,28622,2,0,L|486:195,1,65.6000010009766,2|0,1:2|3:2,0:0:0:0:
442,340,28975,6,0,P|476:352|514:350,1,73.599997529297,2|0,1:2|0:0,0:0:0:0:
384,204,29328,2,0,P|347:202|313:214,1,73.599997529297,2|0,1:2|0:0,0:0:0:0:
337,383,29681,2,0,L|347:307,1,73.599997529297,2|0,1:2|0:0,0:0:0:0:
207,191,30034,2,0,L|217:266,1,73.599997529297,2|0,1:2|3:2,0:0:0:0:
223,297,30298,1,0,3:2:0:0:
223,297,30387,6,0,P|188:284|152:286,1,73.599997529297,2|0,1:2|0:0,0:0:0:0:
17,373,30739,2,0,P|53:374|87:362,1,73.599997529297,2|0,1:2|0:0,0:0:0:0:
26,205,31092,2,0,L|36:280,1,73.599997529297,2|0,1:2|0:0,0:0:0:0:
126,194,31445,2,0,L|136:118,1,73.599997529297,2|0,1:2|0:0,0:0:0:0:
129,27,31798,6,0,P|164:80|227:92,1,131.200002001953,2|0,1:2|1:2,0:0:0:0:
327,103,32328,2,0,B|382:50|463:85|463:85|419:112,1,196.80000300293,2|0,0:2|1:2,0:0:0:0:
420,111,33210,1,8,0:2:0:0:
464,308,33387,1,0,1:2:0:0:
512,222,33563,1,0,1:2:0:0:
285,321,33739,6,0,B|228:327|228:327|202:314|202:314|138:322,1,147.199995058594,12|0,0:2|1:2,0:0:0:0:
56,376,34269,2,0,P|43:341|45:305,1,73.599997529297,10|0,0:2|0:0,0:0:0:0:
125,163,34622,6,0,L|114:235,1,73.599997529297,6|0,1:2|0:0,0:0:0:0:
234,216,34975,1,2,1:2:0:0:
234,216,35151,2,0,L|213:66,1,147.199995058594,2|0,0:2|0:0,0:0:0:0:
325,10,35681,2,0,L|314:82,1,73.599997529297,0|0,1:2|3:2,0:0:0:0:
313,120,35945,1,0,3:2:0:0:
313,120,36034,6,0,P|347:132|383:130,1,73.599997529297,2|0,1:2|0:0,0:0:0:0:
472,102,36387,1,2,1:2:0:0:
472,102,36563,2,0,P|414:143|408:219,1,147.199995058594,2|8,0:2|0:2,0:0:0:0:
495,268,37092,2,0,L|505:195,1,73.599997529297,0|0,1:2|3:2,0:0:0:0:
402,352,37445,6,0,P|436:364|472:362,1,73.599997529297,2|0,1:2|0:0,0:0:0:0:
310,234,37798,1,2,1:2:0:0:
254,316,37975,2,0,P|219:328|183:326,1,73.599997529297,2|0,0:2|1:2,0:0:0:0:
102,210,38328,1,2,0:2:0:0:
81,351,38504,1,8,1:2:0:0:
209,236,38681,1,2,3:2:0:0:
209,236,38769,1,0,3:2:0:0:
209,236,38857,6,0,B|229:143|229:143|189:109,1,147.199995058594,0|0,1:2|1:2,0:0:0:0:
183,326,39387,1,8,0:2:0:0:
304,239,39563,2,0,L|376:250,1,73.599997529297,2|0,1:2|0:0,0:0:0:0:
450,323,39916,2,0,P|484:280|485:226,1,110.399996293945,2|0,1:2|0:0,0:0:0:0:
478,192,40269,6,0,P|448:170|412:163,1,73.599997529297,2|0,1:2|0:0,0:0:0:0:
281,149,40622,1,2,1:2:0:0:
205,81,40798,2,0,P|234:59|270:52,1,73.599997529297,2|0,0:2|1:2,0:0:0:0:
125,137,41151,2,0,P|89:129|59:108,1,73.599997529297,2|0,0:2|1:2,0:0:0:0:
200,216,41504,1,2,3:2:0:0:
200,216,41592,1,0,3:2:0:0:
200,216,41681,6,0,L|179:365,1,147.199995058594,0|2,1:2|1:2,0:0:0:0:
291,301,42210,1,0,0:0:0:0:
291,301,42387,2,0,L|301:373,1,73.599997529297,2|8,1:2|0:2,0:0:0:0:
361,230,42739,2,0,P|331:208|295:201,1,73.599997529297,2|0,1:2|0:0,0:0:0:0:
390,328,43092,6,0,P|425:320|455:299,1,73.599997529297,6|0,1:2|0:0,0:0:0:0:
488,200,43445,2,0,L|477:272,1,73.599997529297,0|0,1:2|0:0,0:0:0:0:
347,126,43798,2,0,L|357:198,1,73.599997529297,0|0,1:2|0:0,0:0:0:0:
510,2,44151,2,0,L|499:74,1,73.599997529297,0|0,1:2|3:2,0:0:0:0:
499,113,44416,1,0,3:2:0:0:
499,113,44504,5,0,1:2:0:0:
412,24,44681,1,0,0:0:0:0:
347,126,44857,1,0,1:2:0:0:
214,15,45034,1,8,0:2:0:0:
214,15,45122,1,8,0:2:0:0:
214,15,45210,6,0,L|141:4,1,73.599997529297,8|0,1:2|0:0,0:0:0:0:
29,122,45563,2,0,L|140:106,1,110.399996293945,8|0,1:2|0:0,0:0:0:0:
169,100,45916,5,4,1:2:0:0:
41,234,46092,1,0,1:2:0:0:
27,14,46269,1,2,1:2:0:0:
27,14,46622,1,10,0:2:0:0:
27,14,46975,1,2,1:2:0:0:
198,206,47151,1,2,1:2:0:0:
198,206,47239,1,0,1:2:0:0:
198,206,47328,5,2,1:2:0:0:
123,17,47504,1,0,1:2:0:0:
49,241,47681,1,2,1:2:0:0:
49,241,48034,1,10,0:2:0:0:
49,241,48387,1,2,1:2:0:0:
217,20,48739,5,2,1:2:0:0:
29,122,48916,1,0,1:2:0:0:
298,183,49092,1,2,1:2:0:0:
298,183,49445,1,10,0:2:0:0:
298,183,49798,1,2,1:2:0:0:
117,53,49975,1,2,1:2:0:0:
117,53,50063,1,0,1:2:0:0:
117,53,50151,5,0,1:2:0:0:
138,279,50328,1,2,1:2:0:0:
296,89,50504,1,0,1:2:0:0:
296,89,50857,5,10,0:2:0:0:
250,320,51034,1,2,1:2:0:0:
124,83,51210,1,10,0:2:0:0:
364,283,51387,6,0,B|426:313|484:279|484:279|453:281|438:259,1,163.200000996094,2|0,1:2|0:0,0:0:0:0:
287,122,51916,2,0,L|277:202,1,81.6000004980469,10|0,0:2|0:0,0:0:0:0:
345,383,52269,1,2,1:2:0:0:
383,183,52445,1,0,1:2:0:0:
211,354,52622,2,0,L|201:273,1,81.6000004980469,10|0,0:2|0:0,0:0:0:0:
0,242,52975,6,0,P|31:313|110:330,1,163.200000996094,2|8,1:2|0:2,0:0:0:0:
187,180,53504,1,0,0:0:0:0:
242,354,53681,1,2,1:2:0:0:
180,148,53857,1,2,1:2:0:0:
106,361,54034,1,10,0:2:0:0:
70,97,54210,6,0,L|92:258,1,163.200000996094,2|0,0:2|0:0,0:0:0:0:
250,78,54739,2,0,P|216:53|177:45,1,81.6000004980469,10|0,0:2|0:0,0:0:0:0:
292,223,55092,1,2,1:2:0:0:
333,20,55269,1,0,1:2:0:0:
180,148,55445,2,0,L|189:228,1,81.6000004980469,10|0,0:2|0:0,0:0:0:0:
357,374,55798,6,0,L|366:293,1,81.6000004980469,2|0,1:2|0:0,0:0:0:0:
512,190,56151,2,0,P|478:214|439:222,1,81.6000004980469,10|0,0:2|0:0,0:0:0:0:
271,79,56504,1,2,1:2:0:0:
274,306,56681,1,0,1:2:0:0:
424,127,56857,2,0,L|414:46,1,81.6000004980469,10|0,0:2|0:0,0:0:0:0:
207,194,57210,5,10,0:2:0:0:
439,221,57387,1,0,1:2:0:0:
180,289,57563,5,10,0:2:0:0:
424,127,57739,1,0,1:2:0:0:
243,365,57916,5,10,0:2:0:0:
338,76,58092,1,0,1:2:0:0:
340,368,58269,5,10,0:2:0:0:
235,84,58445,1,0,1:2:0:0:
111,364,58622,6,0,B|69:371|69:371|31:359,1,81.6000004980469,10|0,0:2|1:2,0:0:0:0:
337,175,58975,5,10,0:2:0:0:
111,260,59151,1,0,1:2:0:0:
387,271,59328,5,10,0:2:0:0:
109,133,59504,1,0,1:2:0:0:
424,104,59681,5,10,0:2:0:0:
243,365,59857,1,0,1:2:0:0:
108,8,60034,5,10,0:2:0:0:
108,8,60387,5,0,1:2:0:0:
184,200,60563,1,0,1:2:0:0:
20,52,60739,1,0,1:2:0:0:
272,156,60916,1,0,1:2:0:0:
17,205,61092,1,0,1:2:0:0:
260,8,61269,1,0,1:2:0:0:
291,365,61445,5,10,0:2:0:0:
140,23,61622,1,8,0:2:0:0:
8,368,61798,1,8,0:2:0:0:
425,61,62151,5,8,0:2:0:0:
425,61,62504,6,0,P|423:28|445:61,1,86.4000021093751,2|0,1:2|0:0,0:0:0:0:
435,42,62857,6,0,B|485:90|485:90|451:211,1,195.199991958008,6|8,1:2|0:2,0:0:0:0:
331,31,63387,1,2,0:2:0:0:
241,225,63563,2,0,P|202:251|151:255,1,97.5999959790041,2|0,1:2|1:2,0:0:0:0:
227,20,63916,1,8,0:2:0:0:
349,251,64092,1,2,0:2:0:0:
90,185,64269,6,0,L|107:330,1,146.399993968506,2|0,1:2|0:0,0:0:0:0:
112,363,64622,1,10,0:2:0:0:
201,132,64798,1,2,0:2:0:0:
319,346,64975,2,0,P|357:372|408:376,1,97.5999959790041,2|0,1:2|1:2,0:0:0:0:
498,152,65328,2,0,P|427:145|379:200,1,146.399993968506,10|0,0:2|0:0,0:0:0:0:
366,226,65681,6,0,B|251:239|306:169|181:183,1,195.199991958008,2|8,1:2|0:2,0:0:0:0:
16,360,66210,1,2,0:2:0:0:
74,109,66387,2,0,L|87:220,1,97.5999959790041,2|0,1:2|1:2,0:0:0:0:
243,374,66739,1,8,0:2:0:0:
267,137,66916,1,2,0:2:0:0:
101,302,67092,6,0,P|52:298|12:271,1,97.5999959790041,2|0,1:2|0:0,0:0:0:0:
149,63,67445,1,10,0:2:0:0:
252,285,67622,1,2,0:2:0:0:
389,80,67798,2,0,P|438:84|478:111,1,97.5999959790041,2|0,1:2|1:2,0:0:0:0:
353,338,68151,2,0,L|336:193,1,146.399993968506,10|0,0:2|0:0,0:0:0:0:
314,169,68504,6,0,P|265:173|225:200,1,97.5999959790041,6|0,1:2|0:0,0:0:0:0:
114,384,68857,2,0,L|127:273,1,97.5999959790041,10|0,0:2|0:0,0:0:0:0:
0,129,69210,2,0,L|13:240,1,97.5999959790041,2|0,1:2|1:2,0:0:0:0:
122,30,69563,1,10,0:2:0:0:
215,229,69739,1,2,0:2:0:0:
325,30,69916,6,0,P|365:3|413:0,1,97.5999959790041,2|0,1:2|0:0,0:0:0:0:
204,260,70269,2,0,P|155:256|115:229,1,97.5999959790041,10|0,0:2|0:0,0:0:0:0:
396,101,70622,2,0,L|383:212,1,97.5999959790041,2|0,1:2|1:2,0:0:0:0:
158,131,70975,1,8,0:2:0:0:
349,12,71151,1,2,0:2:0:0:
306,256,71328,5,2,1:2:0:0:
152,39,71504,1,2,0:2:0:0:
69,292,71681,1,10,0:2:0:0:
277,41,71857,2,0,P|369:41|409:125,1,195.199991958008,2|2,0:2|1:2,0:0:0:0:
202,299,72387,2,0,L|213:202,1,97.5999959790041,10|0,0:2|0:0,0:0:0:0:
470,270,72739,5,10,0:2:0:0:
186,102,72916,1,8,0:2:0:0:
512,48,73092,1,10,0:2:0:0:
68,324,73445,5,10,0:2:0:0:
68,324,73798,6,0,P|66:357|88:324,1,86.4000021093751,2|0,1:2|0:0,0:0:0:0:
78,344,74151,6,0,B|193:357|138:287|263:301,1,195.199991958008,6|8,1:2|0:2,0:0:0:0:
477,348,74681,1,2,0:2:0:0:
350,142,74857,2,0,L|338:238,1,97.5999959790041,2|0,1:2|1:2,0:0:0:0:
159,368,75210,1,8,0:2:0:0:
233,153,75387,1,2,0:2:0:0:
332,365,75563,6,0,L|477:348,1,146.399993968506,2|0,1:2|0:0,0:0:0:0:
509,341,75916,1,10,0:2:0:0:
430,106,76092,1,2,0:2:0:0:
262,301,76269,2,0,L|165:289,1,97.5999959790041,2|0,1:2|1:2,0:0:0:0:
125,61,76622,2,0,P|195:72|227:138,1,146.399993968506,10|0,0:2|0:0,0:0:0:0:
226,167,76975,6,0,B|109:153|166:224|41:210,1,195.199991958008,2|8,1:2|0:2,0:0:0:0:
217,44,77504,1,2,0:2:0:0:
285,277,77681,2,0,L|273:373,1,97.5999959790041,2|0,1:2|1:2,0:0:0:0:
124,152,78034,1,8,0:2:0:0:
371,223,78210,5,2,1:2:0:0:
371,223,78298,1,0,1:2:0:0:
371,223,78387,5,14,0:2:0:0:
104,339,78563,1,0,1:2:0:0:
382,320,78739,5,10,0:2:0:0:
148,169,78916,1,2,1:2:0:0:
419,135,79092,5,10,0:2:0:0:
242,300,79269,1,0,1:2:0:0:
183,67,79445,2,0,P|116:60|56:112,1,146.399993968506,10|0,0:2|0:0,0:0:0:0:
53,143,79798,6,0,L|64:239,1,97.5999959790041,2|0,1:2|0:0,0:0:0:0:
318,228,80151,2,0,P|277:201|229:197,1,97.5999959790041,10|0,0:2|0:0,0:0:0:0:
47,341,80504,2,0,P|95:337|135:310,1,97.5999959790041,2|0,1:2|1:2,0:0:0:0:
238,94,80857,1,10,0:2:0:0:
310,325,81034,1,2,0:2:0:0:
412,108,81210,6,0,P|460:111|500:138,1,97.5999959790041,2|0,1:2|0:0,0:0:0:0:
224,228,81563,1,10,0:2:0:0:
330,0,81739,1,2,0:2:0:0:
424,216,81916,2,0,L|412:312,1,97.5999959790041,2|0,1:2|1:2,0:0:0:0:
238,94,82269,1,8,0:2:0:0:
124,331,82445,1,2,0:2:0:0:
124,331,82534,1,2,0:2:0:0:
124,331,82622,6,0,P|75:327|35:300,1,97.5999959790041,6|0,1:2|0:0,0:0:0:0:
210,113,82975,5,10,0:2:0:0:
303,358,83151,1,0,1:2:0:0:
208,79,83328,5,10,0:2:0:0:
74,360,83504,1,0,1:2:0:0:
46,23,83681,5,10,0:2:0:0:
192,336,83857,1,0,1:2:0:0:
273,3,84034,5,10,0:2:0:0:
0,222,84210,1,8,0:2:0:0:
354,189,84387,1,8,0:2:0:0:
354,189,85092,6,0,P|326:166|324:202,1,86.4000021093751,2|0,1:2|0:0,0:0:0:0:
335,183,85445,6,0,B|254:169|284:219|202:206,1,134.400001640625,6|0,1:2|0:0,0:0:0:0:
177,202,85798,1,8,0:2:0:0:
332,362,85975,2,0,L|320:267,1,89.60000109375,2|0,1:2|0:0,0:0:0:0:
218,111,86328,1,2,1:2:0:0:
218,111,86416,1,2,0:2:0:0:
218,111,86504,1,10,0:2:0:0:
134,298,86681,1,2,0:2:0:0:
319,152,86857,5,2,1:2:0:0:
225,360,87034,1,2,1:2:0:0:
117,161,87210,1,8,0:2:0:0:
332,362,87387,2,0,P|424:361|473:285,1,179.2000021875,2|2,1:2|1:2,0:0:0:0:
485,266,87828,1,2,0:2:0:0:
485,266,87916,1,10,0:2:0:0:
223,239,88092,1,2,1:2:0:0:
223,239,88181,1,0,1:2:0:0:
223,239,88269,6,0,L|235:334,1,89.60000109375,2|0,1:2|1:2,0:0:0:0:
396,136,88622,1,10,0:2:0:0:
458,371,88798,2,0,L|363:359,1,89.60000109375,0|2,1:2|0:2,0:0:0:0:
223,239,89151,2,0,L|318:227,1,89.60000109375,2|0,1:2|0:0,0:0:0:0:
143,41,89504,6,0,P|117:77|115:121,1,89.60000109375,6|0,1:2|0:0,0:0:0:0:
262,343,89857,1,2,1:2:0:0:
216,112,90034,1,10,0:2:0:0:
53,291,90210,1,2,1:2:0:0:
247,103,90387,1,10,0:2:0:0:
5,383,90739,5,10,0:2:0:0:
5,383,91092,6,0,L|150:366,1,134.400001640625,6|0,1:2|0:0,0:0:0:0:
171,360,91445,1,8,0:2:0:0:
49,190,91622,2,0,L|61:285,1,89.60000109375,2|0,1:2|0:0,0:0:0:0:
212,127,91975,1,2,1:2:0:0:
212,127,92063,1,2,0:2:0:0:
212,127,92151,1,10,0:2:0:0:
0,106,92328,1,2,0:2:0:0:
252,217,92504,5,2,1:2:0:0:
108,25,92681,1,2,1:2:0:0:
92,277,92857,1,8,0:2:0:0:
307,138,93034,2,0,B|422:124|367:195|493:181,1,179.2000021875,2|2,1:2|1:2,0:0:0:0:
509,182,93475,1,2,0:2:0:0:
509,182,93563,1,10,0:2:0:0:
304,312,93739,1,2,1:2:0:0:
304,312,93828,1,0,1:0:0:0:
304,312,93916,5,2,1:2:0:0:
355,57,94092,1,0,1:2:0:0:
316,339,94269,1,10,0:2:0:0:
142,107,94445,2,0,P|116:143|114:187,1,89.60000109375,0|2,1:2|0:2,0:0:0:0:
381,80,94798,2,0,P|378:35|353:0,1,89.60000109375,2|0,1:2|1:0,0:0:0:0:
478,279,95151,6,0,B|362:292|417:221|291:235,1,179.2000021875,6|2,1:2|1:2,0:0:0:0:
120,353,95681,1,10,0:2:0:0:
221,155,95857,1,0,1:2:0:0:
229,384,96034,2,0,L|217:289,1,89.60000109375,10|0,0:2|0:0,0:0:0:0:
328,100,96387,2,0,L|310:241,1,134.400001640625,10|0,0:2|0:0,0:0:0:0:
306,265,96739,6,0,P|264:292|215:295,1,97.5999959790041,14|0,0:2|1:0,0:0:0:0:
39,139,97092,5,8,0:0:0:0:
134,352,97269,1,2,1:2:0:0:
178,91,97445,5,8,0:0:0:0:
41,325,97622,1,2,1:2:0:0:
41,325,97710,1,2,0:2:0:0:
41,325,97798,5,10,0:2:0:0:
0,49,97975,1,2,1:2:0:0:
218,295,98151,6,0,L|320:282,1,97.5999959790041,10|2,0:2|1:2,0:0:0:0:
254,30,98504,5,8,0:0:0:0:
120,258,98681,1,2,1:2:0:0:
168,0,98857,5,8,0:0:0:0:
346,192,99034,1,2,1:2:0:0:
353,199,99122,1,2,0:2:0:0:
353,199,99210,5,10,0:2:0:0:
68,123,99387,1,2,1:2:0:0:
368,65,99563,6,0,L|355:162,1,97.5999959790041,10|0,0:2|1:0,0:0:0:0:
215,384,99916,5,10,0:2:0:0:
260,145,100092,1,0,1:0:0:0:
91,357,100269,5,10,0:2:0:0:
343,258,100445,1,2,1:2:0:0:
76,168,100622,5,8,0:0:0:0:
315,354,100798,1,2,1:2:0:0:
216,59,100975,5,8,0:0:0:0:
104,328,101151,1,2,1:2:0:0:
203,26,101328,5,10,0:2:0:0:
325,320,101504,1,2,1:2:0:0:
72,24,101681,5,10,0:2:0:0:
496,192,102034,5,10,0:2:0:0:
496,192,102387,6,0,L|483:291,1,97.5999959790041,14|0,0:2|1:0,0:0:0:0:
363,118,102739,5,8,0:0:0:0:
295,334,102916,1,2,1:2:0:0:
366,85,103092,5,8,0:0:0:0:
445,373,103269,1,2,1:2:0:0:
452,380,103357,1,2,0:2:0:0:
452,380,103445,5,10,0:2:0:0:
235,199,103622,1,2,1:2:0:0:
494,65,103798,6,0,L|506:162,1,97.5999959790041,10|2,0:2|1:2,0:0:0:0:
295,334,104151,5,8,0:0:0:0:
366,85,104328,1,2,1:2:0:0:
452,380,104504,5,8,0:0:0:0:
219,187,104681,1,2,1:2:0:0:
219,187,104769,1,2,0:2:0:0:
219,187,104857,5,10,0:2:0:0:
512,194,105034,1,2,1:2:0:0:
191,379,105210,5,2,1:2:0:0:
263,83,105387,1,0,1:0:0:0:
433,352,105563,1,10,0:2:0:0:
126,210,105739,1,0,1:0:0:0:
126,210,106092,1,10,0:2:0:0:
402,32,106269,1,0,1:0:0:0:
402,32,106357,1,0,1:0:0:0:
402,32,106445,6,0,P|429:73|433:121,1,83.1999994921875,6|2,1:2|0:2,0:0:0:0:
359,172,106975,2,0,B|405:127|462:122|512:163|512:163|500:199|459:207,1,237.600007250977,2|0,0:2|0:0,0:0:0:0:
465,206,109445,1,6,1:2:0:0:
256,192,109534,12,0,115445,1:0:0:0:
