osu file format v14

[General]
AudioFilename: loli.mp3
AudioLeadIn: 0
PreviewTime: 62505
Countdown: 0
SampleSet: Soft
StackLeniency: 0.7
Mode: 0
LetterboxInBreaks: 0
WidescreenStoryboard: 1

[Editor]
Bookmarks: 106445,109445,115445
DistanceSpacing: 1.4
BeatDivisor: 4
GridSize: 16
TimelineZoom: 1

[Metadata]
Title:Now On Stage!!
TitleUnicode:Now On Stage!!
Artist:nonet
ArtistUnicode:nonet
Creator:Basensorex
Version:Chiga's Hard!!
Source:ガールフレンド(♪)
Tags:girlfriend note onpu kari fumio murakami chloe lemaire kokomi shina mutsumi shigino momoko asahina haruka kazemachi sakura tange satomi minami tsuda yui ogura saori hayami rina sato minako kotobuki livetune ameba mugmomoko akane sakurai saya kagurazaka kaori nazuka mug chiga rosiie japanese pop video game kz
BeatmapID:3131518
BeatmapSetID:1275018

[Difficulty]
HPDrainRate:4
CircleSize:3.5
OverallDifficulty:6.5
ApproachRate:7.8
SliderMultiplier:1.4
SliderTickRate:1

[Events]
//Background and Video events
0,0,"loligirlfriend.png",0,0
//Break Periods
//Storyboard Layer 0 (Background)
//Storyboard Layer 1 (Fail)
//Storyboard Layer 2 (Pass)
//Storyboard Layer 3 (Foreground)
//Storyboard Layer 4 (Overlay)
//Storyboard Sound Samples

[TimingPoints]
740,352.941176470588,4,2,22,35,1,0
740,-200,4,2,22,35,0,0
6387,-166.666666666667,4,2,22,45,0,0
9210,-142.857142857143,4,2,22,70,0,0
11945,-142.857142857143,4,2,22,5,0,0
12034,-111.111111111111,4,2,22,65,0,0
15563,-125,4,2,22,65,0,0
15739,-111.111111111111,4,2,22,65,0,0
15916,-125,4,2,22,5,0,0
16092,-111.111111111111,4,2,22,65,0,0
17592,-125,4,2,22,5,0,0
17681,-111.111111111111,4,2,22,65,0,0
20769,-125,4,2,22,5,0,0
20857,-111.111111111111,4,2,22,65,0,0
21210,-125,4,2,22,65,0,0
21387,-125,4,2,22,65,0,0
21739,-166.666666666667,4,2,22,65,0,0
22269,-200,4,2,22,65,0,0
23328,-153.846153846153,4,2,22,45,0,0
33210,-142.857142857143,4,2,22,45,0,0
34534,-142.857142857143,4,2,22,5,0,0
34622,-133.333333333333,4,2,22,55,0,0
40181,-133.333333333333,4,2,22,5,0,0
40269,-133.333333333333,4,2,22,55,0,0
45916,-125,4,2,22,65,0,0
50769,-125,4,2,22,5,0,0
50857,-125,4,2,22,65,0,0
51563,-125,4,2,22,70,0,0
57122,-125,4,2,22,5,0,0
57210,-117.647058823529,4,2,22,70,0,0
62504,-133.333333333333,4,2,22,70,0,0
62769,-133.333333333333,4,2,22,5,0,0
62857,-105.263157894737,4,2,22,80,0,0
65592,-105.263157894737,4,2,22,5,0,0
65681,-105.263157894737,4,2,22,80,0,0
68416,-105.263157894737,4,2,22,5,0,0
68504,-105.263157894737,4,2,22,80,0,0
72651,-105.263157894737,4,2,22,5,0,0
72739,-105.263157894737,4,2,22,80,0,0
73710,-105.263157894737,4,2,22,5,0,0
73798,-133.333333333334,4,2,22,80,0,0
74063,-133.333333333334,4,2,22,5,0,0
74151,-105.263157894737,4,2,22,80,0,0
76887,-105.263157894737,4,2,22,5,0,0
76975,-105.263157894737,4,2,22,80,0,0
79710,-105.263157894737,4,2,22,5,0,0
79798,-105.263157894737,4,2,22,80,0,0
83945,-105.263157894737,4,2,22,5,0,0
84034,-105.263157894737,4,2,22,80,0,0
85357,-105.263157894737,4,2,22,5,0,0
85445,-117.64705882353,4,2,22,65,0,0
88975,-117.64705882353,4,2,22,65,0,0
89151,-117.64705882353,4,2,22,65,0,0
89328,-117.64705882353,4,2,22,5,0,0
89504,-117.64705882353,4,2,22,65,0,0
91004,-117.64705882353,4,2,22,5,0,0
91092,-117.64705882353,4,2,22,65,0,0
94181,-117.64705882353,4,2,22,5,0,0
94269,-117.64705882353,4,2,22,65,0,0
96651,-117.64705882353,4,2,22,5,0,0
96739,-105.263157894737,4,2,22,80,0,0
102298,-105.263157894737,4,2,22,5,0,0
102387,-105.263157894737,4,2,22,80,0,0
106445,-133.333333333334,4,2,22,65,0,0
106975,-166.666666666667,4,2,22,65,0,0
109357,-166.666666666667,4,2,22,5,0,0
109445,-166.666666666667,4,2,22,50,0,0
110151,-166.666666666667,4,2,22,50,0,0
110857,-166.666666666667,4,2,22,50,0,0
111563,-166.666666666667,4,2,22,50,0,0
112269,-166.666666666667,4,2,22,50,0,0
112975,-166.666666666667,4,2,22,50,0,0
113681,-166.666666666667,4,2,22,50,0,0
114387,-166.666666666667,4,2,22,50,0,0

[Colours]
Combo1 : 196,196,196
Combo2 : 255,128,128
Combo3 : 232,205,237
Combo4 : 47,125,168

[HitObjects]
455,4,740,6,0,P|391:23|375:88,1,140,6|2,1:2|0:2,0:0:0:0:
481,215,2151,2,0,P|476:183|466:133,2,70,2|2|2,1:2|0:2|0:2,0:0:0:0:
303,329,3563,2,0,P|311:274|328:190,1,140,2|2,1:2|1:2,0:0:0:0:
456,370,4975,6,0,P|493:362|516:324,1,70,2|2,1:2|1:2,0:0:0:0:
415,262,5681,2,0,P|378:270|355:308,1,70,2|2,1:2|1:2,0:0:0:0:
246,378,6387,6,0,L|157:360,1,83.9999974365235,6|2,1:2|0:2,0:0:0:0:
52,255,7092,2,0,L|141:237,1,83.9999974365235,6|2,1:2|1:2,0:0:0:0:
229,122,7798,2,0,P|236:79|206:37,1,83.9999974365235,6|2,1:2|0:2,0:0:0:0:
82,63,8504,2,0,P|75:106|105:148,1,83.9999974365235,6|0,1:2|0:0,0:0:0:0:
175,198,9034,1,2,0:2:0:0:
175,198,9122,1,2,0:2:0:0:
175,198,9210,6,0,L|164:257,1,48.9999985046387,10|0,0:2|1:2,0:0:0:0:
265,292,9563,2,0,L|256:243,1,48.9999985046387,10|0,0:2|1:2,0:0:0:0:
309,162,9916,2,0,P|335:151|376:162,1,48.9999985046387,10|0,0:2|1:2,0:0:0:0:
405,245,10269,2,0,P|431:256|472:245,1,48.9999985046387,10|0,0:2|1:2,0:0:0:0:
512,177,10622,5,8,0:2:0:0:
491,91,10798,1,8,0:2:0:0:
470,5,10975,1,8,0:2:0:0:
355,152,11504,1,0,1:2:0:0:
355,152,11592,1,0,1:2:0:0:
355,152,11681,2,0,P|313:140|286:100,1,73.4999977569581,10|0,0:2|0:0,0:0:0:0:
287,102,12034,6,0,L|263:234,1,125.999996154785,6|8,1:2|0:2,0:0:0:0:
180,298,12563,2,0,L|156:172,1,125.999996154785,2|2,1:2|1:2,0:0:0:0:
149,161,13004,1,2,0:2:0:0:
135,151,13092,2,0,P|110:142|61:156,1,62.9999980773926,10|2,0:2|0:2,0:0:0:0:
22,249,13445,6,0,L|84:232,2,62.9999980773926,2|2|8,1:2|1:2|0:2,0:0:0:0:
111,325,13975,2,0,L|236:356,1,125.999996154785,2|2,1:2|1:2,0:0:0:0:
306,301,14504,2,0,P|321:273|316:238,1,62.9999980773926,10|2,0:2|1:2,0:0:0:0:
305,228,14769,1,0,1:2:0:0:
291,217,14857,5,2,1:2:0:0:
406,133,15210,1,10,0:2:0:0:
406,133,15387,2,0,L|477:146,1,62.9999980773926,0|2,1:2|0:2,0:0:0:0:
327,68,15739,2,0,L|251:84,1,62.9999980773926,2|0,1:2|0:0,0:0:0:0:
398,0,16092,6,0,P|465:0|499:51,1,125.999996154785,6|2,1:2|1:2,0:0:0:0:
461,143,16622,2,0,L|448:213,1,62.9999980773926,10|2,0:2|1:2,0:0:0:0:
491,275,16975,1,10,0:2:0:0:
343,164,17328,2,0,L|362:272,1,94.499997116089,10|0,0:2|0:0,0:0:0:0:
352,275,17681,6,0,P|307:304|240:276,1,125.999996154785,6|8,1:2|0:2,0:0:0:0:
199,197,18210,2,0,P|153:167|83:190,1,125.999996154785,2|2,1:2|1:2,0:0:0:0:
77,208,18651,1,2,0:2:0:0:
72,223,18739,2,0,L|51:140,1,62.9999980773926,10|2,0:2|0:2,0:0:0:0:
11,87,19092,6,0,L|27:5,2,62.9999980773926,2|2|8,1:2|1:2|0:2,0:0:0:0:
56,161,19622,2,0,P|102:191|169:169,1,125.999996154785,2|2,1:2|1:2,0:0:0:0:
216,86,20151,2,0,P|209:58|167:30,1,62.9999980773926,10|2,0:2|0:2,0:0:0:0:
270,165,20504,6,0,L|371:148,1,94.499997116089,2|0,1:2|0:0,0:0:0:0:
380,157,20857,1,10,0:2:0:0:
425,69,21034,2,0,L|513:85,1,62.9999980773926,0|2,1:2|0:2,0:0:0:0:
356,5,21387,1,10,0:2:0:0:
280,66,21563,1,0,1:2:0:0:
280,66,21651,1,0,1:2:0:0:
280,66,21739,6,0,P|272:112|288:144,1,83.9999974365235,6|2,1:2|0:2,0:0:0:0:
364,183,22269,2,0,B|377:223|358:252|358:252|333:284|346:328,1,140,2|10,0:2|0:2,0:0:0:0:
488,351,23328,6,0,P|462:314|409:302,1,90.9999958343508,6|2,1:2|1:2,0:0:0:0:
358,231,23857,2,0,P|313:238|280:281,1,90.9999958343508,2|0,0:2|0:0,0:0:0:0:
309,355,24387,1,0,1:2:0:0:
179,306,24739,6,0,L|199:210,1,90.9999958343508,2|2,1:2|1:2,0:0:0:0:
104,183,25269,2,0,L|85:93,1,90.9999958343508,2|0,0:2|0:0,0:0:0:0:
143,23,25798,1,0,1:2:0:0:
271,115,26151,6,0,P|327:123|363:99,1,90.9999958343508,2|2,1:2|1:2,0:0:0:0:
429,41,26681,2,0,P|394:85|396:128,1,90.9999958343508,2|2,0:2|0:2,0:0:0:0:
485,137,27210,1,0,1:2:0:0:
485,137,27387,2,0,B|431:129|407:176|407:176|379:229|319:218,1,181.999991668702,2|0,3:2|0:0,0:0:0:0:
270,164,28269,1,0,1:2:0:0:
177,273,28622,2,0,P|174:250|167:209,1,45.4999979171754,2|0,1:2|3:2,0:0:0:0:
229,353,28975,6,0,P|282:373|328:353,2,90.9999958343508,2|2|2,1:2|1:2|1:2,0:0:0:0:
170,227,30034,1,2,1:2:0:0:
35,310,30387,2,0,P|42:261|48:212,1,90.9999958343508,2|2,1:2|1:2,0:0:0:0:
14,88,31092,1,2,1:2:0:0:
148,161,31445,1,2,1:2:0:0:
227,26,31798,6,0,P|267:0|324:11,1,90.9999958343508,2|0,1:2|1:2,0:0:0:0:
341,90,32328,2,0,P|381:116|438:105,1,90.9999958343508,2|0,0:2|0:0,0:0:0:0:
484,47,32857,1,0,1:2:0:0:
410,217,33210,6,0,L|424:285,2,48.9999985046387,8|0|0,0:2|1:2|1:2,0:0:0:0:
321,186,33739,2,0,L|340:90,1,97.9999970092774,12|0,0:2|1:2,0:0:0:0:
257,22,34269,2,0,P|211:16|172:38,1,73.4999977569581,10|0,0:2|0:0,0:0:0:0:
175,38,34622,6,0,P|168:107|207:141,1,105.000004005432,6|2,1:2|1:2,0:0:0:0:
287,149,35151,2,0,P|312:214|284:258,1,105.000004005432,2|0,0:2|0:0,0:0:0:0:
208,275,35681,2,0,P|183:267|150:261,1,52.5000020027161,0|0,1:2|3:2,0:0:0:0:
141,265,35945,1,0,3:2:0:0:
126,271,36034,6,0,P|101:336|129:380,1,105.000004005432,2|2,1:2|1:2,0:0:0:0:
215,384,36563,2,0,P|244:374|285:366,1,52.5000020027161,2|0,0:2|1:2,0:0:0:0:
323,294,36916,1,8,0:2:0:0:
323,294,37092,2,0,P|348:299|373:308,1,52.5000020027161,0|0,1:2|3:2,0:0:0:0:
263,223,37445,6,0,P|278:172|290:121,1,105.000004005432,2|2,1:2|1:2,0:0:0:0:
247,39,37975,2,0,P|226:25|176:26,1,52.5000020027161,2|0,0:2|1:2,0:0:0:0:
145,97,38328,2,0,P|124:111|74:110,1,52.5000020027161,2|8,0:2|1:2,0:0:0:0:
21,45,38681,1,2,3:2:0:0:
21,45,38769,1,0,3:2:0:0:
21,45,38857,6,0,P|11:105|1:165,1,105.000004005432,0|0,1:2|1:2,0:0:0:0:
99,204,39387,1,8,0:2:0:0:
99,204,39563,2,0,P|93:169|87:135,1,52.5000020027161,2|0,1:2|0:0,0:0:0:0:
151,74,39916,2,0,P|204:78|234:111,1,78.7500030040742,2|0,1:2|0:0,0:0:0:0:
238,94,40269,6,0,P|269:150|247:197,1,105.000004005432,2|2,1:2|1:2,0:0:0:0:
182,233,40798,2,0,P|169:264|173:296,1,52.5000020027161,2|0,0:2|1:2,0:0:0:0:
249,335,41151,2,0,P|262:366|258:398,1,52.5000020027161,2|0,0:2|1:2,0:0:0:0:
315,269,41504,1,2,3:2:0:0:
315,269,41592,1,0,3:2:0:0:
315,269,41681,6,0,P|365:259|431:243,2,105.000004005432,0|2|2,1:2|1:2|1:2,0:0:0:0:
246,199,42563,1,8,0:2:0:0:
246,199,42739,2,0,P|217:193|180:184,1,52.5000020027161,2|0,1:2|0:0,0:0:0:0:
303,119,43092,6,0,P|333:94|401:100,1,105.000004005432,6|0,1:2|1:2,0:0:0:0:
448,174,43622,2,0,P|480:191|514:187,1,52.5000020027161,0|0,0:0|1:2,0:0:0:0:
360,196,43975,1,0,0:0:0:0:
364,200,44151,2,0,P|362:226|372:250,1,52.5000020027161,0|0,1:2|3:2,0:0:0:0:
383,260,44416,1,0,3:2:0:0:
396,268,44504,6,0,P|391:296|388:330,1,52.5000020027161,0|0,1:2|0:0,0:0:0:0:
284,384,44857,2,0,P|281:357|276:332,1,52.5000020027161,0|8,1:2|0:2,0:0:0:0:
267,318,45122,1,8,0:2:0:0:
256,310,45210,1,8,1:2:0:0:
396,268,45563,1,8,1:2:0:0:
252,185,45916,6,0,P|224:186|188:212,1,56,4|0,1:2|1:2,0:0:0:0:
162,279,46269,1,2,1:2:0:0:
31,176,46622,2,0,P|34:244|73:277,1,112,10|2,0:2|1:2,0:0:0:0:
154,271,47151,1,2,1:2:0:0:
158,275,47239,1,0,1:2:0:0:
162,279,47328,6,0,L|148:201,1,56,2|0,1:2|1:2,0:0:0:0:
134,136,47681,1,2,1:2:0:0:
281,217,48034,2,0,L|302:96,1,112,10|2,0:2|1:2,0:0:0:0:
368,45,48563,1,0,1:0:0:0:
372,49,48651,1,0,1:0:0:0:
376,52,48739,6,0,P|403:60|425:81,1,56,2|0,1:2|1:2,0:0:0:0:
437,173,49092,1,2,1:2:0:0:
281,217,49445,2,0,P|303:160|365:143,1,112,10|2,0:2|1:2,0:0:0:0:
437,173,49975,1,2,1:2:0:0:
437,173,50063,1,0,1:2:0:0:
437,173,50151,6,0,L|500:161,1,56,0|2,1:2|1:2,0:0:0:0:
378,257,50504,2,0,L|393:339,1,84,0|0,1:2|0:0,0:0:0:0:
389,353,50857,2,0,P|358:370|325:367,1,56,10|2,0:2|1:2,0:0:0:0:
267,303,51210,1,10,0:2:0:0:
195,378,51387,6,0,P|155:334|172:270,1,112,2|0,1:2|0:0,0:0:0:0:
230,223,51916,2,0,P|270:179|253:115,1,112,10|2,0:2|1:2,0:0:0:0:
192,73,52445,1,0,1:2:0:0:
192,73,52622,2,0,L|126:86,1,56,10|0,0:2|0:0,0:0:0:0:
74,16,52975,6,0,B|113:48|113:48|82:111,1,112,2|8,1:2|0:2,0:0:0:0:
6,175,53504,1,0,0:0:0:0:
10,179,53681,2,0,L|-2:116,1,56,2|2,1:2|1:2,0:0:0:0:
106,201,54034,1,10,0:2:0:0:
44,276,54210,6,0,P|39:346|75:378,1,112,2|0,0:2|0:0,0:0:0:0:
176,361,54739,2,0,P|202:295|178:254,1,112,10|2,0:2|1:2,0:0:0:0:
106,201,55269,1,0,1:2:0:0:
106,201,55445,2,0,P|113:172|121:131,1,56,10|0,0:2|0:0,0:0:0:0:
198,51,55798,6,0,P|209:110|226:169,1,112,2|10,1:2|0:2,0:0:0:0:
312,211,56328,1,0,0:0:0:0:
312,211,56504,2,0,P|347:218|383:205,1,56,2|0,1:2|1:2,0:0:0:0:
416,128,56857,2,0,P|461:101|510:115,1,84,10|0,0:2|0:0,0:0:0:0:
497,118,57210,6,0,P|490:149|485:185,1,59.5000011348725,10|0,0:2|1:2,0:0:0:0:
406,276,57563,2,0,P|401:246|395:217,1,59.5000011348725,10|0,0:2|1:2,0:0:0:0:
498,323,57916,1,10,0:2:0:0:
498,323,58092,1,0,1:2:0:0:
408,379,58269,2,0,P|367:374|338:344,1,59.5000011348725,10|0,0:2|1:2,0:0:0:0:
306,270,58622,6,0,P|259:232|189:248,1,119.000002269745,10|10,0:2|0:2,0:0:0:0:
154,318,59151,1,0,1:2:0:0:
154,318,59328,2,0,P|195:335|222:328,1,59.5000011348725,10|0,0:2|1:2,0:0:0:0:
89,232,59681,2,0,P|57:241|11:248,1,59.5000011348725,10|0,0:2|1:2,0:0:0:0:
118,133,60034,6,0,B|122:99|143:81|143:81|178:83|203:111,1,119.000002269745,10|0,0:2|1:2,0:0:0:0:
266,39,60563,1,0,1:2:0:0:
270,43,60739,2,0,P|290:79|287:109,1,59.5000011348725,0|0,1:2|1:2,0:0:0:0:
246,171,61092,1,0,1:2:0:0:
250,175,61269,1,0,1:2:0:0:
336,236,61445,5,10,0:2:0:0:
413,169,61622,1,8,0:2:0:0:
444,267,61798,1,8,0:2:0:0:
484,79,62151,6,0,P|461:59|430:52,1,59.5000011348725,8|0,0:2|0:0,0:0:0:0:
421,56,62416,1,0,3:2:0:0:
415,64,62504,2,0,P|379:70|332:85,1,78.7500030040742,2|0,1:2|0:0,0:0:0:0:
326,76,62857,6,0,P|253:36|207:56,1,132.999996448517,6|8,1:2|0:2,0:0:0:0:
163,130,63387,1,2,0:2:0:0:
60,92,63563,2,0,P|77:156|92:228,1,132.999996448517,2|8,1:2|0:2,0:0:0:0:
83,313,64092,1,2,0:2:0:0:
198,266,64269,6,0,P|187:306|177:351,1,66.4999982242585,2|0,1:2|0:0,0:0:0:0:
264,379,64622,1,10,0:2:0:0:
264,379,64798,1,2,0:2:0:0:
325,301,64975,2,0,P|360:283|394:287,1,66.4999982242585,2|0,1:2|1:2,0:0:0:0:
500,239,65328,2,0,P|467:238|420:187,1,99.7499973363877,10|0,0:2|0:0,0:0:0:0:
428,182,65681,6,0,P|362:168|298:151,1,132.999996448517,2|8,1:2|0:2,0:0:0:0:
239,73,66210,1,2,0:2:0:0:
309,1,66387,2,0,P|366:0|407:63,1,132.999996448517,2|8,1:2|0:2,0:0:0:0:
351,131,66916,1,2,0:2:0:0:
448,184,67092,6,0,P|481:178|519:168,1,66.4999982242585,2|0,1:2|0:0,0:0:0:0:
397,269,67445,1,10,0:2:0:0:
397,269,67622,1,2,0:2:0:0:
309,201,67798,2,0,P|264:194|225:216,1,66.4999982242585,2|0,1:2|1:2,0:0:0:0:
200,292,68151,2,0,P|215:363|251:383,1,99.7499973363877,10|0,0:2|0:0,0:0:0:0:
245,371,68504,6,0,P|182:356|95:339,1,132.999996448517,6|10,1:2|0:2,0:0:0:0:
14,346,69034,1,0,0:0:0:0:
65,261,69210,2,0,P|67:208|-16:158,1,132.999996448517,2|10,1:2|0:2,0:0:0:0:
83,90,69739,1,2,0:2:0:0:
156,154,69916,6,0,P|199:150|227:126,1,66.4999982242585,2|0,1:2|0:0,0:0:0:0:
276,18,70269,2,0,P|279:52|287:95,1,66.4999982242585,10|0,0:2|0:0,0:0:0:0:
370,143,70622,2,0,P|358:214|351:287,1,132.999996448517,2|8,1:2|0:2,0:0:0:0:
406,357,71151,1,2,0:2:0:0:
502,335,71328,6,0,P|515:303|504:258,1,66.4999982242585,2|2,1:2|0:2,0:0:0:0:
438,212,71681,1,10,0:2:0:0:
351,274,71857,2,0,P|276:286|226:235,1,132.999996448517,2|2,0:2|1:2,0:0:0:0:
157,164,72387,2,0,P|147:207|134:262,1,99.7499973363877,10|0,0:2|0:0,0:0:0:0:
130,273,72739,5,10,0:2:0:0:
28,275,72916,1,8,0:2:0:0:
3,177,73092,1,10,0:2:0:0:
128,290,73445,6,0,P|176:311|241:276,1,99.7499973363877,10|0,0:2|0:0,0:0:0:0:
224,288,73798,2,0,P|217:250|211:199,1,78.7500030040742,2|0,1:2|0:0,0:0:0:0:
217,197,74151,6,0,P|281:149|332:166,1,132.999996448517,6|8,1:2|0:2,0:0:0:0:
376,244,74681,1,2,0:2:0:0:
449,181,74857,2,0,B|463:207|493:227|493:227|469:254|456:297,1,132.999996448517,2|8,1:2|0:2,0:0:0:0:
461,383,75387,1,2,0:2:0:0:
369,337,75563,6,0,P|338:347|290:360,1,66.4999982242585,2|0,1:2|0:0,0:0:0:0:
218,316,75916,1,10,0:2:0:0:
218,316,76092,1,2,0:2:0:0:
285,242,76269,2,0,P|292:209|276:166,1,66.4999982242585,2|0,1:2|1:2,0:0:0:0:
203,123,76622,2,0,P|179:91|201:21,1,99.7499973363877,10|0,0:2|0:0,0:0:0:0:
199,29,76975,6,0,P|264:40|337:49,1,132.999996448517,2|8,1:2|0:2,0:0:0:0:
432,34,77504,1,2,0:2:0:0:
384,130,77681,2,0,P|373:195|364:268,1,132.999996448517,2|8,1:2|0:2,0:0:0:0:
416,340,78210,1,2,1:2:0:0:
500,296,78387,6,0,P|515:259|503:215,1,66.4999982242585,14|0,0:2|1:2,0:0:0:0:
431,187,78739,1,10,0:2:0:0:
431,187,78916,1,2,1:2:0:0:
364,261,79092,2,0,P|334:276|296:274,1,66.4999982242585,10|0,0:2|1:2,0:0:0:0:
220,332,79445,2,0,P|182:319|164:254,1,99.7499973363877,10|0,0:2|0:0,0:0:0:0:
148,251,79798,6,0,P|187:178|240:176,1,132.999996448517,2|10,1:2|0:2,0:0:0:0:
309,104,80328,1,0,0:0:0:0:
232,38,80504,2,0,P|183:53|98:68,1,132.999996448517,2|10,1:2|0:2,0:0:0:0:
4,52,81034,1,2,0:2:0:0:
51,145,81210,6,0,P|77:208|46:273,1,132.999996448517,2|10,1:2|0:2,0:0:0:0:
111,343,81739,1,2,0:2:0:0:
182,274,81916,2,0,P|228:258|263:269,1,66.4999982242585,2|0,1:2|1:2,0:0:0:0:
342,191,82269,2,0,P|306:183|255:167,1,66.4999982242585,8|2,0:2|0:2,0:0:0:0:
262,162,82534,1,2,0:2:0:0:
248,147,82622,6,0,P|243:106|267:69,1,66.4999982242585,6|0,1:2|0:0,0:0:0:0:
329,33,82975,1,10,0:2:0:0:
393,104,83151,1,0,1:2:0:0:
485,65,83328,2,0,P|479:32|475:-7,1,66.4999982242585,10|0,0:2|1:2,0:0:0:0:
401,116,83681,2,0,P|410:165|416:226,1,99.7499973363877,10|0,0:2|0:0,0:0:0:0:
413,234,84034,5,10,0:2:0:0:
332,296,84211,1,8,0:2:0:0:
253,232,84387,1,8,0:2:0:0:
434,351,85092,6,0,P|473:313|523:336,1,99.7499973363877,2|0,1:2|0:0,0:0:0:0:
504,339,85445,6,0,P|412:321|381:312,1,119.000002269745,6|8,1:2|0:2,0:0:0:0:
282,243,85975,2,0,P|373:225|405:216,1,119.000002269745,2|2,1:2|1:2,0:0:0:0:
412,207,86416,1,2,0:2:0:0:
424,193,86504,2,0,P|429:150|417:122,1,59.5000011348725,10|2,0:2|0:2,0:0:0:0:
354,74,86857,6,0,P|348:45|354:16,2,59.5000011348725,2|2|8,1:2|1:2|0:2,0:0:0:0:
297,155,87387,2,0,P|244:193|171:171,1,119.000002269745,2|2,1:2|1:2,0:0:0:0:
136,111,87916,2,0,P|105:89|65:92,1,59.5000011348725,10|2,0:2|1:2,0:0:0:0:
67,92,88181,1,0,1:2:0:0:
54,104,88269,5,2,1:2:0:0:
234,25,88622,1,10,0:2:0:0:
234,25,88798,2,0,L|222:91,1,59.5000011348725,0|2,1:2|0:2,0:0:0:0:
324,154,89151,2,0,L|313:95,1,59.5000011348725,2|0,1:2|0:0,0:0:0:0:
230,179,89504,6,0,B|195:185|186:218|186:218|226:288,1,119.000002269745,6|2,1:2|1:2,0:0:0:0:
300,316,90034,2,0,P|338:304|355:282,1,59.5000011348725,10|2,0:2|1:2,0:0:0:0:
328,198,90387,1,10,0:2:0:0:
216,357,90739,2,0,P|173:345|120:337,1,89.2500017023087,10|0,0:2|0:0,0:0:0:0:
112,345,91092,6,0,P|54:341|24:292,1,119.000002269745,6|8,1:2|0:2,0:0:0:0:
18,195,91622,2,0,P|76:199|106:248,1,119.000002269745,2|2,1:2|1:2,0:0:0:0:
120,257,92063,1,2,0:2:0:0:
135,266,92151,2,0,P|146:238|160:208,1,59.5000011348725,10|2,0:2|0:2,0:0:0:0:
276,162,92504,6,0,P|312:169|335:192,2,59.5000011348725,2|2|8,1:2|1:2|0:2,0:0:0:0:
189,110,93034,2,0,P|166:50|205:-1,1,119.000002269745,2|2,1:2|1:2,0:0:0:0:
276,50,93563,2,0,P|310:44|342:36,1,59.5000011348725,10|2,0:2|1:2,0:0:0:0:
381,130,93916,6,0,P|434:138|483:151,1,89.2500017023087,2|0,1:2|0:0,0:0:0:0:
480,160,94269,1,10,0:2:0:0:
412,232,94445,2,0,P|399:270|406:300,1,59.5000011348725,0|2,1:2|0:2,0:0:0:0:
463,361,94798,1,2,1:2:0:0:
369,383,94975,1,0,1:0:0:0:
369,383,95063,1,0,1:0:0:0:
369,383,95151,6,0,B|342:386|312:368|312:368|288:352|244:358,1,119.000002269745,6|2,1:2|1:2,0:0:0:0:
146,321,95681,2,0,P|181:304|200:267,1,59.5000011348725,10|0,0:2|1:2,0:0:0:0:
176,197,96034,1,10,0:2:0:0:
53,345,96387,2,0,P|44:301|33:251,1,89.2500017023087,10|0,0:2|0:0,0:0:0:0:
17,247,96739,6,0,P|-8:193|40:126,1,132.999996448517,14|8,0:2|0:0,0:0:0:0:
46,46,97269,2,0,P|80:35|125:55,1,66.4999982242585,2|8,1:2|0:0,0:0:0:0:
169,126,97622,1,2,1:2:0:0:
169,126,97710,1,2,0:2:0:0:
169,126,97798,2,0,P|203:118|243:105,1,66.4999982242585,10|2,0:2|1:2,0:0:0:0:
297,25,98151,6,0,B|331:18|354:46|354:46|331:110,1,132.999996448517,10|8,0:2|0:0,0:0:0:0:
367,205,98681,2,0,P|395:227|443:227,1,66.4999982242585,2|8,1:2|0:0,0:0:0:0:
492,163,99034,1,2,1:2:0:0:
492,163,99122,1,2,0:2:0:0:
492,163,99210,2,0,P|464:141|416:141,1,66.4999982242585,10|2,0:2|1:2,0:0:0:0:
373,64,99563,6,0,P|306:81|294:155,1,132.999996448517,10|10,0:2|0:2,0:0:0:0:
367,205,100092,1,0,1:0:0:0:
284,262,100269,2,0,P|251:255|214:245,1,66.4999982242585,10|2,0:2|1:2,0:0:0:0:
315,354,100622,1,8,0:0:0:0:
205,348,100798,6,0,B|169:310|169:310|221:243,1,132.999996448517,2|2,1:2|1:2,0:0:0:0:
103,173,101328,2,0,L|120:256,1,66.4999982242585,10|2,0:2|1:2,0:0:0:0:
75,319,101681,1,10,0:2:0:0:
238,148,102034,2,0,L|215:256,1,99.7499973363877,10|0,0:2|0:0,0:0:0:0:
223,265,102387,6,0,P|264:298|346:281,1,132.999996448517,14|8,0:2|0:0,0:0:0:0:
431,328,102916,2,0,P|446:298|438:252,1,66.4999982242585,2|8,1:2|0:0,0:0:0:0:
381,181,103269,1,2,1:2:0:0:
381,181,103357,1,2,0:2:0:0:
381,181,103445,2,0,P|414:176|457:169,1,66.4999982242585,10|2,0:2|1:2,0:0:0:0:
313,95,103798,6,0,P|272:62|190:79,1,132.999996448517,10|8,0:2|0:0,0:0:0:0:
106,29,104328,2,0,P|90:72|100:106,1,66.4999982242585,2|8,1:2|0:0,0:0:0:0:
169,170,104681,1,2,1:2:0:0:
169,170,104769,1,2,0:2:0:0:
169,170,104857,2,0,P|183:215|173:247,1,66.4999982242585,10|2,0:2|1:2,0:0:0:0:
80,323,105210,6,0,B|32:293|32:293|72:221,1,132.999996448517,2|10,1:2|0:2,0:0:0:0:
3,143,105739,1,0,1:0:0:0:
179,233,106092,1,10,0:2:0:0:
244,166,106269,1,0,1:0:0:0:
244,166,106357,1,0,1:0:0:0:
244,166,106445,5,6,1:2:0:0:
256,192,106622,12,6,109445,1:2:0:0:
256,192,109534,12,0,115445,1:0:0:0:
