osu file format v14

[General]
AudioFilename: audio.mp3
AudioLeadIn: 0
PreviewTime: 62416
Countdown: 0
SampleSet: Soft
StackLeniency: 0.3
Mode: 2
LetterboxInBreaks: 0
WidescreenStoryboard: 0

[Editor]
Bookmarks: 84416,217122
DistanceSpacing: 3
BeatDivisor: 4
GridSize: 8
TimelineZoom: 1

[Metadata]
Title:Now On Stage!!
TitleUnicode:Now On Stage!!
Artist:nonet
ArtistUnicode:nonet
Creator:Amamya
Version:Gyutto!!
Source:ガールフレンド(♪)
Tags:girlfriend note onpu kari fumio murakami chloe lemaire kokomi shina mutsumi shigino momoko asahina haruka kazemachi akane sakurai saya kagurazaka kaori nazuka sakura tange satomi sato minami tsuda yui ogura saori hayami rina minako kotobuki livetune ameba mug buckfro alexdemon- verti chickenbible secre -luminate japanese pop jpop j-pop video game kz riana
BeatmapID:2589688
BeatmapSetID:1245885

[Difficulty]
HPDrainRate:6
CircleSize:3.8
OverallDifficulty:9.3
ApproachRate:9.3
SliderMultiplier:1.8
SliderTickRate:2

[Events]
//Background and Video events
0,0,"kari.jpg",0,0
//Break Periods
//Storyboard Layer 0 (Background)
//Storyboard Layer 1 (Fail)
//Storyboard Layer 2 (Pass)
//Storyboard Layer 3 (Foreground)
//Storyboard Layer 4 (Overlay)
//Storyboard Sound Samples

[TimingPoints]
740,352.941176470588,4,2,21,60,1,0
1269,-125,4,2,21,60,0,0
5769,-125,4,2,22,60,0,0
6387,-125,4,2,21,60,0,0
9210,-125,4,2,21,70,0,0
11328,-100,4,2,21,70,0,0
12034,-90.9090909090909,4,2,22,80,0,0
21563,-90.9090909090909,4,2,23,80,0,0
21739,-90.9090909090909,4,2,22,80,0,0
23328,-125,4,2,2,50,0,0
23681,-125,4,2,24,50,0,0
24739,-125,4,2,4,50,0,0
25092,-125,4,2,24,50,0,0
25445,-125,4,2,6,50,0,0
25622,-125,4,2,24,50,0,0
26151,-125,4,2,5,50,0,0
26328,-125,4,2,24,50,0,0
27563,-125,4,2,8,50,0,0
27739,-125,4,2,24,50,0,0
28269,-125,4,2,11,50,0,0
28445,-125,4,2,24,50,0,0
28975,-125,4,2,3,50,0,0
29328,-125,4,2,24,50,0,0
30387,-125,4,2,6,50,0,0
30739,-125,4,2,24,50,0,0
31798,-125,4,2,2,50,0,0
32151,-125,4,2,24,50,0,0
33210,-125,4,2,5,50,0,0
33387,-125,4,2,1,50,0,0
33563,-125,4,2,22,50,0,0
33739,-125,4,2,2,50,0,0
34092,-125,4,2,24,50,0,0
34622,-111.111111111111,4,2,2,60,0,0
34975,-111.111111111111,4,2,22,60,0,0
36034,-111.111111111111,4,2,4,60,0,0
36387,-111.111111111111,4,2,21,60,0,0
36739,-111.111111111111,4,2,6,60,0,0
37269,-111.111111111111,4,2,24,60,0,0
37445,-111.111111111111,4,2,5,60,0,0
37975,-111.111111111111,4,2,21,60,0,0
38681,-111.111111111111,4,2,22,60,0,0
38857,-111.111111111111,4,2,8,60,0,0
39034,-111.111111111111,4,2,21,60,0,0
39563,-111.111111111111,4,2,11,60,0,0
39739,-111.111111111111,4,2,21,60,0,0
40269,-111.111111111111,4,2,3,60,0,0
40622,-111.111111111111,4,2,21,60,0,0
41504,-111.111111111111,4,2,22,60,0,0
41681,-111.111111111111,4,2,6,60,0,0
42034,-111.111111111111,4,2,21,60,0,0
43092,-111.111111111111,4,2,2,60,0,0
43269,-111.111111111111,4,2,5,60,0,0
44504,-111.111111111111,4,2,15,60,0,0
44681,-111.111111111111,4,2,13,60,0,0
44857,-111.111111111111,4,2,11,60,0,0
45034,-111.111111111111,4,2,6,60,0,0
45210,-111.111111111111,4,2,13,60,0,0
45563,-111.111111111111,4,2,11,60,0,0
45916,-111.111111111111,4,2,22,65,0,0
46269,-100,4,2,22,65,0,0
51563,-100,4,2,21,65,0,0
62504,-100,4,2,22,65,0,0
62857,-90.9090909090909,4,2,2,85,0,1
63209,-90.9090909090909,4,2,21,85,0,1
63563,-90.9090909090909,4,2,4,85,0,1
64092,-90.9090909090909,4,2,21,85,0,1
64269,-90.9090909090909,4,2,5,85,0,1
64622,-90.9090909090909,4,2,21,85,0,1
64975,-90.9090909090909,4,2,2,85,0,1
65328,-90.9090909090909,4,2,21,85,0,1
65681,-90.9090909090909,4,2,6,85,0,1
66210,-90.9090909090909,4,2,21,85,0,1
66387,-90.9090909090909,4,2,25,85,0,1
66563,-90.9090909090909,4,2,21,85,0,1
67092,-90.9090909090909,4,2,1,85,0,1
67445,-90.9090909090909,4,2,2,85,0,1
67798,-90.9090909090909,4,2,6,85,0,1
68151,-90.9090909090909,4,2,22,85,0,1
68504,-90.9090909090909,4,2,5,85,0,1
68857,-90.9090909090909,4,2,8,85,0,1
69210,-90.9090909090909,4,2,6,85,0,1
69563,-90.9090909090909,4,2,25,85,0,1
69739,-90.9090909090909,4,2,21,85,0,1
69916,-90.9090909090909,4,2,4,85,0,1
70092,-90.9090909090909,4,2,4,85,0,1
70269,-90.9090909090909,4,2,6,85,0,1
70445,-90.9090909090909,4,2,6,85,0,1
70622,-90.9090909090909,4,2,1,85,0,1
70798,-90.9090909090909,4,2,15,85,0,1
71151,-90.9090909090909,4,2,21,85,0,1
71328,-90.9090909090909,4,2,3,85,0,1
71504,-90.9090909090909,4,2,21,85,0,1
71681,-90.9090909090909,4,2,4,85,0,1
71857,-90.9090909090909,4,2,5,85,0,1
72210,-90.9090909090909,4,2,6,85,0,1
72387,-90.9090909090909,4,2,8,85,0,1
72475,-90.9090909090909,4,2,22,85,0,1
72739,-90.9090909090909,4,2,26,85,0,1
72916,-90.9090909090909,4,2,15,85,0,1
73092,-90.9090909090909,4,2,17,85,0,1
73445,-90.9090909090909,4,2,18,85,0,1
73798,-90.9090909090909,4,2,22,85,0,1
74151,-90.9090909090909,4,2,2,85,0,1
74681,-90.9090909090909,4,2,21,85,0,1
74857,-90.9090909090909,4,2,4,85,0,1
75387,-90.9090909090909,4,2,21,85,0,1
75563,-90.9090909090909,4,2,5,85,0,1
75916,-90.9090909090909,4,2,21,85,0,1
76269,-90.9090909090909,4,2,2,85,0,1
76622,-90.9090909090909,4,2,21,85,0,1
76975,-90.9090909090909,4,2,6,85,0,1
77504,-90.9090909090909,4,2,21,85,0,1
77681,-90.9090909090909,4,2,25,85,0,1
77857,-90.9090909090909,4,2,21,85,0,1
78387,-90.9090909090909,4,2,1,85,0,1
78739,-90.9090909090909,4,2,2,85,0,1
78916,-90.9090909090909,4,2,21,85,0,1
79092,-90.9090909090909,4,2,4,85,0,1
79445,-90.9090909090909,4,2,22,85,0,1
79534,-90.9090909090909,4,2,22,85,0,1
79798,-90.9090909090909,4,2,5,85,0,1
80151,-90.9090909090909,4,2,8,85,0,1
80504,-90.9090909090909,4,2,6,85,0,1
80857,-90.9090909090909,4,2,10,85,0,1
81034,-90.9090909090909,4,2,21,85,0,1
81210,-90.9090909090909,4,2,4,85,0,1
81386,-90.9090909090909,4,2,4,85,0,1
81563,-90.9090909090909,4,2,6,85,0,1
81739,-90.9090909090909,4,2,21,85,0,1
81916,-90.9090909090909,4,2,1,85,0,1
82092,-90.9090909090909,4,2,21,85,0,1
82445,-90.9090909090909,4,2,22,85,0,1
82622,-90.9090909090909,4,2,3,85,0,1
82975,-90.9090909090909,4,2,5,85,0,1
83328,-90.9090909090909,4,2,8,85,0,1
83681,-90.9090909090909,4,2,11,85,0,1
83769,-90.9090909090909,4,2,22,85,0,1
84034,-90.9090909090909,4,2,26,85,0,1
84210,-90.9090909090909,4,2,15,85,0,1
84386,-90.9090909090909,4,2,17,85,0,1
84739,-90.9090909090909,4,2,22,85,0,0
85445,-90.9090909090909,4,2,22,80,0,0
88092,-90.9090909090909,4,2,22,65,0,0
88269,-90.9090909090909,4,2,22,80,0,0
93739,-90.9090909090909,4,2,22,65,0,0
93916,-90.9090909090909,4,2,22,80,0,0
96739,-74.0740740740741,4,2,24,90,0,0
97092,-74.0740740740741,4,2,22,90,0,0
102387,-74.0740740740741,4,2,24,90,0,0
102739,-74.0740740740741,4,2,22,90,0,0
106269,-74.0740740740741,4,2,23,90,0,0
106445,-74.0740740740741,4,2,22,90,0,0

[Colours]
Combo1 : 255,255,128
Combo2 : 249,216,104
Combo3 : 255,180,79
Combo4 : 251,176,188

[HitObjects]
315,252,387,6,0,L|438:237,1,90
124,179,740,1,6,1:2:0:0:
418,158,1269,2,0,L|513:153,1,72,2|2,2:2|1:2,0:0:0:0:
220,107,1975,1,2,2:2:0:0:
368,95,2151,6,0,L|207:80,1,144,2|2,1:2|2:2,0:0:0:0:
145,97,2681,1,2,2:2:0:0:
294,48,2857,1,2,1:2:0:0:
43,271,3563,5,2,1:2:0:0:
337,250,4092,2,0,L|432:245,1,72,2|2,2:2|1:2,0:0:0:0:
277,186,4798,1,2,2:2:0:0:
122,148,4975,6,0,L|217:140,1,72,2|0,1:2|0:0,0:0:0:0:
358,94,5328,2,0,L|257:83,1,72,2|2,1:2|1:2,0:0:0:0:
193,141,5681,1,2,1:2:0:0:
135,160,5769,1,2,1:2:0:0:
138,205,5857,1,2,1:2:0:0:
203,207,5945,1,2,1:2:0:0:
289,244,6034,1,2,1:2:0:0:
343,254,6122,1,2,1:2:0:0:
339,306,6210,1,2,1:2:0:0:
280,310,6298,1,2,1:2:0:0:
108,328,6387,6,0,P|63:269|115:246,1,144,6|2,3:2|1:2,0:0:0:0:
444,274,7092,2,0,L|272:271,1,144,2|2,3:2|3:2,0:0:0:0:
373,216,7622,1,2,2:2:0:0:
100,206,7798,6,0,P|70:158|152:118,1,144,2|2,3:2|1:2,0:0:0:0:
432,136,8504,2,0,P|462:88|380:48,1,144,2|0,3:2|1:0,0:0:0:0:
244,77,9034,2,0,L|282:86,1,36,2|2,1:2|1:2,0:0:0:0:
496,198,9210,5,10,3:2:0:0:
377,212,9387,1,0,3:0:0:0:
137,212,9563,1,10,3:2:0:0:
259,230,9739,1,0,1:0:0:0:
495,314,9916,5,10,3:2:0:0:
373,324,10092,1,0,3:0:0:0:
108,295,10269,1,10,3:2:0:0:
37,277,10357,1,2,1:2:0:0:
31,203,10445,1,2,1:2:0:0:
92,162,10534,1,2,1:2:0:0:
251,133,10622,5,2,3:2:0:0:
490,126,10798,1,10,3:2:0:0:
251,133,10975,1,10,3:2:0:0:
231,294,11328,6,0,L|126:266,1,90,2|2,0:2|3:2,0:0:0:0:
207,228,11592,1,0,3:0:0:0:
24,158,11681,2,0,L|93:71,1,90,10|0,3:2|1:0,0:0:0:0:
410,42,12034,6,0,P|466:50|396:76,1,198.000006042481,6|8,3:2|3:2,0:0:0:0:
85,252,12563,2,0,P|122:333|226:333,1,198.000006042481,2|2,3:2|3:2,0:0:0:0:
284,183,13004,1,2,2:2:0:0:
453,141,13092,2,0,L|472:30,1,99.0000030212403,2|2,3:2|2:2,0:0:0:0:
157,124,13445,6,0,L|287:109,1,99.0000030212403,2|2,3:2|3:2,0:0:0:0:
85,57,13798,1,8,3:2:0:0:
338,281,13975,2,0,P|450:272|479:189,1,198.000006042481,2|2,3:2|3:2,0:0:0:0:
444,125,14416,1,2,2:2:0:0:
230,139,14504,2,0,L|230:22,1,99.0000030212403,10|2,3:2|3:2,0:0:0:0:
466,82,14857,6,0,L|358:91,1,99.0000030212403,2|0,3:2|3:0,0:0:0:0:
64,187,15210,2,0,L|131:195,1,49.5000015106202,10|0,3:2|0:0,0:0:0:0:
330,215,15387,1,0,3:0:0:0:
176,238,15563,1,2,0:2:0:0:
450,274,15739,1,2,3:2:0:0:
159,266,16092,6,0,P|216:341|319:335,1,198.000006042481,2|2,3:2|3:2,0:0:0:0:
479,254,16622,1,10,3:2:0:0:
390,220,16798,1,2,3:2:0:0:
138,201,16975,2,0,L|189:98,1,99.0000030212403,2|0,3:2|1:0,0:0:0:0:
433,108,17328,2,0,L|382:5,1,99.0000030212403,10|0,3:2|1:0,0:0:0:0:
47,81,17681,6,0,P|103:89|33:115,1,198.000006042481,6|8,3:2|3:2,0:0:0:0:
326,292,18210,2,0,P|418:292|382:200,1,198.000006042481,2|2,3:2|3:2,0:0:0:0:
337,156,18651,1,2,2:2:0:0:
140,171,18739,2,0,L|121:60,1,99.0000030212403,2|2,3:2|1:2,0:0:0:0:
407,146,19092,6,0,L|277:131,1,99.0000030212403,2|0,3:2|3:0,0:0:0:0:
472,87,19445,1,8,3:2:0:0:
204,128,19622,2,0,P|142:105|194:12,1,198.000006042481,2|2,3:2|3:2,0:0:0:0:
244,31,20063,1,2,2:2:0:0:
41,187,20151,2,0,L|57:88,1,99.0000030212403,8|2,3:2|1:2,0:0:0:0:
297,108,20504,5,2,3:2:0:0:
178,124,20681,1,0,3:0:0:0:
414,247,20857,1,10,3:2:0:0:
110,292,21034,2,0,L|242:269,1,99.0000030212403,0|2,3:0|1:2,0:0:0:0:
473,224,21387,1,10,3:2:0:0:
386,197,21563,1,8,3:3:0:0:
330,217,21651,1,8,3:3:0:0:
110,95,21739,6,0,B|312:104,1,198.000006042481,12|0,3:3|0:0,0:0:0:0:
143,139,22269,2,0,P|240:169|126:212,1,297.000009063721,2|0,1:2|0:0,0:0:0:0:
278,46,22975,2,0,L|307:168,1,99.0000030212403,0|0,3:0|0:0,0:0:0:0:
26,188,23328,6,0,L|172:172,1,144,6|2,3:2|3:2,0:0:0:0:
300,255,23857,2,0,L|153:239,1,144,2|0,2:2|0:0,0:0:0:0:
73,282,24387,1,0,3:0:0:0:
349,126,24739,6,0,L|203:110,1,144,2|2,3:2|3:2,0:0:0:0:
290,163,25269,1,2,2:2:0:0:
433,213,25445,2,0,L|286:197,1,144,2|0,3:2|3:0,0:0:0:0:
59,119,26151,6,0,L|-13:260,1,144,2|2,3:2|3:2,0:0:0:0:
146,273,26681,1,2,2:2:0:0:
440,220,27034,2,0,L|278:198,1,144,2|2,2:2|1:2,0:0:0:0:
367,164,27563,5,2,3:2:0:0:
190,142,27916,1,0,3:0:0:0:
13,118,28269,1,2,3:2:0:0:
278,56,28622,2,0,L|278:152,1,72,2|0,3:2|1:0,0:0:0:0:
423,213,28975,6,0,L|278:241,1,144,2|2,3:2|3:2,0:0:0:0:
21,283,29681,2,0,L|166:311,1,144,2|2,3:2|3:2,0:0:0:0:
421,260,30387,5,2,3:2:0:0:
267,241,30739,1,2,3:2:0:0:
117,167,31092,1,2,3:2:0:0:
261,151,31445,1,2,3:2:0:0:
20,249,31798,6,0,L|88:98,1,144,2|0,3:2|3:0,0:0:0:0:
235,170,32328,2,0,L|167:19,1,144,2|0,1:2|0:0,0:0:0:0:
254,8,32857,1,0,3:0:0:0:
510,213,33210,5,10,3:2:0:0:
379,248,33387,1,2,3:2:0:0:
505,289,33563,1,8,3:3:0:0:
152,300,33739,6,0,L|318:284,1,144,2|0,3:2|3:0,0:0:0:0:
432,339,34269,2,0,P|473:315|428:288,1,108,8|0,3:2|0:0,0:0:0:0:
286,201,34622,6,0,L|454:187,1,161.999995056153,6|2,3:2|3:2,0:0:0:0:
303,119,35151,2,0,L|135:105,1,161.999995056153,2|0,1:2|0:0,0:0:0:0:
42,162,35681,1,0,3:0:0:0:
143,204,35857,1,2,1:2:0:0:
197,197,35945,1,2,1:2:0:0:
348,303,36034,6,0,L|172:295,1,161.999995056153,2|2,3:2|3:2,0:0:0:0:
333,218,36563,2,0,L|157:210,1,161.999995056153,2|8,1:2|3:2,0:0:0:0:
251,170,37092,2,0,L|252:67,1,80.9999975280763,0|2,3:0|1:2,0:0:0:0:
291,55,37357,1,2,1:2:0:0:
447,146,37445,6,0,P|509:169|456:210,1,161.999995056153,2|0,3:2|3:0,0:0:0:0:
303,269,37975,2,0,P|250:228|313:204,1,161.999995056153,2|2,1:2|1:2,0:0:0:0:
390,180,38504,1,8,3:2:0:0:
139,205,38681,1,2,1:2:0:0:
12,182,38857,6,0,L|17:89,1,80.9999975280763,2|0,3:2|1:0,0:0:0:0:
145,62,39210,1,0,3:0:0:0:
371,150,39563,2,0,L|486:279,1,161.999995056153,2|2,3:2|3:2,0:0:0:0:
25,233,40269,6,0,L|201:227,1,161.999995056153,2|2,3:2|3:2,0:0:0:0:
321,188,40798,1,2,1:2:0:0:
81,108,41151,1,2,1:2:0:0:
293,39,41504,1,2,1:2:0:0:
340,72,41592,1,2,1:2:0:0:
493,129,41681,6,0,L|481:243,1,80.9999975280763,2|0,3:2|0:0,0:0:0:0:
340,274,42034,2,0,L|226:286,1,80.9999975280763,2|0,3:2|1:0,0:0:0:0:
118,230,42387,2,0,L|4:242,1,80.9999975280763,2|8,3:2|3:2,0:0:0:0:
190,155,42739,2,0,L|304:167,1,80.9999975280763,2|0,3:2|1:0,0:0:0:0:
506,280,43092,6,0,L|339:252,2,161.999995056153,2|0|0,3:2|3:0|3:0,0:0:0:0:
339,346,44151,2,0,L|332:250,1,80.9999975280763,0|0,3:0|1:0,0:0:0:0:
181,210,44504,5,2,3:2:0:0:
274,151,44681,1,2,1:2:0:0:
132,113,44857,1,2,3:2:0:0:
268,45,45034,1,10,3:2:0:0:
218,38,45122,1,8,3:2:0:0:
64,29,45210,1,10,3:2:0:0:
483,187,45563,1,2,3:2:0:0:
196,282,45916,5,6,3:2:0:0:
462,254,46092,1,2,3:2:0:0:
196,282,46269,2,0,L|193:192,1,90,2|2,0:2|1:2,0:0:0:0:
350,118,46622,1,10,3:3:0:0:
194,58,46975,2,0,L|81:68,1,90,8|2,3:3|3:2,0:0:0:0:
393,309,47328,5,6,3:3:0:0:
112,332,47504,1,2,3:2:0:0:
393,309,47681,2,0,L|381:216,1,90,10|0,3:3|1:0,0:0:0:0:
222,122,48034,1,10,3:2:0:0:
396,185,48387,2,0,L|283:195,1,90,10|0,3:3|1:0,0:0:0:0:
36,312,48739,5,6,3:3:0:0:
305,271,48916,1,2,3:2:0:0:
36,312,49092,2,0,L|48:219,1,90,2|0,3:2|1:0,0:0:0:0:
210,178,49445,1,10,3:2:0:0:
430,163,49798,1,10,3:3:0:0:
344,146,49975,1,10,3:2:0:0:
86,186,50151,5,12,3:3:0:0:
344,146,50328,1,2,1:2:0:0:
86,186,50504,1,8,3:3:0:0:
256,317,50857,2,0,L|242:209,1,90,8|2,3:3|3:2,0:0:0:0:
85,188,51210,1,10,3:3:0:0:
243,209,51387,1,2,1:2:0:0:
299,203,51475,1,0,1:0:0:0:
489,157,51563,6,0,L|323:142,1,135,6|0,3:2|0:0,0:0:0:0:
354,59,51916,1,10,3:2:0:0:
56,82,52269,2,0,L|146:92,1,90,2|0,3:2|3:0,0:0:0:0:
297,0,52622,2,0,L|209:17,1,90,10|0,3:2|1:0,0:0:0:0:
477,203,52975,6,0,L|295:182,1,180,2|8,3:2|3:2,0:0:0:0:
24,318,53681,2,0,L|38:210,1,90,2|2,3:2|3:2,0:0:0:0:
196,173,54034,1,10,3:2:0:0:
42,117,54210,1,2,1:2:0:0:
97,109,54298,1,0,1:0:0:0:
272,184,54387,6,0,L|413:153,1,135,8|0,3:3|0:0,0:0:0:0:
392,72,54739,1,10,3:2:0:0:
147,99,55092,2,0,L|237:109,1,90,2|0,3:2|3:0,0:0:0:0:
373,165,55445,2,0,L|285:184,1,90,10|0,3:2|1:0,0:0:0:0:
16,332,55798,6,0,L|198:311,1,180,2|10,3:2|3:2,0:0:0:0:
478,249,56504,1,2,3:2:0:0:
316,265,56681,1,0,3:0:0:0:
478,249,56857,1,10,3:2:0:0:
167,110,57210,6,0,L|172:219,1,90,14|0,3:2|3:0,0:0:0:0:
420,192,57563,2,0,L|523:177,1,90,10|0,3:2|3:0,0:0:0:0:
213,150,57916,2,0,L|323:137,1,90,10|0,3:2|3:0,0:0:0:0:
39,79,58269,2,0,L|149:66,1,90,10|0,3:2|3:0,0:0:0:0:
433,14,58622,6,0,L|312:27,1,90,10|0,3:2|3:0,0:0:0:0:
84,246,58975,2,0,L|184:231,1,90,10|0,3:2|3:0,0:0:0:0:
428,237,59328,2,0,L|328:221,1,90,10|0,3:2|3:0,0:0:0:0:
18,163,59681,2,0,L|135:144,1,90,10|0,3:2|3:0,0:0:0:0:
344,162,60034,6,0,L|181:141,1,135,14|0,3:2|0:0,0:0:0:0:
210,88,60387,1,0,3:0:0:0:
346,77,60563,1,0,3:0:0:0:
16,170,60739,1,0,3:0:0:0:
152,189,60916,1,8,3:3:0:0:
431,283,61092,1,0,3:0:0:0:
483,263,61181,1,0,0:0:0:0:
307,292,61269,1,8,3:3:0:0:
250,275,61357,1,0,0:0:0:0:
493,180,61445,5,10,3:2:0:0:
257,149,61622,1,10,3:2:0:0:
18,125,61798,1,2,3:2:0:0:
220,112,62151,1,2,3:2:0:0:
420,157,62504,6,0,L|433:0,1,135,2|0,1:2|0:0,0:0:0:0:
252,241,62857,6,0,L|47:224,1,198.000006042481,6|8,3:3|3:2,0:0:0:0:
202,144,63387,1,2,1:2:0:0:
492,192,63563,2,0,L|361:183,1,99.0000030212403,2|0,3:2|3:0,0:0:0:0:
223,125,63916,1,8,3:2:0:0:
376,103,64092,1,2,1:2:0:0:
105,195,64269,6,0,P|61:132|113:122,1,148.50000453186,2|0,3:2|0:0,0:0:0:0:
188,126,64622,1,8,3:2:0:0:
448,64,64798,1,0,1:0:0:0:
188,126,64975,1,2,3:2:0:0:
323,97,65151,1,0,3:0:0:0:
76,311,65328,2,0,L|207:317,1,99.0000030212403,8|0,3:2|1:0,0:0:0:0:
439,215,65681,6,0,L|223:206,1,198.000006042481,2|8,3:2|3:2,0:0:0:0:
381,167,66210,1,2,1:2:0:0:
40,297,66387,2,0,L|161:290,1,99.0000030212403,2|0,3:2|3:0,0:0:0:0:
302,259,66739,1,8,3:2:0:0:
137,182,66916,1,2,1:2:0:0:
454,69,67092,6,0,L|284:50,1,148.50000453186,2|0,3:2|0:0,0:0:0:0:
112,154,67445,2,0,L|229:91,1,99.0000030212403,10|0,3:2|1:0,0:0:0:0:
357,199,67798,2,0,L|470:152,1,99.0000030212403,2|0,3:2|3:0,0:0:0:0:
179,152,68151,1,10,3:2:0:0:
115,195,68239,1,2,1:2:0:0:
179,230,68328,1,2,1:2:0:0:
437,226,68504,6,0,L|441:115,1,99.0000030212403,2|0,3:2|1:0,0:0:0:0:
188,323,68857,2,0,L|55:308,1,99.0000030212403,10|0,3:2|1:0,0:0:0:0:
257,215,69210,2,0,L|379:215,1,99.0000030212403,2|0,3:2|3:0,0:0:0:0:
113,128,69563,1,10,3:2:0:0:
263,42,69739,1,2,1:2:0:0:
110,45,69916,6,0,L|107:160,1,99.0000030212403,2|0,3:2|1:0,0:0:0:0:
433,209,70269,2,0,L|308:194,1,99.0000030212403,10|0,3:2|1:0,0:0:0:0:
80,291,70622,1,2,3:2:0:0:
190,277,70798,1,0,3:0:0:0:
301,259,70975,1,8,3:2:0:0:
139,207,71151,1,2,1:2:0:0:
448,124,71328,5,2,3:2:0:0:
303,97,71504,1,2,1:2:0:0:
448,124,71681,1,10,3:2:0:0:
210,186,71857,2,0,L|72:169,1,99.0000030212403,2|0,1:2|3:2,0:0:0:0:
389,108,72210,1,2,3:2:0:0:
111,173,72387,1,10,3:2:0:0:
175,185,72475,1,2,1:2:0:0:
238,195,72563,1,2,1:2:0:0:
301,207,72651,1,2,1:2:0:0:
498,300,72739,5,2,3:2:0:0:
253,323,72916,1,10,3:2:0:0:
17,331,73092,1,2,3:2:0:0:
338,188,73445,1,10,3:2:0:0:
25,22,73798,2,0,P|48:115|123:129,1,148.50000453186,2|0,1:2|0:0,0:0:0:0:
298,210,74151,6,0,P|372:263|308:303,1,198.000006042481,6|8,3:3|3:2,0:0:0:0:
148,253,74681,1,2,1:2:0:0:
407,119,74857,2,0,L|358:214,1,99.0000030212403,2|0,3:2|3:0,0:0:0:0:
192,68,75210,1,8,3:2:0:0:
358,31,75387,1,2,1:2:0:0:
106,111,75563,6,0,P|45:166|83:180,1,148.50000453186,2|0,3:2|0:0,0:0:0:0:
137,178,75916,1,10,3:2:0:0:
386,174,76092,1,2,1:2:0:0:
142,198,76269,2,0,L|182:87,1,99.0000030212403,2|0,3:2|3:0,0:0:0:0:
472,130,76622,2,0,L|440:33,1,99.0000030212403,10|0,3:2|1:0,0:0:0:0:
166,342,76975,6,0,P|72:328|44:206,1,198.000006042481,2|8,3:2|3:2,0:0:0:0:
193,200,77504,1,2,1:2:0:0:
451,110,77681,2,0,L|345:108,1,99.0000030212403,2|0,3:2|3:0,0:0:0:0:
189,56,78034,1,8,3:2:0:0:
352,108,78210,1,2,3:2:0:0:
38,316,78387,6,0,L|226:296,1,148.50000453186,10|0,3:2|0:0,0:0:0:0:
404,201,78739,1,10,3:2:0:0:
114,162,78916,1,2,3:2:0:0:
401,131,79092,2,0,L|437:24,1,99.0000030212403,10|0,3:2|3:0,0:0:0:0:
262,78,79445,1,10,3:2:0:0:
214,35,79534,1,2,1:2:0:0:
262,0,79622,1,2,1:2:0:0:
11,153,79798,6,0,L|124:161,1,99.0000030212403,2|0,3:2|1:0,0:0:0:0:
375,69,80151,2,0,L|371:180,1,99.0000030212403,10|0,3:2|1:0,0:0:0:0:
203,182,80504,2,0,L|199:293,1,99.0000030212403,2|0,3:2|3:0,0:0:0:0:
370,304,80857,1,10,3:2:0:0:
208,328,81034,1,2,1:2:0:0:
488,279,81210,6,0,L|368:219,1,99.0000030212403,2|0,3:2|1:0,0:0:0:0:
79,175,81563,1,10,3:2:0:0:
246,134,81739,1,2,1:2:0:0:
79,175,81916,2,0,L|82:31,1,99.0000030212403,2|0,3:2|3:0,0:0:0:0:
339,110,82269,1,8,3:2:0:0:
178,136,82445,1,2,1:2:0:0:
113,142,82534,1,2,1:2:0:0:
310,225,82622,5,2,3:2:0:0:
440,243,82798,1,0,1:0:0:0:
199,64,82975,1,10,3:2:0:0:
71,107,83151,1,0,3:0:0:0:
310,225,83328,1,10,3:2:0:0:
440,243,83504,1,0,3:0:0:0:
199,345,83681,1,10,3:2:0:0:
137,337,83769,1,2,1:2:0:0:
136,279,83857,1,2,1:2:0:0:
194,263,83945,1,2,1:2:0:0:
491,190,84034,5,10,3:2:0:0:
255,191,84210,1,2,3:2:0:0:
12,157,84387,1,2,3:2:0:0:
312,94,84739,1,2,2:2:0:0:
134,244,84916,1,2,1:2:0:0:
193,254,85004,1,2,1:2:0:0:
350,277,85092,2,0,L|470:272,1,99.0000030212403,2|0,1:2|3:0,0:0:0:0:
127,55,85445,6,0,P|56:64|121:149,1,198.000006042481,4|8,3:2|3:2,0:0:0:0:
333,256,85975,2,0,P|393:237|319:164,1,198.000006042481,2|2,3:2|3:2,0:0:0:0:
326,241,86416,1,2,1:2:0:0:
480,162,86504,2,0,L|487:50,1,99.0000030212403,10|2,3:2|1:2,0:0:0:0:
125,183,86857,6,0,L|255:168,1,99.0000030212403,2|0,3:2|3:0,0:0:0:0:
70,120,87210,1,8,3:2:0:0:
306,340,87387,2,0,P|263:360|165:260,1,198.000006042481,2|2,3:2|3:2,0:0:0:0:
158,241,87828,1,2,1:2:0:0:
331,196,87916,2,0,L|347:97,1,99.0000030212403,10|10,3:2|3:2,0:0:0:0:
18,81,88269,6,0,L|126:90,1,99.0000030212403,10|0,3:3|3:0,0:0:0:0:
355,162,88622,2,0,L|350:279,1,99.0000030212403,10|6,3:2|3:2,0:0:0:0:
105,267,88975,1,2,1:2:0:0:
345,302,89151,1,2,3:2:0:0:
19,161,89504,6,0,L|234:143,1,198.000006042481,2|2,3:2|3:2,0:0:0:0:
394,45,90034,2,0,L|396:153,1,99.0000030212403,10|2,3:2|3:2,0:0:0:0:
157,315,90387,1,2,3:2:0:0:
316,310,90563,1,2,1:2:0:0:
60,208,90739,2,0,L|178:218,1,99.0000030212403,2|0,3:2|1:0,0:0:0:0:
480,78,91092,6,0,P|424:86|494:112,1,198.000006042481,6|8,3:2|3:2,0:0:0:0:
186,292,91622,2,0,P|265:263|204:213,1,198.000006042481,2|2,3:2|3:2,0:0:0:0:
202,208,92063,1,2,1:2:0:0:
372,171,92151,2,0,L|391:60,1,99.0000030212403,10|2,3:2|1:2,0:0:0:0:
105,146,92504,6,0,L|235:131,1,99.0000030212403,2|2,3:2|3:2,0:0:0:0:
55,83,92857,1,8,3:2:0:0:
308,128,93034,2,0,P|373:98|299:100,1,198.000006042481,2|2,3:2|3:2,0:0:0:0:
293,15,93475,1,2,1:2:0:0:
490,189,93563,2,0,L|474:90,1,99.0000030212403,10|10,3:2|3:2,0:0:0:0:
90,156,93916,5,10,3:3:0:0:
209,172,94092,1,0,3:0:0:0:
450,204,94269,2,0,L|330:232,1,99.0000030212403,10|4,3:2|3:2,0:0:0:0:
102,254,94622,1,2,1:2:0:0:
353,226,94798,1,2,3:2:0:0:
353,226,94975,1,2,1:2:0:0:
110,95,95151,6,0,B|312:104,1,198.000006042481,2|0,3:2|3:0,0:0:0:0:
35,164,95681,1,10,3:2:0:0:
190,192,95857,1,2,3:2:0:0:
35,164,96034,1,6,3:2:0:0:
272,47,96387,1,10,3:2:0:0:
31,177,96739,6,0,L|33:39,1,121.500000463486,4|0,3:2|0:0,0:0:0:0:
351,196,97092,2,0,L|350:40,1,121.500000463486,8|2,3:2|3:2,0:0:0:0:
31,177,97445,1,8,3:2:0:0:
188,192,97622,1,2,3:2:0:0:
268,195,97710,1,2,1:2:0:0:
435,203,97798,1,10,3:2:0:0:
188,192,97975,1,2,3:2:0:0:
435,324,98151,6,0,L|435:196,1,121.500000463486,10|0,3:2|3:0,0:0:0:0:
22,77,98504,2,0,L|181:79,1,121.500000463486,8|2,3:2|3:2,0:0:0:0:
472,85,98857,1,8,3:2:0:0:
309,85,99034,1,2,3:2:0:0:
230,82,99122,1,2,1:2:0:0:
391,86,99210,2,0,L|392:226,1,121.500000463486,10|2,3:2|3:2,0:0:0:0:
29,46,99563,6,0,L|18:179,1,121.500000463486,10|0,3:2|3:0,0:0:0:0:
279,172,99916,1,10,3:2:0:0:
117,171,100092,1,2,3:2:0:0:
361,172,100269,1,8,3:2:0:0:
18,167,100445,2,0,L|152:166,1,121.500000463486,2|8,3:2|3:2,0:0:0:0:
465,105,100798,6,0,L|344:107,1,121.500000463486,2|8,3:2|3:2,0:0:0:0:
94,103,101151,1,2,3:2:0:0:
263,24,101328,2,0,L|111:24,1,121.500000463486,10|2,3:2|3:2,0:0:0:0:
398,71,101681,2,0,P|398:139|281:183,1,182.250000695229,6|0,3:2|0:0,0:0:0:0:
88,199,102034,2,0,P|138:291|231:284,1,182.250000695229,10|0,3:2|0:0,0:0:0:0:
480,175,102387,6,0,L|478:44,1,121.500000463486,14|2,3:2|3:2,0:0:0:0:
167,197,102740,2,0,L|168:41,1,121.500000463486,8|2,3:2|3:2,0:0:0:0:
488,179,103093,1,8,3:2:0:0:
330,193,103270,1,2,3:2:0:0:
250,196,103358,1,2,1:2:0:0:
83,205,103446,1,8,3:2:0:0:
330,193,103623,1,2,3:2:0:0:
83,326,103799,6,0,L|83:198,1,121.500000463486,10|2,3:2|3:2,0:0:0:0:
374,198,104152,2,0,L|371:25,1,121.500000463486,8|2,3:2|3:2,0:0:0:0:
56,90,104505,1,8,3:2:0:0:
213,90,104682,1,2,3:2:0:0:
257,90,104769,1,2,1:2:0:0:
106,91,104858,2,0,L|96:237,1,121.500000463486,8|2,3:2|3:2,0:0:0:0:
371,78,105211,6,0,L|506:79,1,121.500000463486,2|0,3:2|3:0,0:0:0:0:
256,189,105564,1,10,3:2:0:0:
373,189,105739,1,2,3:2:0:0:
125,190,105916,1,2,1:2:0:0:
16,183,106092,1,10,3:2:0:0:
125,190,106269,1,8,3:3:0:0:
180,195,106357,1,8,3:3:0:0:
341,189,106445,6,0,P|429:230|342:252,1,243.000000926971,6|2,3:2|1:2,0:0:0:0:
186,267,106975,1,2,1:2:0:0:
256,192,107063,12,4,109445,3:2:0:0:
