osu file format v14

[General]
AudioFilename: Hoshizora e Kakaru Hashi.mp3
AudioLeadIn: 0
PreviewTime: 76158
Countdown: 0
SampleSet: Soft
StackLeniency: 0
Mode: 0
LetterboxInBreaks: 0
WidescreenStoryboard: 0

[Editor]
DistanceSpacing: 1
BeatDivisor: 4
GridSize: 32
TimelineZoom: 2

[Metadata]
Title:Hoshizora e Kakaru Hashi
TitleUnicode:星空へ架かる橋
Artist:nomico
ArtistUnicode:のみこ
Creator:H-Scene
Version:Insane
Source:星空へ架かる橋
Tags:Japanese Hakusui3820 畑亜貴 Hata Aki 上松範康 Agematsu Noriyasu 藤間仁 Fujima Hitoshi Visual Novel Vocals Galgame 美少女ゲーム Eroge Video Game feng A Bridge to the Starry Skies OP Opening Short Version 中津川初 Nakatsugawa Ui 日向伊吹 Hinata Ibuki 藤堂つむぎ Toudou Tsumugi 藤堂こより Toudou Koyori 酒井陽菜 Sakai Hina 神本円佳 Koumoto Madoka
BeatmapID:2640360
BeatmapSetID:1270554

[Difficulty]
HPDrainRate:6.2
CircleSize:3.6
OverallDifficulty:7.4
ApproachRate:8.8
SliderMultiplier:1.9
SliderTickRate:1

[Events]
//Background and Video events
0,0,"Ui.jpg",0,0
//Break Periods
//Storyboard Layer 0 (Background)
//Storyboard Layer 1 (Fail)
//Storyboard Layer 2 (Pass)
//Storyboard Layer 3 (Foreground)
//Storyboard Layer 4 (Overlay)
//Storyboard Sound Samples

[TimingPoints]
-1087,600,4,2,1,40,1,0
20513,-166.666666666667,4,2,1,40,0,0
21563,-166.666666666667,4,2,1,5,0,0
22613,-166.666666666667,4,2,1,40,0,0
22913,-500,4,2,1,40,0,0
23063,-500,4,2,1,5,0,0
26213,-500,4,2,1,40,0,0
26482,352.941176470588,4,2,1,60,1,0
26482,-100,4,2,1,60,0,1
26526,-100,4,2,1,60,0,0
27099,-100,4,2,3,60,0,0
27187,-100,4,2,2,60,0,0
27364,-100,4,2,1,60,0,0
28423,-100,4,2,3,60,0,0
28599,-100,4,2,2,60,0,0
28776,-100,4,2,1,60,0,0
29923,-100,4,2,2,60,0,0
30187,-100,4,2,1,60,0,0
31334,-100,4,2,3,60,0,0
31423,-100,4,2,2,60,0,0
31599,-100,4,2,1,60,0,0
31776,-166.666666666667,4,2,1,60,0,0
32040,-166.666666666667,4,2,1,5,0,0
32129,-100,4,2,1,60,0,0
32746,-100,4,2,3,60,0,0
32834,-100,4,2,2,60,0,0
33011,-100,4,2,1,60,0,0
33893,-100,4,2,3,60,0,0
34070,-100,4,2,1,60,0,0
34246,-125,4,2,1,60,0,0
34423,-125,4,2,2,60,0,0
34599,-200,4,2,2,60,0,0
34864,-200,4,2,2,5,0,0
34952,-142.857142857143,4,2,5,60,0,0
35129,-142.857142857143,4,2,2,60,0,0
38746,-142.857142857143,4,2,1,60,0,0
38834,-142.857142857143,4,2,2,60,0,0
39011,-142.857142857143,4,2,1,60,0,0
39540,-142.857142857143,4,2,2,60,0,0
40246,-333.333333333333,4,2,1,60,0,0
40511,-333.333333333333,4,2,1,5,0,0
40599,-125,4,2,1,60,0,0
40952,-125,4,2,2,60,0,0
41129,-125,4,2,1,60,0,0
41305,-125,4,2,2,60,0,0
41658,-50,4,2,1,60,0,0
41702,-50,4,2,1,5,0,0
41834,-100,4,2,1,60,0,0
42011,-125,4,2,1,60,0,0
42364,-125,4,2,2,60,0,0
42540,-125,4,2,1,60,0,0
42717,-125,4,2,2,60,0,0
43070,-50,4,2,1,60,0,0
43114,-50,4,2,1,5,0,0
43246,-100,4,2,1,60,0,0
43423,-125,4,2,1,60,0,0
43776,-125,4,2,2,60,0,0
43952,-125,4,2,1,60,0,0
44129,-125,4,2,2,60,0,0
44481,-50,4,2,1,60,0,0
44526,-50,4,2,1,5,0,0
44658,-100,4,2,1,60,0,0
44834,-125,4,2,1,60,0,0
45187,-125,4,2,2,60,0,0
45364,-125,4,2,1,60,0,0
45893,-50,4,2,1,60,0,0
45937,-50,4,2,1,5,0,0
46070,-100,4,2,1,60,0,0
46246,-125,4,2,1,60,0,0
46599,-125,4,2,2,60,0,0
46776,-125,4,2,1,60,0,0
46952,-125,4,2,2,60,0,0
47305,-50,4,2,1,60,0,0
47349,-50,4,2,1,5,0,0
47658,-125,4,2,1,60,0,0
48011,-125,4,2,2,60,0,0
48187,-125,4,2,1,60,0,0
48364,-125,4,2,2,60,0,0
48717,-50,4,2,1,60,0,0
48761,-50,4,2,1,5,0,0
49070,-125,4,2,1,60,0,0
49423,-125,4,2,2,60,0,0
49599,-125,4,2,1,60,0,0
49776,-125,4,2,2,60,0,0
50129,-50,4,2,1,60,0,0
50173,-50,4,2,1,5,0,0
50481,-100,4,2,1,60,0,0
50834,-100,4,2,2,60,0,0
50923,-100,4,2,3,60,0,0
51011,-100,4,2,1,60,0,0
51364,-100,4,2,2,60,0,0
51717,-100,4,2,3,60,0,0
51893,-125,4,2,1,60,0,0
52246,-125,4,2,2,60,0,0
52423,-125,4,2,1,60,0,0
52599,-125,4,2,2,60,0,0
52952,-50,4,2,1,60,0,0
52996,-50,4,2,1,5,0,0
53305,-125,4,2,1,60,0,0
53658,-125,4,2,2,60,0,0
53834,-125,4,2,1,60,0,0
54011,-125,4,2,2,60,0,0
54187,-125,4,2,1,60,0,0
54364,-50,4,2,1,60,0,0
54408,-50,4,2,1,5,0,0
54717,-125,4,2,1,60,0,0
55070,-125,4,2,2,60,0,0
55423,-111.111111111111,4,2,2,60,0,0
55599,-111.111111111111,4,2,3,60,0,0
55776,-111.111111111111,4,2,1,60,0,0
56129,-100,4,2,1,60,0,0
56481,-100,4,2,2,60,0,0
56923,-100,4,2,3,60,0,0
57011,-100,4,2,2,60,0,0
57540,-100,4,2,1,60,0,0
57805,-100,4,2,1,5,0,0
57893,-100,4,2,1,60,0,0
58158,-100,4,2,3,60,0,0
58246,-100,4,2,1,60,0,0
58864,-100,4,2,1,5,0,0
58952,-100,4,2,1,60,0,0
59658,-100,4,2,2,60,0,0
59923,-100,4,2,1,60,0,0
60629,-100,4,2,1,5,0,0
60717,-100,4,2,1,60,0,0
61070,-100,4,2,2,60,0,0
61246,-100,4,2,1,60,0,0
61687,-100,4,2,2,60,0,0
62305,-125,4,2,2,60,0,0
62834,-166.666666666667,4,2,2,60,0,0
63187,-100,4,2,1,60,0,0
63540,-125,4,2,1,60,0,0
64070,-100,4,2,1,60,0,0
65658,-166.666666666667,4,2,1,60,0,0
65923,-166.666666666667,4,2,1,5,0,0
66011,-100,4,2,2,60,0,0
66364,-125,4,2,1,60,0,0
66629,-125,4,2,1,5,0,0
66717,-125,4,2,2,60,0,0
66893,-125,4,2,2,5,0,0
66981,-125,4,2,2,60,0,0
67158,-125,4,2,2,5,0,0
67246,-125,4,2,2,60,0,0
67334,-125,4,2,2,5,0,0
67423,-100,4,2,1,60,0,0
67687,-100,4,2,1,5,0,0
67776,-100,4,2,1,60,0,0
69452,-100,4,2,3,60,0,0
69540,-100,4,2,1,60,0,0
70864,-100,4,2,3,60,0,0
70952,-100,4,2,2,60,0,0
71040,-100,4,2,3,60,0,0
71129,-100,4,2,1,60,0,0
72364,-100,4,2,2,60,0,0
72540,-100,4,2,1,60,0,0
73070,-100,4,2,2,60,0,0
73511,-100,4,2,3,60,0,0
73776,-100,4,2,2,60,0,0
74217,-100,4,2,3,60,0,0
74305,-100,4,2,2,60,0,0
74481,-100,4,2,1,60,0,0
75364,-100,4,2,2,60,0,0
75540,-125,4,2,2,60,0,0
75805,-125,4,2,2,5,0,0
75893,-55.5555555555556,4,2,4,60,0,0
76070,-55.5555555555556,4,2,4,5,0,0
76246,-166.666666666667,4,2,1,40,0,0
76511,-166.666666666667,4,2,1,5,0,0
76599,-100,4,2,3,50,0,0
76687,-100,4,2,3,55,0,0
76776,-100,4,2,3,60,0,0
76864,-100,4,2,3,65,0,0
76952,-50,4,2,5,70,0,1
76996,-50,4,2,5,5,0,0
77129,-100,4,2,2,70,0,0
77305,-83.3333333333333,4,2,1,75,0,1
78540,-83.3333333333333,4,2,3,75,0,1
78717,-83.3333333333333,4,2,1,75,0,1
79334,-83.3333333333333,4,2,2,75,0,1
79599,-83.3333333333333,4,2,1,75,0,1
80393,-83.3333333333333,4,2,1,5,0,1
80481,-83.3333333333333,4,2,1,75,0,1
80834,-83.3333333333333,4,2,2,75,0,1
81011,-83.3333333333333,4,2,1,75,0,1
81364,-83.3333333333333,4,2,3,75,0,1
81540,-83.3333333333333,4,2,1,75,0,1
82334,-83.3333333333333,4,2,3,75,0,1
82423,-83.3333333333333,4,2,1,75,0,1
82599,-166.666666666667,4,2,1,75,0,1
82864,-166.666666666667,4,2,1,5,0,1
82952,-83.3333333333333,4,2,1,75,0,1
83217,-83.3333333333333,4,2,1,5,0,1
83305,-83.3333333333333,4,2,1,75,0,1
84540,-83.3333333333333,4,2,2,75,0,1
84893,-83.3333333333333,4,2,1,75,0,1
85423,-83.3333333333333,4,2,2,75,0,1
85687,-83.3333333333333,4,2,3,75,0,1
85776,-100,4,2,1,75,0,0
86040,-100,4,2,1,5,0,0
86129,-100,4,2,1,75,0,0
86393,-100,4,2,3,75,0,0
86481,-100,4,2,1,75,0,0
87011,-83.3333333333333,4,2,1,75,0,1
87055,-83.3333333333333,4,2,1,75,0,0
87276,-83.3333333333333,4,2,1,5,0,0
87364,-83.3333333333333,4,2,2,75,0,0
87893,-83.3333333333333,4,2,3,75,0,0
88070,-83.3333333333333,4,2,2,75,0,0
88599,-83.3333333333333,4,2,1,75,0,1
89834,-83.3333333333333,4,2,3,75,0,1
90011,-83.3333333333333,4,2,1,75,0,1
90629,-83.3333333333333,4,2,2,75,0,1
90893,-83.3333333333333,4,2,1,75,0,1
91687,-83.3333333333333,4,2,1,5,0,1
91776,-83.3333333333333,4,2,1,75,0,1
92129,-83.3333333333333,4,2,2,75,0,1
92305,-83.3333333333333,4,2,1,75,0,1
92658,-83.3333333333333,4,2,3,75,0,1
92834,-83.3333333333333,4,2,1,75,0,1
93629,-83.3333333333333,4,2,3,75,0,1
93717,-83.3333333333333,4,2,1,75,0,1
93893,-166.666666666667,4,2,1,75,0,1
94158,-166.666666666667,4,2,1,5,0,1
94246,-83.3333333333333,4,2,1,75,0,1
94511,-83.3333333333333,4,2,1,5,0,1
94599,-83.3333333333333,4,2,1,75,0,1
95834,-83.3333333333333,4,2,2,75,0,1
96187,-83.3333333333333,4,2,1,75,0,1
96717,-125,4,2,2,75,0,1
96893,-125,4,2,1,75,0,1
97070,-100,4,2,1,75,0,0
97599,-100,4,2,3,75,0,0
97776,-100,4,2,1,75,0,0
98305,-100,4,2,3,75,0,0
98393,-100,4,2,2,75,0,0
98481,-100,4,2,1,75,0,0
99099,-100,4,2,3,75,0,0
99187,-100,4,2,2,75,0,0
99276,-100,4,2,3,75,0,0
99364,-100,4,2,1,75,0,0
99893,-83.3333333333333,4,2,1,75,0,1
100158,-83.3333333333333,4,2,1,5,0,1
100246,-83.3333333333333,4,2,2,75,0,1
100511,-83.3333333333333,4,2,3,75,0,1
100599,-83.3333333333333,4,2,1,75,0,1
101217,-83.3333333333333,4,2,3,75,0,1
101305,-83.3333333333333,4,2,1,75,0,0
102540,-83.3333333333333,4,2,3,75,0,0
102717,-100,4,2,1,60,0,1
102761,-100,4,2,1,60,0,0
102981,-100,4,2,1,5,0,0
103070,-100,4,2,1,60,0,0
107481,-100,4,2,3,60,0,0
107658,-100,4,2,2,60,0,0
108011,-100,4,2,1,60,0,0
108452,-100,4,2,1,5,0,0
108540,-100,4,2,1,60,0,0
108629,-100,4,2,1,5,0,0
108717,-166.666666666667,4,2,2,60,0,0
108981,-166.666666666667,4,2,3,60,0,0
109070,-100,4,2,1,60,0,0
109158,-100,4,2,1,5,0,0
109246,-100,4,2,1,60,0,0
109334,-100,4,2,1,5,0,0
109423,-166.666666666667,4,2,2,60,0,0
109687,-166.666666666667,4,2,3,60,0,0
109776,-100,4,2,1,60,0,0
110481,-100,4,2,2,60,0,0
110570,-100,4,2,3,60,0,0
110658,-100,4,2,1,60,0,0
111099,-100,4,2,1,5,0,0
111187,-100,4,2,1,60,0,0
112599,-142.857142857143,4,2,1,60,0,0
112952,-142.857142857143,4,2,4,60,0,0
113129,-142.857142857143,4,2,1,60,0,0
113305,-142.857142857143,4,2,2,60,0,0
113481,-142.857142857143,4,2,1,60,0,0
115246,-142.857142857143,4,2,4,60,0,0
115423,-142.857142857143,4,2,1,60,0,0
115776,-142.857142857143,4,2,2,60,0,0
115952,-142.857142857143,4,2,1,60,0,0
116393,-142.857142857143,4,2,3,60,0,0
116481,-142.857142857143,4,2,1,60,0,0
117011,-142.857142857143,4,2,2,60,0,0
117187,-142.857142857143,4,2,4,60,0,0
117364,-142.857142857143,4,2,1,60,0,0
117540,-142.857142857143,4,2,2,60,0,0
117717,-142.857142857143,4,2,1,60,0,0
118246,-83.3333333333333,4,2,1,75,0,1
119658,-100,4,2,1,60,0,0
120717,-100,4,2,3,60,0,0
120893,-500,4,2,1,60,0,0
120981,-500,4,2,1,5,0,0
121776,-500,4,2,1,60,0,0
121952,-100,4,2,1,60,0,0
123209,521.739130434783,4,2,1,40,1,0
123209,-100,4,2,4,40,0,0
123339,705.882352941176,4,2,1,40,1,0
123339,-100,4,2,4,40,0,0
125809,-100,4,2,1,5,0,0

[Colours]
Combo1 : 170,170,170
Combo2 : 115,185,255
Combo3 : 255,108,182
Combo4 : 255,140,85

[HitObjects]
512,103,20513,6,0,P|473:99|441:73,1,56.9999982604981,2|0,0:0|0:0,0:0:0:0:
401,34,21113,1,2,0:0:0:0:
473,0,21413,2,0,P|426:68|453:207,1,227.999993041992,2|0,0:0|0:0,0:0:0:0:
486,276,22913,6,0,P|408:216|295:184,1,209,2|0,3:2|0:0,0:0:0:0:
303,185,26482,6,0,P|315:132|290:76,1,95,6|0,0:0|0:0,0:0:0:0:
139,138,26834,2,0,B|186:115|229:139|229:139|220:163|193:179,1,142.5,8|0,0:0|3:0,0:0:0:0:
213,184,27187,2,0,P|266:196|322:171,1,95,2|2,0:0|3:2,0:0:0:0:
310,169,27452,1,2,0:0:0:0:
314,153,27540,1,8,0:0:0:0:
246,37,27717,1,2,0:0:0:0:
213,184,27893,6,0,P|225:279|229:375,1,190,2|8,3:2|0:0,0:0:0:0:
100,303,28423,1,2,3:2:0:0:
116,300,28511,1,0,3:0:0:0:
132,296,28599,5,2,0:0:0:0:
68,225,28776,1,0,3:0:0:0:
20,377,28952,5,8,0:0:0:0:
84,306,29129,1,0,3:0:0:0:
229,373,29305,6,0,P|282:385|338:360,1,95,2|0,3:2|0:0,0:0:0:0:
395,241,29658,2,0,L|384:368,1,95,8|0,0:0|0:0,0:0:0:0:
452,376,29923,1,0,3:0:0:0:
468,377,30011,6,0,L|479:250,1,95,2|0,0:0|3:0,0:0:0:0:
395,241,30276,2,0,P|365:234|331:238,1,47.5,2|8,0:0|0:0,0:0:0:0:
238,266,30540,1,2,0:0:0:0:
74,322,30717,6,0,P|62:227|58:131,1,190,2|8,3:2|0:0,0:0:0:0:
162,50,31246,2,0,P|129:45|107:39,1,47.5,2|2,0:0|3:2,0:0:0:0:
4,12,31423,5,2,0:0:0:0:
0,10,31599,1,0,3:0:0:0:
62,224,31776,6,0,P|117:216|174:211,1,85.4999973907472,8|0,1:2|0:0,0:0:0:0:
224,211,32129,6,0,P|244:259|230:319,1,95,6|0,3:2|0:0,0:0:0:0:
74,322,32481,2,0,L|201:333,1,95,8|0,0:0|0:0,0:0:0:0:
239,300,32746,1,0,3:0:0:0:
255,301,32834,6,0,P|303:281|363:295,1,95,2|0,3:2|3:0,0:0:0:0:
431,258,33099,2,0,P|434:231|413:182,1,47.5,2|8,0:0|0:0,0:0:0:0:
331,154,33364,1,2,0:0:0:0:
143,137,33540,5,10,0:0:0:0:
246,52,33717,1,0,3:0:0:0:
331,154,33893,1,2,3:2:0:0:
143,137,34070,1,8,1:2:0:0:
143,137,34423,6,0,L|147:83,1,38,0|0,3:0|3:0,0:0:0:0:
130,81,34599,6,0,L|122:174,1,71.25,4|0,3:0|0:0,0:0:0:0:
81,216,34952,5,10,0:0:0:0:
82,220,35129,2,0,L|78:269,1,33.2499989852906
114,321,35305,5,0,0:0:0:0:
15,174,35481,1,0,3:0:0:0:
114,321,35658,6,0,L|269:334,1,132.999995941162
425,14,36364,6,0,L|433:108,1,66.4999979705811,2|0,0:0|0:0,0:0:0:0:
373,138,36717,1,0,0:0:0:0:
425,14,36893,1,0,3:0:0:0:
373,138,37070,6,0,L|218:151,1,132.999995941162
182,207,37599,2,0,L|133:203,1,33.2499989852906
81,239,37776,6,0,L|175:247,1,66.4999979705811,2|0,0:0|0:0,0:0:0:0:
207,300,38129,1,2,0:0:0:0:
81,239,38305,1,2,0:0:0:0:
207,300,38481,5,2,0:0:0:0:
80,255,38658,1,0,0:0:0:0:
79,271,38746,2,0,L|75:320,1,33.2499989852906,2|0,0:0|0:0,0:0:0:0:
182,207,39011,5,2,3:2:0:0:
328,142,39187,5,2,3:2:0:0:
328,142,39540,5,0,0:0:0:0:
356,156,39717,1,0,3:0:0:0:
370,58,39893,5,0,3:0:0:0:
384,65,39981,1,0,3:0:0:0:
398,72,40070,1,4,3:0:0:0:
179,19,40246,6,0,P|204:22|228:30,1,42.7499986953736,10|0,0:0|0:0,0:0:0:0:
282,74,40599,6,0,B|250:126|250:126|250:158|250:158|282:210,1,152,6|0,3:2|0:0,0:0:0:0:
281,208,41129,2,0,B|324:201|324:201|329:158,1,76,0|2,3:0|0:0,0:0:0:0:
329,143,41658,6,0,P|344:142|328:141,1,47.5,8|0,0:0|0:0,0:0:0:0:
92,185,42011,6,0,B|56:197|32:229|32:229|56:261|92:273,1,152,2|0,3:2|0:0,0:0:0:0:
93,273,42540,2,0,P|58:240|17:226,1,76,2|0,3:2|0:0,0:0:0:0:
6,229,43070,6,0,P|-9:230|7:231,1,47.5,8|0,0:0|0:0,0:0:0:0:
218,344,43423,6,0,P|296:342|380:350,1,152,2|0,3:2|0:0,0:0:0:0:
370,348,43952,2,0,P|407:344|445:343,1,76,0|0,3:0|0:0,0:0:0:0:
472,347,44481,6,0,P|473:362|474:346,1,47.5,10|0,0:0|0:0,0:0:0:0:
316,166,44834,6,0,P|318:134|218:109,1,152,0|0,3:0|0:0,0:0:0:0:
224,103,45364,1,0,3:0:0:0:
316,166,45540,6,0,P|296:195|274:206,1,38,2|2,0:0|0:0,0:0:0:0:
218,197,45717,1,2,3:2:0:0:
216,200,45893,6,0,P|201:201|217:202,1,47.5,10|0,0:0|0:0,0:0:0:0:
426,86,46246,6,0,B|442:122|476:142|476:142|442:162|426:198,1,152,2|2,3:2|0:0,0:0:0:0:
426,198,46776,2,0,P|455:174|475:143,1,76,2|0,3:2|0:0,0:0:0:0:
449,142,47305,6,0,P|434:143|450:144,1,47.5,8|0,0:0|0:0,0:0:0:0:
216,200,47658,6,0,B|162:172|116:200|116:200|149:191|191:209,1,152,0|2,3:0|0:0,0:0:0:0:
163,200,48187,2,0,P|143:253|141:298,1,76,0|2,3:0|0:0,0:0:0:0:
140,298,48717,6,0,P|139:313|138:297,1,47.5,8|0,0:0|0:0,0:0:0:0:
316,136,49070,6,0,B|336:172|316:216|316:216|296:260|316:296,1,152,2|0,3:2|0:0,0:0:0:0:
310,283,49599,2,0,P|322:247|319:209,1,76,0|0,3:0|0:0,0:0:0:0:
311,184,50129,6,0,P|296:185|312:186,1,47.5,10|0,0:0|0:0,0:0:0:0:
108,72,50481,5,2,3:2:0:0:
107,76,50658,1,2,0:0:0:0:
203,0,50834,2,0,L|156:0,1,47.5,2|0,0:0|3:0,0:0:0:0:
70,0,51011,2,0,P|22:72|102:160,1,190,10|0,0:0|3:0,0:0:0:0:
191,152,51540,1,2,3:2:0:0:
107,76,51717,2,0,L|154:76,1,47.5,0|0,3:0|3:0,0:0:0:0:
191,152,51893,6,0,B|223:204|223:204|223:236|223:236|191:288,1,152,6|0,3:2|0:0,0:0:0:0:
192,286,52423,2,0,B|149:279|149:279|144:236,1,76,0|2,3:0|0:0,0:0:0:0:
145,220,52952,6,0,P|130:221|146:222,1,47.5,8|0,0:0|0:0,0:0:0:0:
353,101,53305,6,0,B|389:113|413:145|413:145|389:177|353:189,1,152,2|0,3:2|0:0,0:0:0:0:
352,189,53834,2,0,P|387:156|428:142,1,76,2|0,3:2|0:0,0:0:0:0:
343,214,54187,1,0,3:0:0:0:
439,145,54364,6,0,P|454:146|438:147,1,47.5,8|0,0:0|0:0,0:0:0:0:
226,384,54717,6,0,P|224:352|329:364,1,152,6|0,3:2|0:0,0:0:0:0:
226,384,55423,5,2,3:2:0:0:
318,332,55599,2,0,P|292:314|246:323,1,42.7499986953736,2|0,3:2|3:0,0:0:0:0:
205,311,55776,1,10,0:0:0:0:
393,321,55952,5,6,3:2:0:0:
393,321,56305,5,10,0:0:0:0:
416,200,56481,5,0,3:0:0:0:
353,93,56658,5,0,3:0:0:0:
233,67,56834,5,8,3:2:0:0:
230,70,56923,1,0,3:0:0:0:
227,73,57011,1,4,3:0:0:0:
122,137,57187,5,2,1:2:0:0:
209,264,57364,2,0,L|202:340,1,47.5,10|8,0:0|0:0,0:0:0:0:
164,202,57540,6,0,P|261:208|286:257,1,142.5,2|0,3:2|0:0,0:0:0:0:
338,291,57893,2,0,L|349:164,1,95,10|2,0:0|0:0,0:0:0:0:
400,142,58158,1,0,3:0:0:0:
398,126,58246,5,0,3:0:0:0:
475,41,58423,1,0,3:0:0:0:
326,15,58599,2,0,B|288:42|288:42|297:147,1,142.5,8|0,0:0|0:0,0:0:0:0:
346,196,58952,5,4,3:2:0:0:
104,37,59305,2,0,L|115:164,1,95,10|0,0:0|0:0,0:0:0:0:
166,186,59570,1,8,0:0:0:0:
164,202,59658,6,0,L|153:329,1,95,2|0,0:0|0:0,0:0:0:0:
66,314,59923,2,0,L|73:390,1,47.5,2|8,0:0|0:0,0:0:0:0:
238,336,60187,1,2,0:0:0:0:
240,340,60364,6,0,B|267:378|267:378|372:369,1,142.5,2|0,3:2|0:0,0:0:0:0:
421,320,60717,2,0,L|410:193,1,95,8|0,0:0|0:0,0:0:0:0:
359,171,60981,1,8,0:0:0:0:
361,155,61070,5,2,0:0:0:0:
424,72,61246,1,2,3:2:0:0:
464,169,61423,1,10,0:0:0:0:
357,108,61599,2,0,L|364:184,1,47.5,2|0,3:2|0:0,0:0:0:0:
282,96,61776,6,0,P|339:34|433:107,1,190,4|0,0:0|0:0,0:0:0:0:
183,96,62305,6,0,P|260:109|282:179,1,152,0|0,3:0|0:0,0:0:0:0:
192,109,62834,6,0,P|252:124|265:182,1,113.999996520996,4|0,3:0|0:0,0:0:0:0:
268,169,63540,6,0,P|211:106|152:148,1,152,6|2,1:2|0:0,0:0:0:0:
54,49,64070,6,0,P|46:78|49:112,1,47.5,0|2,3:0|0:0,0:0:0:0:
91,157,64246,1,8,0:0:0:0:
142,34,64423,1,2,0:0:0:0:
268,169,64599,6,0,L|279:42,1,95,2|0,3:2|3:0,0:0:0:0:
428,87,64952,1,8,0:0:0:0:
363,177,65129,2,0,L|236:166,1,95,2|0,3:2|0:0,0:0:0:0:
276,74,65481,1,0,3:0:0:0:
428,87,65658,6,0,B|452:104|452:104|446:171,1,85.4999973907472,8|0,1:2|0:0,0:0:0:0:
418,230,66011,6,0,L|425:306,1,47.5,0|0,3:0|3:0,0:0:0:0:
473,334,66187,1,4,3:0:0:0:
325,301,66364,6,0,B|303:331|303:331|219:324,1,114,6|0,1:2|0:0,0:0:0:0:
212,291,66717,6,0,L|110:282,1,76,2|0,3:2|0:0,0:0:0:0:
287,298,66981,6,0,L|185:289,1,76,2|0,3:2|0:0,0:0:0:0:
325,301,67246,6,0,L|264:295,1,38,6|0,3:0|0:0,0:0:0:0:
60,277,67423,6,0,B|22:250|22:250|31:145,1,142.5,6|0,3:2|0:0,0:0:0:0:
80,96,67776,1,8,0:0:0:0:
82,93,67952,1,0,3:0:0:0:
210,132,68129,5,8,0:0:0:0:
60,277,68305,1,10,0:0:0:0:
60,277,68658,6,0,L|282:297,1,190,14|0,3:2|3:0,0:0:0:0:
359,188,69187,2,0,L|232:199,1,95,8|0,0:0|0:0,0:0:0:0:
205,143,69452,1,0,3:0:0:0:
193,131,69540,1,0,3:0:0:0:
290,40,69717,1,2,0:0:0:0:
359,188,69893,1,10,1:2:0:0:
448,45,70070,6,0,P|379:-1|276:72,1,190,14|0,3:2|3:0,0:0:0:0:
359,188,70599,2,0,L|370:61,1,95,8|0,0:0|0:0,0:0:0:0:
417,35,70864,2,0,P|388:19|333:27,1,47.5,0|0,3:0|0:0,0:0:0:0:
300,27,71040,1,0,3:0:0:0:
290,40,71129,1,2,3:2:0:0:
359,188,71305,1,10,1:2:0:0:
192,203,71481,6,0,L|172:-19,1,190,14|2,3:2|3:2,0:0:0:0:
41,217,72011,1,10,0:0:0:0:
192,203,72187,1,2,3:2:0:0:
24,28,72364,1,2,3:2:0:0:
175,14,72540,1,2,3:2:0:0:
33,122,72717,1,10,0:0:0:0:
184,108,72893,1,2,3:2:0:0:
41,217,73070,5,10,3:2:0:0:
108,115,73246,1,2,3:2:0:0:
192,203,73423,1,2,3:2:0:0:
193,219,73511,2,0,L|199:291,1,47.5,0|0,3:0|3:0,0:0:0:0:
259,101,73776,1,2,3:2:0:0:
343,189,73952,2,0,L|349:261,1,47.5,6|0,3:0|3:0,0:0:0:0:
416,150,74129,1,8,3:2:0:0:
417,166,74217,1,0,3:0:0:0:
418,182,74305,2,0,L|425:258,1,47.5,2|0,3:2|3:0,0:0:0:0:
280,338,74481,5,6,3:2:0:0:
280,338,74834,1,8,0:0:0:0:
190,171,75011,1,8,0:0:0:0:
191,187,75099,1,8,0:0:0:0:
192,203,75187,1,8,0:0:0:0:
343,189,75364,1,0,3:0:0:0:
140,290,75540,6,0,B|120:257|120:257|129:355,1,114,2|0,0:0|0:0,0:0:0:0:
105,87,75893,6,0,L|121:265,1,170.999994781494,8|0,3:0|0:0,0:0:0:0:
268,176,76246,6,0,P|221:168|180:204,1,85.4999973907472,2|0,0:0|0:0,0:0:0:0:
121,257,76599,5,2,3:2:0:0:
108,247,76687,5,0,3:0:0:0:
82,242,76776,5,0,3:0:0:0:
48,252,76864,5,0,3:0:0:0:
24,290,76952,6,0,L|31:366,1,47.5,10|0,0:0|0:0,0:0:0:0:
15,184,77129,5,8,3:2:0:0:
29,337,77305,6,0,P|85:351|162:313,1,113.999996520996,6|0,3:2|0:0,0:0:0:0:
323,249,77658,1,10,0:0:0:0:
215,75,77834,2,0,P|223:185|241:345,1,227.999993041992,6|2,3:2|3:2,0:0:0:0:
361,138,78364,1,8,0:0:0:0:
215,75,78540,1,2,3:2:0:0:
181,78,78629,1,0,3:0:0:0:
147,81,78717,5,0,3:0:0:0:
88,204,78893,1,2,0:0:0:0:
224,189,79070,1,8,0:0:0:0:
0,94,79246,1,2,3:2:0:0:
3,128,79334,1,2,3:2:0:0:
150,47,79511,1,2,3:2:0:0:
147,81,79599,1,2,3:0:0:0:
224,188,79776,2,0,P|280:186|337:179,1,113.999996520996,10|2,0:0|0:0,0:0:0:0:
416,315,80129,6,0,P|455:259|404:169,1,170.999994781494,6|0,3:2|0:0,0:0:0:0:
338,179,80481,1,10,0:0:0:0:
228,295,80658,2,0,P|209:230|245:167,1,113.999996520996,2|0,3:2|0:0,0:0:0:0:
378,244,81011,1,2,3:2:0:0:
228,295,81187,2,0,P|171:298|96:308,1,113.999996520996,10|0,0:0|3:0,0:0:0:0:
99,191,81452,1,0,3:0:0:0:
111,159,81540,6,0,P|221:167|381:185,1,227.999993041992,2|8,3:2|0:0,0:0:0:0:
416,315,82070,1,2,0:0:0:0:
234,363,82246,1,2,3:2:0:0:
231,329,82334,1,0,3:0:0:0:
228,295,82423,1,0,3:0:0:0:
331,94,82599,6,0,L|340:202,1,85.4999973907472,8|0,1:2|0:0,0:0:0:0:
465,165,82952,6,0,P|393:125|348:227,1,170.999994781494,6|0,3:2|0:0,0:0:0:0:
345,255,83305,1,10,0:0:0:0:
164,181,83481,2,0,B|142:159|111:159|111:159|17:232|101:328,1,227.999993041992,6|2,3:2|3:2,0:0:0:0:
234,363,84011,1,8,0:0:0:0:
164,181,84187,5,6,3:2:0:0:
164,181,84540,1,2,3:2:0:0:
84,306,84717,1,2,3:2:0:0:
256,246,84893,2,0,P|248:136|230:-24,1,227.999993041992,6|0,3:2|3:0,0:0:0:0:
90,53,85423,1,2,3:2:0:0:
164,181,85599,2,0,P|162:151|159:117,1,56.9999982604981,2|0,3:2|3:0,0:0:0:0:
164,49,85776,6,0,P|171:118|176:190,1,142.5,6|0,3:2|0:0,0:0:0:0:
182,267,86129,1,10,0:0:0:0:
332,253,86305,1,2,0:0:0:0:
348,252,86393,1,0,3:0:0:0:
364,251,86481,1,0,3:0:0:0:
248,133,86658,1,2,3:2:0:0:
398,119,86834,1,8,0:0:0:0:
267,381,87011,6,0,P|259:295|253:210,1,170.999994781494,6|0,3:2|0:0,0:0:0:0:
248,133,87364,1,6,3:0:0:0:
441,201,87540,1,6,3:0:0:0:
315,38,87717,1,6,3:0:0:0:
257,267,87893,2,0,P|255:242|252:181,1,56.9999982604981,0|0,3:0|3:0,0:0:0:0:
248,133,88070,1,4,3:0:0:0:
247,129,88246,6,0,P|207:143|173:179,1,56.9999982604981,6|0,3:0|3:0,0:0:0:0:
135,40,88423,2,0,P|116:78|118:127,1,56.9999982604981,6|0,3:0|3:0,0:0:0:0:
1,84,88599,6,0,P|25:137|103:173,1,113.999996520996,6|0,3:2|0:0,0:0:0:0:
253,210,88952,1,10,0:0:0:0:
94,319,89129,2,0,P|102:209|120:49,1,227.999993041992,6|2,3:2|3:2,0:0:0:0:
322,166,89658,1,8,0:0:0:0:
186,208,89834,1,2,3:2:0:0:
220,211,89923,1,0,3:0:0:0:
254,214,90011,5,0,3:0:0:0:
252,78,90187,1,2,0:0:0:0:
115,92,90364,1,10,0:0:0:0:
251,248,90540,1,2,3:2:0:0:
254,214,90629,1,2,3:2:0:0:
98,269,90805,1,2,3:2:0:0:
95,235,90893,1,2,3:0:0:0:
186,336,91070,2,0,P|241:329|299:327,1,113.999996520996,10|2,0:0|0:0,0:0:0:0:
377,191,91423,6,0,P|416:247|365:337,1,170.999994781494,6|0,3:2|0:0,0:0:0:0:
299,327,91776,1,10,0:0:0:0:
297,151,91952,2,0,P|348:107|420:113,1,113.999996520996,2|0,3:2|0:0,0:0:0:0:
339,261,92305,1,2,3:2:0:0:
190,171,92481,2,0,P|133:174|58:184,1,113.999996520996,10|0,0:0|3:0,0:0:0:0:
1,94,92746,1,0,3:0:0:0:
13,62,92834,6,0,P|123:70|283:88,1,227.999993041992,2|8,3:2|0:0,0:0:0:0:
377,191,93364,1,2,0:0:0:0:
222,331,93540,1,2,3:2:0:0:
219,297,93629,1,0,3:0:0:0:
216,263,93717,1,0,3:0:0:0:
370,106,93893,6,0,L|379:214,1,85.4999973907472,8|0,1:2|0:0,0:0:0:0:
504,177,94246,6,0,P|432:137|387:239,1,170.999994781494,6|0,3:2|0:0,0:0:0:0:
384,267,94599,1,10,0:0:0:0:
189,173,94776,2,0,P|117:226|171:367,1,227.999993041992,6|2,3:2|3:2,0:0:0:0:
302,331,95305,1,8,0:0:0:0:
189,173,95481,5,6,3:2:0:0:
189,173,95834,1,2,3:2:0:0:
109,298,96011,1,2,3:2:0:0:
281,238,96187,2,0,P|273:128|255:-32,1,227.999993041992,6|0,3:2|3:0,0:0:0:0:
115,45,96717,6,0,P|76:57|26:41,1,76,2|0,3:2|0:0,0:0:0:0:
42,50,97070,6,0,L|62:272,1,190,6|8,3:2|0:0,0:0:0:0:
154,349,97599,2,0,L|161:273,1,47.5,2|0,3:2|3:0,0:0:0:0:
206,243,97776,1,2,3:2:0:0:
205,239,97952,1,0,3:0:0:0:
340,286,98129,1,8,0:0:0:0:
339,282,98305,2,0,P|309:275|275:279,1,47.5,0|0,3:0|3:0,0:0:0:0:
154,349,98481,5,4,3:2:0:0:
411,258,98834,2,0,L|420:164,1,95,10|0,0:0|3:0,0:0:0:0:
346,144,99099,1,0,3:0:0:0:
351,128,99187,6,0,P|364:108|384:94,1,47.5,2|0,0:0|3:0,0:0:0:0:
461,99,99364,1,0,3:0:0:0:
474,109,99452,2,0,P|493:139|493:181,1,47.5,2|8,0:0|0:0,0:0:0:0:
483,283,99717,1,2,0:0:0:0:
306,351,99893,6,0,P|215:274|255:208,1,170.999994781494,12|0,0:0|0:0,0:0:0:0:
293,275,100246,5,8,3:2:0:0:
165,129,100423,2,0,P|167:159|170:193,1,56.9999982604981,0|0,3:0|3:0,0:0:0:0:
224,241,100599,5,8,0:0:0:0:
359,111,100776,1,0,3:0:0:0:
390,266,100952,5,8,0:0:0:0:
262,120,101129,2,0,P|264:150|267:184,1,56.9999982604981,0|0,3:0|3:0,0:0:0:0:
306,351,101305,5,8,1:2:0:0:
306,351,101658,2,0,P|249:354|174:364,1,113.999996520996,10|0,0:0|3:0,0:0:0:0:
105,175,102011,2,0,P|102:232|92:307,1,113.999996520996,10|0,0:0|3:0,0:0:0:0:
224,241,102364,1,10,0:0:0:0:
193,361,102540,2,0,P|176:321|182:273,1,56.9999982604981,2|0,3:2|3:0,0:0:0:0:
188,166,102717,6,0,P|248:162|309:237,1,142.5,6|0,3:2|0:0,0:0:0:0:
360,269,103070,2,0,L|371:142,1,95,8|0,0:0|0:0,0:0:0:0:
310,336,103423,2,0,P|368:353|422:326,1,95,10|0,0:0|0:0,0:0:0:0:
484,240,103776,1,8,0:0:0:0:
368,174,103952,1,0,3:0:0:0:
445,47,104129,6,0,P|455:106|423:157,1,95,10|0,0:0|0:0,0:0:0:0:
279,83,104481,2,0,L|406:94,1,95,8|0,0:0|0:0,0:0:0:0:
272,166,104834,1,10,0:0:0:0:
368,174,105011,1,2,3:2:0:0:
200,209,105187,2,0,P|190:150|222:99,1,95,10|0,0:0|3:0,0:0:0:0:
243,281,105540,6,0,P|184:291|133:259,1,95,10|0,0:0|0:0,0:0:0:0:
324,301,105893,2,0,P|289:349|230:363,1,95,10|0,0:0|0:0,0:0:0:0:
396,258,106246,1,10,0:0:0:0:
243,281,106423,1,2,0:0:0:0:
393,348,106599,2,0,P|407:303|396:258,1,95,10|0,0:0|3:0,0:0:0:0:
272,166,106952,5,10,0:0:0:0:
243,281,107129,1,2,0:0:0:0:
171,94,107305,5,10,0:0:0:0:
200,209,107481,2,0,P|175:189|159:166,1,47.5,2|0,3:2|3:0,0:0:0:0:
64,166,107658,6,0,P|84:141|107:125,1,47.5,0|0,3:2|3:0,0:0:0:0:
171,94,107834,1,6,3:0:0:0:
108,237,108011,2,0,P|62:249|17:236,1,95,14|0,0:0|0:0,0:0:0:0:
146,364,108364,6,0,P|128:347|115:328,1,47.5,2|0,3:2|0:0,0:0:0:0:
227,371,108540,2,0,P|246:358|263:341,1,47.5,2|0,3:2|0:0,0:0:0:0:
200,209,108717,2,0,L|192:296,1,85.4999973907472,6|0,3:2|3:0,0:0:0:0:
145,377,109070,6,0,P|127:360|114:341,1,47.5,2|0,3:2|0:0,0:0:0:0:
226,384,109246,2,0,P|245:371|262:354,1,47.5,2|0,3:2|0:0,0:0:0:0:
199,222,109423,2,0,L|191:309,1,85.4999973907472,6|0,3:2|3:0,0:0:0:0:
262,354,109776,6,0,L|338:361,2,47.5,0|0|0,3:0|3:0|3:0,0:0:0:0:
114,341,110129,1,8,0:0:0:0:
199,222,110305,1,2,0:0:0:0:
309,358,110481,2,0,P|313:326|309:298,1,47.5,2|0,0:0|3:0,0:0:0:0:
288,230,110658,1,2,3:2:0:0:
402,162,110834,2,0,B|440:189|440:189|431:294,1,142.5,10|0,0:0|0:0,0:0:0:0:
435,361,111187,6,0,L|446:234,1,95,6|0,3:2|0:0,0:0:0:0:
288,230,111540,1,10,0:0:0:0:
402,162,111717,1,2,0:0:0:0:
220,116,111893,5,2,3:2:0:0:
288,230,112070,1,2,3:2:0:0:
402,162,112246,1,10,0:0:0:0:
334,48,112423,1,2,0:0:0:0:
311,139,112599,6,0,P|237:151|192:221,1,132.999995941162,2|2,3:2|0:0,0:0:0:0:
213,286,113129,1,2,3:2:0:0:
144,223,113305,2,0,P|182:196|224:193,1,66.4999979705811,2|0,0:0|3:0,0:0:0:0:
207,352,113658,2,0,L|215:258,1,66.4999979705811,8|0,0:0|3:0,0:0:0:0:
340,363,114011,6,0,L|185:350,1,132.999995941162,2|0,3:2|0:0,0:0:0:0:
208,352,114540,1,0,3:0:0:0:
126,285,114717,2,0,P|133:239|161:207,1,66.4999979705811,2|0,0:0|0:0,0:0:0:0:
74,162,115070,2,0,P|111:135|154:132,1,66.4999979705811,10|2,0:0|0:0,0:0:0:0:
85,51,115334,1,2,0:0:0:0:
99,43,115423,6,0,P|173:48|224:114,1,132.999995941162,2|0,3:2|0:0,0:0:0:0:
209,180,115952,1,2,3:2:0:0:
272,112,116129,2,0,P|231:88|189:89,1,66.4999979705811,2|0,0:0|0:0,0:0:0:0:
130,130,116393,1,0,3:0:0:0:
131,146,116481,1,10,0:0:0:0:
151,274,116658,1,8,0:0:0:0:
209,180,116834,5,2,3:2:0:0:
212,183,117011,2,0,P|236:224|235:266,1,66.4999979705811,0|2,0:0|0:0,0:0:0:0:
222,334,117364,1,2,3:2:0:0:
85,280,117540,2,0,L|179:272,1,66.4999979705811,2|0,0:0|3:0,0:0:0:0:
212,183,117893,1,10,0:0:0:0:
215,180,118070,2,0,L|264:184,1,33.2499989852906,8|8,0:0|0:0,0:0:0:0:
430,199,118246,6,0,B|451:146|451:146|436:76,1,113.999996520996,14|2,0:0|0:0,0:0:0:0:
339,191,118599,2,0,B|318:244|318:244|333:314,1,113.999996520996,10|2,0:0|0:0,0:0:0:0:
489,312,118952,5,14,3:2:0:0:
339,191,119129,1,2,3:2:0:0:
451,146,119305,1,14,0:0:0:0:
406,350,119481,1,14,3:2:0:0:
312,2,120717,5,0,3:0:0:0:
256,192,120893,2,0,L|256:96,1,95,6|0,3:2|0:0,0:0:0:0:
200,2,121952,1,8,0:0:0:0:
256,192,122129,1,14,0:0:0:0:
311,2,122305,1,14,3:2:0:0:
311,2,123209,5,2,0:0:0:0:
312,6,123274,1,2,0:0:0:0:
313,10,123339,2,0,L|349:13,1,23.75,8|2,2:3|0:0,0:0:0:0:
256,192,123515,12,0,125809,0:0:0:0:
