osu file format v14

[General]
AudioFilename: Hoshizora e Kakaru Hashi.mp3
AudioLeadIn: 0
PreviewTime: 76158
Countdown: 0
SampleSet: Soft
StackLeniency: 0
Mode: 0
LetterboxInBreaks: 0
WidescreenStoryboard: 1

[Editor]
DistanceSpacing: 1
BeatDivisor: 4
GridSize: 32
TimelineZoom: 2

[Metadata]
Title:Hoshizora e Kakaru Hashi
TitleUnicode:星空へ架かる橋
Artist:nomico
ArtistUnicode:のみこ
Creator:H-Scene
Version:Hard
Source:星空へ架かる橋
Tags:Japanese Hakusui3820 畑亜貴 Hata Aki 上松範康 Agematsu Noriyasu 藤間仁 Fujima Hitoshi Visual Novel Vocals Galgame 美少女ゲーム Eroge Video Game feng A Bridge to the Starry Skies OP Opening Short Version 中津川初 Nakatsugawa Ui 日向伊吹 Hinata Ibuki 藤堂つむぎ Toudou Tsumugi 藤堂こより Toudou Koyori 酒井陽菜 Sakai Hina 神本円佳 Koumoto Madoka
BeatmapID:2658991
BeatmapSetID:1270554

[Difficulty]
HPDrainRate:5.2
CircleSize:3.4
OverallDifficulty:5.8
ApproachRate:7.6
SliderMultiplier:1.45
SliderTickRate:1

[Events]
//Background and Video events
0,0,"Ibuki.jpg",0,0
//Break Periods
//Storyboard Layer 0 (Background)
//Storyboard Layer 1 (Fail)
//Storyboard Layer 2 (Pass)
//Storyboard Layer 3 (Foreground)
//Storyboard Layer 4 (Overlay)
//Storyboard Sound Samples

[TimingPoints]
-1087,600,4,2,1,40,1,0
20513,-125,4,2,1,40,0,0
21563,-125,4,2,1,5,0,0
22613,-125,4,2,1,40,0,0
22913,-125,4,2,1,40,0,0
23063,-125,4,2,1,5,0,0
25913,-125,4,2,1,40,0,0
26213,-125,4,2,1,40,0,0
26482,352.941176470588,4,2,1,60,1,0
26482,-100,4,2,1,60,0,1
26526,-100,4,2,1,60,0,0
27099,-100,4,2,3,60,0,0
27187,-100,4,2,2,60,0,0
27364,-100,4,2,1,60,0,0
28423,-100,4,2,3,60,0,0
28599,-100,4,2,2,60,0,0
28776,-100,4,2,1,60,0,0
29923,-100,4,2,2,60,0,0
30187,-100,4,2,1,60,0,0
31334,-100,4,2,3,60,0,0
31423,-100,4,2,2,60,0,0
31599,-100,4,2,1,60,0,0
31776,-100,4,2,1,60,0,0
32040,-100,4,2,1,5,0,0
32129,-100,4,2,1,60,0,0
32746,-100,4,2,3,60,0,0
32834,-100,4,2,2,60,0,0
33011,-100,4,2,1,60,0,0
33893,-100,4,2,3,60,0,0
34070,-100,4,2,1,60,0,0
34246,-100,4,2,1,60,0,0
34423,-100,4,2,2,60,0,0
34599,-100,4,2,2,60,0,0
34864,-100,4,2,2,5,0,0
34952,-100,4,2,5,60,0,0
35129,-100,4,2,2,60,0,0
38746,-100,4,2,1,60,0,0
38834,-100,4,2,2,60,0,0
39011,-100,4,2,1,60,0,0
39540,-100,4,2,2,60,0,0
40246,-111.111111111111,4,2,1,60,0,0
40511,-111.111111111111,4,2,1,5,0,0
40599,-100,4,2,1,60,0,0
40952,-100,4,2,2,60,0,0
41129,-100,4,2,1,60,0,0
41305,-100,4,2,2,60,0,0
41658,-100,4,2,1,60,0,0
41702,-100,4,2,1,5,0,0
41834,-100,4,2,1,60,0,0
42011,-100,4,2,1,60,0,0
42364,-100,4,2,2,60,0,0
42540,-100,4,2,1,60,0,0
42717,-100,4,2,2,60,0,0
43070,-100,4,2,1,60,0,0
43114,-100,4,2,1,5,0,0
43246,-100,4,2,1,60,0,0
43423,-100,4,2,1,60,0,0
43776,-100,4,2,2,60,0,0
43952,-100,4,2,1,60,0,0
44129,-100,4,2,2,60,0,0
44481,-100,4,2,1,60,0,0
44526,-100,4,2,1,5,0,0
44658,-100,4,2,1,60,0,0
44834,-100,4,2,1,60,0,0
45187,-100,4,2,2,60,0,0
45364,-100,4,2,1,60,0,0
45893,-100,4,2,1,60,0,0
45937,-100,4,2,1,5,0,0
46070,-100,4,2,1,60,0,0
46246,-100,4,2,1,60,0,0
46599,-100,4,2,2,60,0,0
46776,-100,4,2,1,60,0,0
46952,-100,4,2,2,60,0,0
47305,-100,4,2,1,60,0,0
47349,-100,4,2,1,5,0,0
47658,-100,4,2,1,60,0,0
48011,-100,4,2,2,60,0,0
48187,-100,4,2,1,60,0,0
48364,-100,4,2,2,60,0,0
48717,-100,4,2,1,60,0,0
48761,-100,4,2,1,5,0,0
49070,-100,4,2,1,60,0,0
49423,-100,4,2,2,60,0,0
49599,-100,4,2,1,60,0,0
49776,-100,4,2,2,60,0,0
50129,-100,4,2,1,60,0,0
50173,-100,4,2,1,5,0,0
50481,-100,4,2,1,60,0,0
50834,-100,4,2,2,60,0,0
50923,-100,4,2,3,60,0,0
51011,-100,4,2,1,60,0,0
51364,-100,4,2,2,60,0,0
51717,-100,4,2,3,60,0,0
51893,-100,4,2,1,60,0,0
52246,-100,4,2,2,60,0,0
52423,-100,4,2,1,60,0,0
52599,-100,4,2,2,60,0,0
52952,-100,4,2,1,60,0,0
52996,-100,4,2,1,5,0,0
53305,-100,4,2,1,60,0,0
53658,-100,4,2,2,60,0,0
53834,-100,4,2,1,60,0,0
54011,-100,4,2,2,60,0,0
54187,-100,4,2,1,60,0,0
54364,-100,4,2,1,60,0,0
54408,-100,4,2,1,5,0,0
54717,-100,4,2,1,60,0,0
55070,-100,4,2,2,60,0,0
55423,-100,4,2,2,60,0,0
55599,-100,4,2,3,60,0,0
55776,-100,4,2,1,60,0,0
56129,-100,4,2,1,60,0,0
56481,-100,4,2,2,60,0,0
56923,-100,4,2,3,60,0,0
57011,-100,4,2,2,60,0,0
57540,-100,4,2,1,60,0,0
57805,-100,4,2,1,5,0,0
57893,-100,4,2,1,60,0,0
58158,-100,4,2,3,60,0,0
58246,-100,4,2,1,60,0,0
58864,-100,4,2,1,5,0,0
58952,-100,4,2,1,60,0,0
59658,-100,4,2,2,60,0,0
59923,-100,4,2,1,60,0,0
60629,-100,4,2,1,5,0,0
60717,-100,4,2,1,60,0,0
61070,-100,4,2,2,60,0,0
61246,-100,4,2,1,60,0,0
61687,-100,4,2,2,60,0,0
62129,-100,4,2,2,5,0,0
62305,-100,4,2,2,60,0,0
62481,-100,4,2,2,5,0,0
62834,-100,4,2,2,60,0,0
63187,-100,4,2,1,60,0,0
63540,-100,4,2,1,60,0,0
63893,-100,4,2,1,5,0,0
64070,-100,4,2,1,60,0,0
65658,-100,4,2,1,60,0,0
65923,-100,4,2,1,5,0,0
66011,-100,4,2,2,60,0,0
66364,-100,4,2,1,60,0,0
66629,-100,4,2,1,5,0,0
66717,-100,4,2,2,60,0,0
66893,-100,4,2,2,5,0,0
66981,-100,4,2,2,60,0,0
67158,-100,4,2,2,5,0,0
67246,-100,4,2,2,60,0,0
67334,-100,4,2,2,5,0,0
67423,-100,4,2,1,60,0,0
67687,-100,4,2,1,5,0,0
67776,-100,4,2,1,60,0,0
69452,-100,4,2,3,60,0,0
69540,-100,4,2,1,60,0,0
70864,-100,4,2,3,60,0,0
70952,-100,4,2,2,60,0,0
71040,-100,4,2,3,60,0,0
71129,-100,4,2,1,60,0,0
72364,-100,4,2,2,60,0,0
72540,-100,4,2,1,60,0,0
73070,-100,4,2,2,60,0,0
73511,-100,4,2,3,60,0,0
73776,-100,4,2,2,60,0,0
74217,-100,4,2,3,60,0,0
74305,-100,4,2,2,60,0,0
74481,-100,4,2,1,60,0,0
75364,-100,4,2,2,60,0,0
75540,-100,4,2,2,60,0,0
75805,-100,4,2,2,5,0,0
75893,-100,4,2,4,60,0,0
76070,-100,4,2,4,5,0,0
76246,-100,4,2,1,40,0,0
76511,-100,4,2,1,5,0,0
76599,-100,4,2,3,50,0,0
76687,-100,4,2,3,55,0,0
76776,-100,4,2,3,60,0,0
76864,-100,4,2,3,65,0,0
76952,-100,4,2,5,70,0,1
76996,-100,4,2,5,5,0,0
77129,-100,4,2,2,70,0,0
77305,-90.9090909090909,4,2,1,75,0,1
78540,-90.9090909090909,4,2,3,75,0,1
78717,-90.9090909090909,4,2,1,75,0,1
79334,-90.9090909090909,4,2,2,75,0,1
79599,-90.9090909090909,4,2,1,75,0,1
80393,-90.9090909090909,4,2,1,5,0,1
80481,-90.9090909090909,4,2,1,75,0,1
80834,-90.9090909090909,4,2,2,75,0,1
81011,-90.9090909090909,4,2,1,75,0,1
81364,-90.9090909090909,4,2,3,75,0,1
81540,-90.9090909090909,4,2,1,75,0,1
82334,-90.9090909090909,4,2,3,75,0,1
82423,-90.9090909090909,4,2,1,75,0,1
82599,-90.9090909090909,4,2,1,75,0,1
82864,-90.9090909090909,4,2,1,5,0,1
82952,-90.9090909090909,4,2,1,75,0,1
83217,-90.9090909090909,4,2,1,5,0,1
83305,-90.9090909090909,4,2,1,75,0,1
84540,-90.9090909090909,4,2,2,75,0,1
84893,-90.9090909090909,4,2,1,75,0,1
85423,-90.9090909090909,4,2,2,75,0,1
85687,-90.9090909090909,4,2,3,75,0,1
85776,-100,4,2,1,75,0,0
86040,-100,4,2,1,5,0,0
86129,-100,4,2,1,75,0,0
86393,-100,4,2,3,75,0,0
86481,-100,4,2,1,75,0,0
87011,-90.9090909090909,4,2,1,75,0,1
87055,-90.9090909090909,4,2,1,75,0,0
87276,-90.9090909090909,4,2,1,5,0,0
87364,-90.9090909090909,4,2,2,75,0,0
87893,-90.9090909090909,4,2,3,75,0,0
88070,-90.9090909090909,4,2,2,75,0,0
88599,-90.9090909090909,4,2,1,75,0,1
89834,-90.9090909090909,4,2,3,75,0,1
90011,-90.9090909090909,4,2,1,75,0,1
90629,-90.9090909090909,4,2,2,75,0,1
90893,-90.9090909090909,4,2,1,75,0,1
91687,-90.9090909090909,4,2,1,5,0,1
91776,-90.9090909090909,4,2,1,75,0,1
92129,-90.9090909090909,4,2,2,75,0,1
92305,-90.9090909090909,4,2,1,75,0,1
92658,-90.9090909090909,4,2,3,75,0,1
92834,-90.9090909090909,4,2,1,75,0,1
93629,-90.9090909090909,4,2,3,75,0,1
93717,-90.9090909090909,4,2,1,75,0,1
93893,-90.9090909090909,4,2,1,75,0,1
94158,-90.9090909090909,4,2,1,5,0,1
94246,-90.9090909090909,4,2,1,75,0,1
94511,-90.9090909090909,4,2,1,5,0,1
94599,-90.9090909090909,4,2,1,75,0,1
95834,-90.9090909090909,4,2,2,75,0,1
96187,-90.9090909090909,4,2,1,75,0,1
96717,-90.9090909090909,4,2,2,75,0,1
96893,-90.9090909090909,4,2,1,75,0,1
97070,-100,4,2,1,75,0,0
97599,-100,4,2,3,75,0,0
97776,-100,4,2,1,75,0,0
98305,-100,4,2,3,75,0,0
98393,-100,4,2,2,75,0,0
98481,-100,4,2,1,75,0,0
99099,-100,4,2,3,75,0,0
99187,-100,4,2,2,75,0,0
99276,-100,4,2,3,75,0,0
99364,-100,4,2,1,75,0,0
99893,-90.9090909090909,4,2,1,75,0,1
100158,-90.9090909090909,4,2,1,5,0,1
100246,-90.9090909090909,4,2,2,75,0,1
100511,-90.9090909090909,4,2,3,75,0,1
100599,-90.9090909090909,4,2,1,75,0,1
101217,-90.9090909090909,4,2,3,75,0,1
101305,-100,4,2,1,75,0,0
102540,-100,4,2,3,75,0,0
102717,-100,4,2,1,60,0,1
102761,-100,4,2,1,60,0,0
102981,-100,4,2,1,5,0,0
103070,-100,4,2,1,60,0,0
107481,-100,4,2,3,60,0,0
107658,-100,4,2,2,60,0,0
108011,-100,4,2,1,60,0,0
108452,-100,4,2,1,5,0,0
108540,-100,4,2,1,60,0,0
108629,-100,4,2,1,5,0,0
108717,-100,4,2,2,60,0,0
108981,-100,4,2,3,60,0,0
109070,-100,4,2,1,60,0,0
109158,-100,4,2,1,5,0,0
109246,-100,4,2,1,60,0,0
109334,-100,4,2,1,5,0,0
109423,-100,4,2,2,60,0,0
109687,-100,4,2,3,60,0,0
109776,-100,4,2,1,60,0,0
110481,-100,4,2,2,60,0,0
110570,-100,4,2,3,60,0,0
110658,-100,4,2,1,60,0,0
111099,-100,4,2,1,5,0,0
111187,-100,4,2,1,60,0,0
112599,-100,4,2,1,60,0,0
112952,-100,4,2,4,60,0,0
113129,-100,4,2,1,60,0,0
113305,-100,4,2,2,60,0,0
113481,-100,4,2,1,60,0,0
115246,-100,4,2,4,60,0,0
115423,-100,4,2,1,60,0,0
115776,-100,4,2,2,60,0,0
115952,-100,4,2,1,60,0,0
116393,-100,4,2,3,60,0,0
116481,-100,4,2,1,60,0,0
117011,-100,4,2,2,60,0,0
117187,-100,4,2,4,60,0,0
117364,-100,4,2,1,60,0,0
117540,-100,4,2,2,60,0,0
117717,-100,4,2,1,60,0,0
118246,-90.9090909090909,4,2,1,75,0,1
119658,-100,4,2,1,60,0,0
120717,-100,4,2,3,60,0,0
120893,-100,4,2,1,60,0,0
120981,-100,4,2,1,5,0,0
121776,-100,4,2,1,60,0,0
121952,-100,4,2,1,60,0,0
123209,521.739130434783,4,2,4,40,1,0
123209,-100,4,2,4,40,0,0
123339,705.882352941176,4,2,4,40,1,0
123339,-100,4,2,4,40,0,0
125809,-100,4,2,1,5,0,0

[Colours]
Combo1 : 170,170,170
Combo2 : 115,185,255
Combo3 : 0,213,0
Combo4 : 255,170,213

[HitObjects]
31,33,20513,6,0,P|63:41|107:33,1,58,2|0,0:0|0:0,0:0:0:0:
132,23,21113,1,2,0:0:0:0:
134,27,21413,2,0,P|116:116|119:269,1,232,2|0,0:0|0:0,0:0:0:0:
130,302,22913,5,2,3:2:0:0:
256,192,23063,12,0,25913,0:0:0:0:
338,45,26482,6,0,P|414:21|477:61,2,145,6|8|2,0:0|0:0|0:0,0:0:0:0:
400,126,27364,1,2,3:2:0:0:
399,140,27452,1,2,0:0:0:0:
398,154,27540,2,0,L|389:255,1,72.5,8|2,0:0|0:0,0:0:0:0:
454,307,27893,6,0,P|378:331|315:291,1,145,2|8,3:2|0:0,0:0:0:0:
253,228,28423,2,0,P|177:204|114:244,1,145,2|0,3:2|3:0,0:0:0:0:
190,309,28952,1,8,0:0:0:0:
106,36,29305,6,0,L|115:137,1,72.5,2|0,3:2|0:0,0:0:0:0:
37,177,29658,2,0,P|16:238|51:300,1,108.75,8|0,0:0|3:0,0:0:0:0:
39,289,30011,1,2,0:0:0:0:
123,233,30187,1,0,3:0:0:0:
190,309,30364,2,0,L|291:318,1,72.5,8|2,0:0|0:0,0:0:0:0:
341,251,30717,6,0,P|365:175|325:112,1,145,2|8,3:2|0:0,0:0:0:0:
233,114,31246,1,2,0:0:0:0:
235,100,31334,1,2,3:2:0:0:
239,86,31423,2,0,P|277:35|311:22,1,72.5,2|0,0:0|3:0,0:0:0:0:
401,25,31776,1,8,1:2:0:0:
341,251,32129,6,0,P|305:254|270:244,1,72.5,6|0,3:2|0:0,0:0:0:0:
170,254,32481,2,0,L|176:326,1,72.5,8|0,0:0|0:0,0:0:0:0:
261,382,32834,1,2,3:2:0:0:
266,384,33011,1,0,3:0:0:0:
348,324,33187,2,0,L|339:223,1,72.5,8|2,0:0|0:0,0:0:0:0:
398,167,33540,6,0,P|461:159|494:173,2,72.5,10|0|2,0:0|3:0|3:2,0:0:0:0:
443,259,34070,1,8,1:2:0:0:
446,288,34423,2,0,L|452:354,2,36.25,0|0|4,3:0|3:0|3:0,0:0:0:0:
426,55,34952,6,0,P|360:30|296:59,1,145,10|0,0:0|0:0,0:0:0:0:
257,138,35481,1,0,3:0:0:0:
206,67,35658,2,0,P|140:42|76:71,1,145,0|0,0:0|0:0,0:0:0:0:
155,272,36364,6,0,L|140:94,1,145,2|0,0:0|0:0,0:0:0:0:
206,67,36893,1,0,3:0:0:0:
257,138,37070,2,0,L|272:316,1,145,0|0,0:0|0:0,0:0:0:0:
326,349,37599,1,0,0:0:0:0:
337,358,37687,1,0,0:0:0:0:
350,364,37776,6,0,P|423:361|470:285,1,145,2|2,0:0|0:0,0:0:0:0:
431,229,38305,1,2,0:0:0:0:
350,195,38481,2,0,L|335:17,1,145,2|0,0:0|0:0,0:0:0:0:
425,43,39011,1,2,3:2:0:0:
432,130,39187,1,2,3:2:0:0:
70,292,39893,2,0,L|4:298,2,36.25,0|0|4,3:0|3:0|3:0,0:0:0:0:
127,226,40246,6,0,P|125:175|165:135,1,97.8749970130921,10|0,0:0|0:0,0:0:0:0:
167,136,40599,6,0,P|231:165|297:140,1,145,6|0,3:2|0:0,0:0:0:0:
234,79,41129,2,0,L|243:-22,1,72.5,0|2,3:0|0:0,0:0:0:0:
219,252,41658,1,8,0:0:0:0:
428,145,42011,6,0,P|363:115|297:140,1,145,2|0,3:2|0:0,0:0:0:0:
361,201,42540,2,0,L|352:302,1,72.5,2|0,3:2|0:0,0:0:0:0:
376,28,43070,1,8,0:0:0:0:
227,201,43423,6,0,P|197:265|222:331,1,145,2|0,3:2|0:0,0:0:0:0:
283,267,43952,2,0,L|384:276,1,72.5,0|0,3:0|0:0,0:0:0:0:
110,252,44481,1,10,0:0:0:0:
145,10,44834,6,0,P|170:76|141:140,1,145,0|0,3:0|0:0,0:0:0:0:
84,73,45364,1,0,3:0:0:0:
81,69,45540,2,0,L|15:75,2,36.25,2|2|2,0:0|0:0|3:2,0:0:0:0:
145,10,45893,1,10,0:0:0:0:
290,259,46246,6,0,B|357:285|357:285|434:243,1,145,2|2,3:2|0:0,0:0:0:0:
351,198,46776,2,0,L|342:97,1,72.5,2|0,3:2|0:0,0:0:0:0:
366,371,47305,1,8,0:0:0:0:
159,250,47658,6,0,B|226:223|226:223|303:266,1,145,0|2,3:0|0:0,0:0:0:0:
220,312,48187,2,0,L|211:413,1,72.5,0|2,3:0|0:0,0:0:0:0:
235,139,48717,1,8,0:0:0:0:
478,165,49070,6,0,B|410:191|410:191|333:148,1,145,2|0,3:2|0:0,0:0:0:0:
417,103,49599,2,0,L|426:2,1,72.5,0|0,3:0|0:0,0:0:0:0:
402,276,50129,1,10,0:0:0:0:
138,287,50481,5,2,3:2:0:0:
139,282,50658,1,2,0:0:0:0:
172,195,50834,1,2,0:0:0:0:
159,189,50923,1,0,3:0:0:0:
147,181,51011,6,0,P|123:105|163:42,1,145,10|0,0:0|3:0,0:0:0:0:
230,0,51540,1,2,3:2:0:0:
317,33,51717,1,0,3:0:0:0:
330,39,51805,1,0,3:0:0:0:
341,49,51893,6,0,P|366:115|337:179,1,145,6|0,3:2|0:0,0:0:0:0:
280,112,52423,2,0,L|179:121,1,72.5,0|2,3:0|0:0,0:0:0:0:
453,97,52952,1,8,0:0:0:0:
152,186,53305,6,0,P|122:121|147:55,1,145,2|0,3:2|0:0,0:0:0:0:
208,119,53834,2,0,L|309:110,2,72.5,2|0|0,3:2|0:0|3:0,0:0:0:0:
152,186,54364,1,8,0:0:0:0:
393,182,54717,6,0,L|408:360,1,145,6|0,3:2|0:0,0:0:0:0:
405,326,55423,1,2,3:2:0:0:
315,333,55599,2,0,L|309:399,2,36.25,2|0|10,3:2|3:0|0:0,0:0:0:0:
282,249,55952,5,6,3:2:0:0:
280,220,56305,2,0,L|271:119,2,72.5,10|0|0,0:0|3:0|3:0,0:0:0:0:
193,227,56834,2,0,L|187:161,2,36.25,8|0|4,3:2|3:0|3:0,0:0:0:0:
106,234,57187,1,2,1:2:0:0:
113,321,57364,1,10,0:0:0:0:
114,335,57452,1,8,0:0:0:0:
116,349,57540,5,2,3:2:0:0:
190,191,57893,2,0,L|181:90,1,72.5,10|2,0:0|0:0,0:0:0:0:
185,105,58158,1,0,3:0:0:0:
187,91,58246,2,0,P|124:89|93:69,1,72.5,0|0,3:0|3:0,0:0:0:0:
24,105,58599,2,0,L|33:206,1,72.5,8|0,0:0|0:0,0:0:0:0:
103,268,58952,5,4,3:2:0:0:
287,183,59305,2,0,L|278:82,1,72.5,10|0,0:0|0:0,0:0:0:0:
282,97,59570,1,8,0:0:0:0:
284,83,59658,2,0,P|348:81|379:61,1,72.5,2|0,0:0|0:0,0:0:0:0:
447,99,60011,2,0,L|438:200,1,72.5,8|2,0:0|0:0,0:0:0:0:
370,264,60364,5,2,3:2:0:0:
310,2,60717,2,0,P|246:4|200:58,1,108.75,8|8,0:0|0:0,0:0:0:0:
206,43,61070,1,2,0:0:0:0:
198,137,61246,2,0,L|207:238,2,72.5,2|10|2,3:2|0:0|3:2,0:0:0:0:
120,82,61776,6,0,P|66:129|122:245,2,217.5,4|0|4,0:0|3:0|3:0,0:0:0:0:
120,244,63540,6,0,B|146:200|204:208|204:208|269:277|338:239,1,217.5,6|0,1:2|3:0,0:0:0:0:
290,157,64246,2,0,L|299:56,1,72.5,8|2,0:0|0:0,0:0:0:0:
361,15,64599,6,0,P|396:12|431:21,2,72.5,2|0|8,3:2|3:0|0:0,0:0:0:0:
388,106,65129,2,0,P|426:170|386:244,1,145,2|0,3:2|3:0,0:0:0:0:
310,250,65658,1,8,1:2:0:0:
312,279,66011,2,0,L|318:345,2,36.25,0|0|4,3:0|3:0|3:0,0:0:0:0:
230,231,66364,6,0,P|180:218|114:244,1,108.75,6|0,1:2|0:0,0:0:0:0:
116,244,66717,2,0,L|126:367,2,108.75,2|2|6,3:2|3:2|3:0,0:0:0:0:
32,200,67423,5,6,3:2:0:0:
246,43,67776,2,0,L|237:144,1,72.5,8|0,0:0|3:0,0:0:0:0:
230,231,68129,1,8,0:0:0:0:
345,241,68305,1,10,0:0:0:0:
374,243,68658,6,0,L|389:65,1,145,14|0,3:2|3:0,0:0:0:0:
443,14,69187,2,0,P|382:-7|320:28,1,108.75,8|0,0:0|3:0,0:0:0:0:
331,16,69540,1,0,3:0:0:0:
258,87,69717,1,2,0:0:0:0:
199,5,69893,1,10,1:2:0:0:
126,76,70070,6,0,L|111:254,1,145,14|0,3:2|3:0,0:0:0:0:
57,305,70599,2,0,P|118:326|180:291,1,108.75,8|0,0:0|3:0,0:0:0:0:
231,242,71040,1,0,3:0:0:0:
238,229,71129,2,0,L|229:128,1,72.5,2|10,3:2|1:2,0:0:0:0:
284,54,71481,5,14,3:2:0:0:
224,255,71834,2,0,B|260:246|260:246|319:268,2,72.5,2|10|2,3:2|0:0|3:2,0:0:0:0:
130,214,72364,2,0,L|139:113,1,72.5,2|2,3:2|3:2,0:0:0:0:
146,48,72717,1,10,0:0:0:0:
233,55,72893,1,2,3:2:0:0:
290,111,73070,5,10,3:2:0:0:
293,115,73246,1,2,3:2:0:0:
374,57,73423,2,0,L|368:-9,2,36.25,2|0|0,3:2|3:0|3:0,0:0:0:0:
476,48,73776,1,2,3:2:0:0:
485,149,73952,2,0,L|491:215,2,36.25,6|0|8,3:0|3:0|3:2,0:0:0:0:
383,158,74305,2,0,L|389:224,1,36.25,2|0,3:2|3:0,0:0:0:0:
389,223,74481,5,6,3:2:0:0:
256,192,74658,12,8,75893,3:0:0:0:
36,300,76599,6,0,L|42:366,3,36.25,2|0|0|0,3:2|3:0|3:0|3:0,0:0:0:0:
51,344,76952,2,0,P|113:336|147:349,1,72.5,10|8,0:0|3:2,0:0:0:0:
213,260,77305,6,0,P|197:176|254:110,1,159.500004867554,6|10,3:2|0:0,0:0:0:0:
356,140,77834,2,0,P|371:223|315:290,1,159.500004867554,6|2,3:2|3:2,0:0:0:0:
285,200,78364,1,8,0:0:0:0:
213,260,78540,1,2,3:2:0:0:
199,259,78629,1,0,3:0:0:0:
185,258,78717,5,0,3:0:0:0:
79,203,78893,2,0,L|-22:212,2,79.7500024337769,2|8|2,0:0|0:0|3:2,0:0:0:0:
90,194,79334,2,0,P|84:144|119:97,1,79.7500024337769,2|2,3:2|3:2,0:0:0:0:
106,109,79599,1,2,3:0:0:0:
220,72,79776,2,0,L|321:81,1,79.7500024337769,10|2,0:0|0:0,0:0:0:0:
417,100,80129,6,0,P|433:184|376:250,1,159.500004867554,6|10,3:2|0:0,0:0:0:0:
274,220,80658,2,0,P|259:137|315:70,1,159.500004867554,2|2,3:2|3:2,0:0:0:0:
345,160,81187,1,10,0:0:0:0:
417,100,81364,1,0,3:0:0:0:
431,101,81452,1,0,3:0:0:0:
445,102,81540,6,0,P|461:186|404:252,1,159.500004867554,2|8,3:2|0:0,0:0:0:0:
332,324,82070,1,2,0:0:0:0:
274,220,82246,2,0,L|208:226,2,39.8750012168885,2|0|0,3:2|3:0|3:0,0:0:0:0:
393,241,82599,1,8,1:2:0:0:
141,92,82952,6,0,L|319:77,1,159.500004867554,6|10,3:2|0:0,0:0:0:0:
401,144,83481,2,0,L|386:322,1,159.500004867554,6|2,3:2|3:2,0:0:0:0:
298,384,84011,1,8,0:0:0:0:
226,289,84187,5,6,3:2:0:0:
408,64,84540,2,0,L|399:165,1,79.7500024337769,2|2,3:2|3:2,0:0:0:0:
289,187,84893,2,0,P|206:163|135:213,1,159.500004867554,6|0,3:2|3:0,0:0:0:0:
84,282,85423,1,2,3:2:0:0:
11,209,85599,1,2,3:2:0:0:
10,195,85687,1,0,3:0:0:0:
9,181,85776,6,0,L|0:80,1,72.5,6|0,3:2|0:0,0:0:0:0:
66,39,86129,2,0,P|128:28|162:42,1,72.5,10|2,0:0|0:0,0:0:0:0:
149,36,86393,1,0,3:0:0:0:
161,44,86481,2,0,L|262:35,1,72.5,0|2,3:0|3:2,0:0:0:0:
303,101,86834,1,8,0:0:0:0:
374,41,87011,6,0,P|389:124|333:191,1,159.500004867554,6|6,3:2|3:0,0:0:0:0:
232,212,87540,1,6,3:0:0:0:
125,158,87717,1,6,3:0:0:0:
161,44,87893,2,0,L|227:38,2,39.8750012168885,0|0|4,3:0|3:0|3:0,0:0:0:0:
89,114,88246,1,6,3:0:0:0:
98,125,88334,1,0,3:0:0:0:
107,136,88423,1,6,3:0:0:0:
116,147,88511,1,0,3:0:0:0:
125,158,88599,6,0,P|209:142|275:199,1,159.500004867554,6|10,3:2|0:0,0:0:0:0:
245,301,89129,2,0,P|162:316|95:260,1,159.500004867554,6|2,3:2|3:2,0:0:0:0:
185,230,89658,1,8,0:0:0:0:
125,158,89834,1,2,3:2:0:0:
126,144,89923,1,0,3:0:0:0:
127,130,90011,5,0,3:0:0:0:
246,120,90187,2,0,L|237:19,2,79.7500024337769,2|10|2,0:0|0:0|3:2,0:0:0:0:
255,131,90629,2,0,P|305:125|352:160,1,79.7500024337769,2|2,3:2|3:2,0:0:0:0:
340,147,90893,1,2,3:0:0:0:
377,261,91070,2,0,L|368:362,1,79.7500024337769,10|2,0:0|0:0,0:0:0:0:
250,330,91423,6,0,P|166:346|100:289,1,159.500004867554,6|10,3:2|0:0,0:0:0:0:
130,187,91952,2,0,P|213:172|280:228,1,159.500004867554,2|2,3:2|3:2,0:0:0:0:
190,258,92481,1,10,0:0:0:0:
250,330,92658,1,0,3:0:0:0:
249,344,92746,1,0,3:0:0:0:
248,358,92834,6,0,P|164:374|98:317,1,159.500004867554,2|8,3:2|0:0,0:0:0:0:
26,245,93364,1,2,0:0:0:0:
130,187,93540,2,0,L|124:121,2,39.8750012168885,2|0|0,3:2|3:0|3:0,0:0:0:0:
109,306,93893,1,8,1:2:0:0:
324,62,94246,6,0,L|339:240,1,159.500004867554,6|10,3:2|0:0,0:0:0:0:
272,322,94776,2,0,L|94:307,1,159.500004867554,6|2,3:2|3:2,0:0:0:0:
32,219,95305,1,8,0:0:0:0:
127,147,95481,5,6,3:2:0:0:
352,329,95834,2,0,L|251:320,1,79.7500024337769,2|2,3:2|3:2,0:0:0:0:
229,210,96187,2,0,P|253:127|203:56,1,159.500004867554,6|0,3:2|3:0,0:0:0:0:
299,0,96717,2,0,L|400:9,1,79.7500024337769,2|0,3:2|0:0,0:0:0:0:
486,82,97070,6,0,P|511:148|482:212,1,145,6|8,3:2|0:0,0:0:0:0:
397,254,97599,1,2,3:2:0:0:
475,307,97776,2,0,L|466:408,1,72.5,2|0,3:2|3:0,0:0:0:0:
375,371,98129,1,8,0:0:0:0:
315,299,98305,1,0,3:0:0:0:
301,298,98393,1,0,3:0:0:0:
287,297,98481,5,4,3:2:0:0:
475,307,98834,2,0,L|484:206,1,72.5,10|0,0:0|3:0,0:0:0:0:
477,221,99099,1,0,3:0:0:0:
472,207,99187,2,0,L|466:141,2,36.25,2|0|0,0:0|3:0|3:0,0:0:0:0:
378,215,99540,2,0,L|369:114,1,72.5,8|2,0:0|0:0,0:0:0:0:
284,223,99893,5,12,0:0:0:0:
254,236,100246,2,0,P|204:242|157:207,1,79.7500024337769,8|0,3:2|3:0,0:0:0:0:
169,220,100511,1,0,3:0:0:0:
161,209,100599,2,0,L|176:387,1,159.500004867554,8|8,0:0|0:0,0:0:0:0:
295,368,101129,1,0,3:0:0:0:
296,354,101217,1,0,3:0:0:0:
297,340,101305,5,8,1:2:0:0:
67,217,101658,2,0,L|82:395,2,145,10|10|10,0:0|0:0|0:0,0:0:0:0:
93,126,102540,1,2,3:2:0:0:
107,125,102629,1,0,3:0:0:0:
121,124,102717,5,6,3:2:0:0:
79,361,103070,2,0,L|73:289,1,72.5,8|0,0:0|0:0,0:0:0:0:
158,248,103423,2,0,P|224:272|288:243,1,145,10|8,0:0|0:0,0:0:0:0:
221,177,103952,1,0,3:0:0:0:
283,106,104129,6,0,P|217:82|153:111,1,145,10|8,0:0|0:0,0:0:0:0:
378,118,104834,1,10,0:0:0:0:
453,175,105011,1,2,3:2:0:0:
370,218,105187,2,0,L|364:290,1,72.5,10|0,0:0|3:0,0:0:0:0:
281,336,105540,6,0,P|245:339|210:330,1,72.5,10|0,0:0|0:0,0:0:0:0:
143,264,105893,2,0,P|139:228|148:193,1,72.5,10|0,0:0|0:0,0:0:0:0:
226,138,106246,1,10,0:0:0:0:
186,52,106423,1,2,0:0:0:0:
276,26,106599,2,0,L|348:32,1,72.5,10|0,0:0|3:0,0:0:0:0:
418,96,106952,6,0,L|490:90,2,72.5,10|2|10,0:0|0:0|0:0,0:0:0:0:
348,160,107481,1,2,3:2:0:0:
347,174,107570,1,0,3:0:0:0:
346,188,107658,2,0,L|352:254,2,36.25,0|0|6,3:2|3:0|3:0,0:0:0:0:
454,198,108011,1,14,0:0:0:0:
256,108,108364,6,0,P|220:105|185:114,1,72.5,2|2,3:2|3:2,0:0:0:0:
124,186,108717,2,0,L|136:328,1,108.75,6|0,3:2|3:0,0:0:0:0:
142,306,109070,6,0,P|178:309|213:300,1,72.5,2|2,3:2|3:2,0:0:0:0:
274,228,109423,2,0,L|262:85,1,108.75,6|0,3:2|3:0,0:0:0:0:
256,108,109776,6,0,P|205:107|128:168,1,145,0|8,3:0|0:0,0:0:0:0:
130,255,110305,1,2,0:0:0:0:
49,207,110481,2,0,L|43:141,2,36.25,2|0|2,0:0|3:0|3:2,0:0:0:0:
20,312,110834,1,10,0:0:0:0:
126,88,111187,6,0,L|132:160,1,72.5,6|0,3:2|0:0,0:0:0:0:
220,196,111540,2,0,L|214:268,1,72.5,10|2,0:0|0:0,0:0:0:0:
320,268,111893,2,0,L|314:196,1,72.5,2|2,3:2|3:2,0:0:0:0:
402,160,112246,2,0,L|408:88,1,72.5,10|2,0:0|0:0,0:0:0:0:
363,13,112599,6,0,P|297:-11|233:18,1,145,2|2,3:2|0:0,0:0:0:0:
211,104,113129,1,2,3:2:0:0:
126,88,113305,2,0,P|90:85|55:94,1,72.5,2|0,0:0|3:0,0:0:0:0:
0,162,113658,2,0,L|6:234,1,72.5,8|0,0:0|3:0,0:0:0:0:
52,308,114011,6,0,P|118:332|182:303,1,145,2|0,3:2|0:0,0:0:0:0:
229,228,114540,1,0,3:0:0:0:
316,235,114717,2,0,L|322:163,1,72.5,2|0,0:0|0:0,0:0:0:0:
388,106,115070,2,0,L|382:34,1,72.5,10|2,0:0|0:0,0:0:0:0:
373,23,115334,1,2,0:0:0:0:
363,13,115423,6,0,P|297:-11|233:18,1,145,2|0,3:2|0:0,0:0:0:0:
211,104,115952,1,2,3:2:0:0:
126,88,116129,2,0,P|90:85|55:94,1,72.5,2|0,0:0|0:0,0:0:0:0:
0,162,116481,1,10,0:0:0:0:
8,249,116658,1,8,0:0:0:0:
73,307,116834,5,2,3:2:0:0:
77,310,117011,2,0,P|113:313|148:304,1,72.5,0|2,0:0|0:0,0:0:0:0:
222,258,117364,1,2,3:2:0:0:
287,316,117540,2,0,L|465:331,1,145,2|10,0:0|0:0,0:0:0:0:
504,279,118070,1,8,0:0:0:0:
505,265,118158,1,8,0:0:0:0:
506,251,118246,6,0,L|497:150,1,79.7500024337769,14|2,0:0|0:0,0:0:0:0:
403,31,118599,2,0,L|394:132,1,79.7500024337769,10|2,0:0|0:0,0:0:0:0:
302,185,118952,1,14,3:2:0:0:
300,189,119129,1,2,3:2:0:0:
227,95,119305,1,14,0:0:0:0:
181,205,119481,1,14,3:2:0:0:
181,205,120717,5,0,3:0:0:0:
183,209,120893,2,0,P|165:289|51:160,1,362.5,6|0,3:2|0:0,0:0:0:0:
99,233,121952,1,8,0:0:0:0:
101,237,122129,1,14,0:0:0:0:
127,124,122305,1,14,3:2:0:0:
127,124,123339,5,8,2:3:0:0:
256,192,123515,12,0,125809,0:0:0:0:
