osu file format v14

[General]
AudioFilename: +Bad+Apple!!+feat.nomico++.mp3
AudioLeadIn: 0
PreviewTime: -1
Countdown: 0
SampleSet: Soft
StackLeniency: 0.7
Mode: 3
LetterboxInBreaks: 0
SpecialStyle: 1
WidescreenStoryboard: 1

[Editor]
DistanceSpacing: 1
BeatDivisor: 4
GridSize: 16
TimelineZoom: 1

[Metadata]
Title:Bad Apple!!
TitleUnicode:Bad Apple!!
Artist:nomico
ArtistUnicode:のみこ
Creator:Mysticalia
Version:Apple of her eye
Source:Touhou
Tags:
BeatmapID:901618
BeatmapSetID:416197

[Difficulty]
HPDrainRate:8
CircleSize:4
OverallDifficulty:9
ApproachRate:5
SliderMultiplier:1.4
SliderTickRate:1

[Events]
//Background and Video events
0,0,"komeijisisters.jpg",0,0
//Break Periods
//Storyboard Layer 0 (Background)
//Storyboard Layer 1 (Fail)
//Storyboard Layer 2 (Pass)
//Storyboard Layer 3 (Foreground)
//Storyboard Sound Samples

[TimingPoints]
2200,434.782608695652,4,2,0,0,1,0
85692,-100,4,2,0,0,0,1
141344,-100,4,2,0,0,0,0
196996,-100,4,2,0,0,0,1
224822,-100,4,2,0,0,0,0
252634,-100,4,2,0,0,0,1
280460,-100,4,2,0,0,0,0

[HitObjects]
64,192,2200,5,0,0:0:0:0:
320,192,2200,1,0,0:0:0:0:
448,192,2200,1,0,0:0:0:0:
192,192,2417,1,0,0:0:0:0:
320,192,2526,1,0,0:0:0:0:
448,192,2634,1,0,0:0:0:0:
64,192,2634,1,0,0:0:0:0:
192,192,2852,1,0,0:0:0:0:
320,192,2960,1,0,0:0:0:0:
64,192,3069,1,0,0:0:0:0:
448,192,3069,1,0,0:0:0:0:
192,192,3286,1,0,0:0:0:0:
320,192,3395,1,0,0:0:0:0:
448,192,3504,1,0,0:0:0:0:
192,192,3504,1,0,0:0:0:0:
64,192,3613,1,0,0:0:0:0:
320,192,3613,1,0,0:0:0:0:
192,192,3721,1,0,0:0:0:0:
448,192,3721,1,0,0:0:0:0:
320,192,3830,1,0,0:0:0:0:
64,192,3830,1,0,0:0:0:0:
192,192,3939,1,0,0:0:0:0:
448,192,3939,1,0,0:0:0:0:
64,192,4156,1,0,0:0:0:0:
192,192,4265,1,0,0:0:0:0:
320,192,4373,1,0,0:0:0:0:
448,192,4373,1,0,0:0:0:0:
64,192,4591,1,0,0:0:0:0:
192,192,4699,1,0,0:0:0:0:
320,192,4808,1,0,0:0:0:0:
448,192,4808,1,0,0:0:0:0:
64,192,5026,1,0,0:0:0:0:
192,192,5134,1,0,0:0:0:0:
320,192,5243,1,0,0:0:0:0:
448,192,5243,1,0,0:0:0:0:
192,192,5460,1,0,0:0:0:0:
64,192,5460,1,0,0:0:0:0:
320,192,5678,1,0,0:0:0:0:
448,192,5678,1,0,0:0:0:0:
320,192,5895,1,0,0:0:0:0:
192,192,6004,1,0,0:0:0:0:
64,192,6113,1,0,0:0:0:0:
448,192,6113,1,0,0:0:0:0:
320,192,6330,1,0,0:0:0:0:
192,192,6439,1,0,0:0:0:0:
448,192,6547,1,0,0:0:0:0:
64,192,6547,1,0,0:0:0:0:
320,192,6765,1,0,0:0:0:0:
192,192,6873,1,0,0:0:0:0:
64,192,6982,1,0,0:0:0:0:
320,192,6982,1,0,0:0:0:0:
448,192,7091,1,0,0:0:0:0:
192,192,7091,1,0,0:0:0:0:
320,192,7199,1,0,0:0:0:0:
64,192,7199,1,0,0:0:0:0:
192,192,7308,1,0,0:0:0:0:
448,192,7308,1,0,0:0:0:0:
320,192,7417,1,0,0:0:0:0:
64,192,7417,1,0,0:0:0:0:
448,192,7634,1,0,0:0:0:0:
320,192,7743,1,0,0:0:0:0:
192,192,7852,1,0,0:0:0:0:
64,192,7852,1,0,0:0:0:0:
448,192,8069,1,0,0:0:0:0:
320,192,8178,1,0,0:0:0:0:
192,192,8286,1,0,0:0:0:0:
64,192,8286,1,0,0:0:0:0:
448,192,8504,1,0,0:0:0:0:
320,192,8613,1,0,0:0:0:0:
192,192,8721,1,0,0:0:0:0:
64,192,8721,1,0,0:0:0:0:
320,192,8939,1,0,0:0:0:0:
448,192,8939,1,0,0:0:0:0:
192,192,9156,1,0,0:0:0:0:
64,192,9156,1,0,0:0:0:0:
320,192,9373,1,0,0:0:0:0:
448,192,9482,1,0,0:0:0:0:
320,192,9591,1,0,0:0:0:0:
64,192,9591,1,0,0:0:0:0:
448,192,9699,1,0,0:0:0:0:
192,192,9808,1,0,0:0:0:0:
64,192,9917,1,0,0:0:0:0:
192,192,10026,1,0,0:0:0:0:
448,192,10026,1,0,0:0:0:0:
320,192,10134,1,0,0:0:0:0:
192,192,10243,1,0,0:0:0:0:
64,192,10352,1,0,0:0:0:0:
320,192,10460,1,0,0:0:0:0:
192,192,10460,1,0,0:0:0:0:
64,192,10569,1,0,0:0:0:0:
448,192,10569,1,0,0:0:0:0:
320,192,10678,1,0,0:0:0:0:
192,192,10678,1,0,0:0:0:0:
64,192,10786,1,0,0:0:0:0:
448,192,10786,1,0,0:0:0:0:
320,192,10895,1,0,0:0:0:0:
192,192,10895,1,0,0:0:0:0:
448,192,11004,1,0,0:0:0:0:
64,192,11113,1,0,0:0:0:0:
448,192,11221,1,0,0:0:0:0:
320,192,11330,1,0,0:0:0:0:
192,192,11330,1,0,0:0:0:0:
64,192,11439,1,0,0:0:0:0:
448,192,11547,1,0,0:0:0:0:
64,192,11656,1,0,0:0:0:0:
320,192,11765,1,0,0:0:0:0:
192,192,11765,1,0,0:0:0:0:
448,192,11873,1,0,0:0:0:0:
64,192,11982,1,0,0:0:0:0:
448,192,12091,1,0,0:0:0:0:
320,192,12199,1,0,0:0:0:0:
192,192,12199,1,0,0:0:0:0:
192,192,12417,1,0,0:0:0:0:
320,192,12417,1,0,0:0:0:0:
448,192,12634,1,0,0:0:0:0:
64,192,12634,1,0,0:0:0:0:
320,192,12743,1,0,0:0:0:0:
192,192,12852,1,0,0:0:0:0:
64,192,12960,1,0,0:0:0:0:
192,192,13069,1,0,0:0:0:0:
448,192,13069,1,0,0:0:0:0:
64,192,13178,1,0,0:0:0:0:
320,192,13286,1,0,0:0:0:0:
448,192,13395,1,0,0:0:0:0:
320,192,13504,1,0,0:0:0:0:
64,192,13504,1,0,0:0:0:0:
448,192,13613,1,0,0:0:0:0:
192,192,13721,1,0,0:0:0:0:
64,192,13830,1,0,0:0:0:0:
192,192,13939,1,0,0:0:0:0:
320,192,13939,1,0,0:0:0:0:
448,192,14047,1,0,0:0:0:0:
64,192,14047,1,0,0:0:0:0:
192,192,14156,1,0,0:0:0:0:
320,192,14156,1,0,0:0:0:0:
448,192,14265,1,0,0:0:0:0:
64,192,14265,1,0,0:0:0:0:
192,192,14373,1,0,0:0:0:0:
320,192,14373,1,0,0:0:0:0:
64,192,14482,1,0,0:0:0:0:
448,192,14591,1,0,0:0:0:0:
64,192,14699,1,0,0:0:0:0:
192,192,14808,1,0,0:0:0:0:
320,192,14808,1,0,0:0:0:0:
448,192,14917,1,0,0:0:0:0:
64,192,15026,1,0,0:0:0:0:
448,192,15134,1,0,0:0:0:0:
192,192,15243,1,0,0:0:0:0:
320,192,15243,1,0,0:0:0:0:
64,192,15352,1,0,0:0:0:0:
448,192,15460,1,0,0:0:0:0:
64,192,15569,1,0,0:0:0:0:
192,192,15678,1,0,0:0:0:0:
320,192,15678,1,0,0:0:0:0:
448,192,15678,1,0,0:0:0:0:
64,192,16113,128,0,16330:0:0:0:0:
320,192,16113,1,0,0:0:0:0:
448,192,16113,1,0,0:0:0:0:
192,192,16330,128,0,16439:0:0:0:0:
320,192,16439,128,0,16547:0:0:0:0:
448,192,16547,1,0,0:0:0:0:
64,192,16547,1,0,0:0:0:0:
192,192,16656,128,0,16765:0:0:0:0:
320,192,16765,128,0,16873:0:0:0:0:
192,192,16873,128,0,16982:0:0:0:0:
448,192,16982,1,0,0:0:0:0:
64,192,16982,128,0,17199:0:0:0:0:
192,192,17199,128,0,17308:0:0:0:0:
320,192,17308,128,0,17417:0:0:0:0:
448,192,17417,1,0,0:0:0:0:
64,192,17417,1,0,0:0:0:0:
192,192,17526,128,0,17634:0:0:0:0:
320,192,17634,128,0,17743:0:0:0:0:
192,192,17743,128,0,17852:0:0:0:0:
448,192,17852,1,0,0:0:0:0:
64,192,17852,128,0,18069:0:0:0:0:
192,192,18069,128,0,18178:0:0:0:0:
320,192,18178,128,0,18286:0:0:0:0:
448,192,18286,1,0,0:0:0:0:
64,192,18286,1,0,0:0:0:0:
192,192,18395,128,0,18504:0:0:0:0:
320,192,18504,128,0,18613:0:0:0:0:
192,192,18613,128,0,18721:0:0:0:0:
448,192,18721,1,0,0:0:0:0:
64,192,18721,128,0,18939:0:0:0:0:
192,192,18939,128,0,19047:0:0:0:0:
320,192,19047,128,0,19156:0:0:0:0:
448,192,19156,128,0,19373:0:0:0:0:
64,192,19156,1,0,0:0:0:0:
192,192,19373,128,0,19482:0:0:0:0:
64,192,19373,1,0,0:0:0:0:
320,192,19482,128,0,19591:0:0:0:0:
448,192,19591,128,0,19808:0:0:0:0:
192,192,19591,1,0,0:0:0:0:
64,192,19591,1,0,0:0:0:0:
320,192,19808,128,0,19917:0:0:0:0:
192,192,19917,128,0,20026:0:0:0:0:
64,192,20026,1,0,0:0:0:0:
448,192,20026,1,0,0:0:0:0:
320,192,20134,128,0,20243:0:0:0:0:
192,192,20243,128,0,20352:0:0:0:0:
320,192,20352,128,0,20460:0:0:0:0:
64,192,20460,1,0,0:0:0:0:
448,192,20460,128,0,20678:0:0:0:0:
320,192,20678,128,0,20786:0:0:0:0:
192,192,20786,128,0,20895:0:0:0:0:
64,192,20895,1,0,0:0:0:0:
448,192,20895,1,0,0:0:0:0:
320,192,21004,128,0,21113:0:0:0:0:
192,192,21113,128,0,21221:0:0:0:0:
320,192,21221,128,0,21330:0:0:0:0:
64,192,21330,1,0,0:0:0:0:
448,192,21330,128,0,21547:0:0:0:0:
320,192,21547,128,0,21656:0:0:0:0:
192,192,21656,128,0,21765:0:0:0:0:
64,192,21765,1,0,0:0:0:0:
448,192,21765,1,0,0:0:0:0:
320,192,21873,128,0,21982:0:0:0:0:
192,192,21982,128,0,22091:0:0:0:0:
320,192,22091,128,0,22199:0:0:0:0:
64,192,22199,1,0,0:0:0:0:
448,192,22199,128,0,22417:0:0:0:0:
320,192,22417,128,0,22526:0:0:0:0:
192,192,22526,128,0,22634:0:0:0:0:
64,192,22634,128,0,22852:0:0:0:0:
448,192,22634,1,0,0:0:0:0:
320,192,22852,128,0,22960:0:0:0:0:
448,192,22852,1,0,0:0:0:0:
192,192,22960,128,0,23069:0:0:0:0:
320,192,23069,128,0,23286:0:0:0:0:
448,192,23069,1,0,0:0:0:0:
64,192,23286,128,0,23395:0:0:0:0:
448,192,23395,128,0,23504:0:0:0:0:
192,192,23504,1,0,0:0:0:0:
320,192,23504,1,0,0:0:0:0:
64,192,23613,128,0,23721:0:0:0:0:
448,192,23721,128,0,23830:0:0:0:0:
64,192,23830,128,0,23939:0:0:0:0:
192,192,23939,128,0,24156:0:0:0:0:
320,192,23939,1,0,0:0:0:0:
448,192,24156,128,0,24265:0:0:0:0:
64,192,24265,128,0,24373:0:0:0:0:
192,192,24373,1,0,0:0:0:0:
320,192,24373,1,0,0:0:0:0:
448,192,24482,128,0,24591:0:0:0:0:
64,192,24591,128,0,24699:0:0:0:0:
448,192,24699,128,0,24808:0:0:0:0:
320,192,24808,128,0,25026:0:0:0:0:
192,192,24808,1,0,0:0:0:0:
64,192,25026,128,0,25134:0:0:0:0:
448,192,25134,128,0,25243:0:0:0:0:
320,192,25243,1,0,0:0:0:0:
192,192,25243,1,0,0:0:0:0:
64,192,25352,128,0,25460:0:0:0:0:
448,192,25460,128,0,25569:0:0:0:0:
64,192,25569,128,0,25678:0:0:0:0:
192,192,25678,128,0,25895:0:0:0:0:
320,192,25678,1,0,0:0:0:0:
448,192,25895,128,0,26004:0:0:0:0:
64,192,26004,128,0,26113:0:0:0:0:
320,192,26113,128,0,26330:0:0:0:0:
192,192,26113,1,0,0:0:0:0:
64,192,26330,128,0,26439:0:0:0:0:
192,192,26330,1,0,0:0:0:0:
448,192,26439,128,0,26547:0:0:0:0:
320,192,26547,1,0,0:0:0:0:
192,192,26547,128,0,26765:0:0:0:0:
448,192,26765,128,0,26873:0:0:0:0:
64,192,26873,128,0,26982:0:0:0:0:
320,192,26982,1,0,0:0:0:0:
192,192,26982,1,0,0:0:0:0:
448,192,27091,128,0,27199:0:0:0:0:
64,192,27199,128,0,27308:0:0:0:0:
448,192,27308,128,0,27417:0:0:0:0:
320,192,27417,128,0,27634:0:0:0:0:
192,192,27417,1,0,0:0:0:0:
64,192,27634,128,0,27743:0:0:0:0:
448,192,27743,128,0,27852:0:0:0:0:
320,192,27852,1,0,0:0:0:0:
192,192,27852,1,0,0:0:0:0:
64,192,27960,128,0,28069:0:0:0:0:
448,192,28069,128,0,28178:0:0:0:0:
64,192,28178,128,0,28286:0:0:0:0:
192,192,28286,128,0,28504:0:0:0:0:
320,192,28286,1,0,0:0:0:0:
448,192,28504,128,0,28613:0:0:0:0:
64,192,28613,128,0,28721:0:0:0:0:
192,192,28721,1,0,0:0:0:0:
320,192,28721,1,0,0:0:0:0:
448,192,28830,128,0,28939:0:0:0:0:
64,192,28939,128,0,29047:0:0:0:0:
448,192,29047,128,0,29156:0:0:0:0:
192,192,29156,1,0,0:0:0:0:
64,192,29156,1,0,0:0:0:0:
320,192,29156,1,0,0:0:0:0:
64,192,29301,1,0,0:0:0:0:
192,192,29301,1,0,0:0:0:0:
448,192,29301,1,0,0:0:0:0:
320,192,29446,1,0,0:0:0:0:
448,192,29446,1,0,0:0:0:0:
64,192,29446,1,0,0:0:0:0:
192,192,29591,1,0,0:0:0:0:
320,192,29591,1,0,0:0:0:0:
448,192,29591,1,0,0:0:0:0:
320,192,29736,1,0,0:0:0:0:
64,192,29736,1,0,0:0:0:0:
448,192,29736,1,0,0:0:0:0:
64,192,29881,1,0,0:0:0:0:
192,192,29881,1,0,0:0:0:0:
448,192,29881,1,0,0:0:0:0:
320,192,30026,1,0,0:0:0:0:
64,192,30026,128,0,30243:0:0:0:0:
448,192,30026,128,0,30243:0:0:0:0:
192,192,30243,128,0,30352:0:0:0:0:
320,192,30352,128,0,30460:0:0:0:0:
64,192,30460,1,0,0:0:0:0:
448,192,30460,1,0,0:0:0:0:
192,192,30569,128,0,30678:0:0:0:0:
320,192,30678,128,0,30786:0:0:0:0:
192,192,30786,128,0,30895:0:0:0:0:
64,192,30895,128,0,31113:0:0:0:0:
448,192,30895,128,0,31113:0:0:0:0:
192,192,31113,128,0,31221:0:0:0:0:
320,192,31221,128,0,31330:0:0:0:0:
64,192,31330,1,0,0:0:0:0:
448,192,31330,1,0,0:0:0:0:
192,192,31439,128,0,31547:0:0:0:0:
320,192,31547,128,0,31656:0:0:0:0:
192,192,31656,128,0,31765:0:0:0:0:
64,192,31765,128,0,31982:0:0:0:0:
448,192,31765,128,0,31982:0:0:0:0:
192,192,31982,128,0,32091:0:0:0:0:
320,192,32091,128,0,32199:0:0:0:0:
64,192,32199,1,0,0:0:0:0:
448,192,32199,1,0,0:0:0:0:
192,192,32308,128,0,32417:0:0:0:0:
320,192,32417,128,0,32526:0:0:0:0:
192,192,32526,128,0,32634:0:0:0:0:
64,192,32634,128,0,32852:0:0:0:0:
448,192,32634,128,0,32852:0:0:0:0:
192,192,32852,128,0,32960:0:0:0:0:
320,192,32960,128,0,33069:0:0:0:0:
448,192,33069,128,0,33286:0:0:0:0:
64,192,33069,128,0,33178:0:0:0:0:
192,192,33286,128,0,33395:0:0:0:0:
64,192,33286,128,0,33395:0:0:0:0:
320,192,33395,128,0,33504:0:0:0:0:
192,192,33504,1,0,0:0:0:0:
448,192,33504,128,0,33721:0:0:0:0:
64,192,33504,128,0,33721:0:0:0:0:
320,192,33721,128,0,33830:0:0:0:0:
192,192,33830,128,0,33939:0:0:0:0:
448,192,33939,1,0,0:0:0:0:
64,192,33939,1,0,0:0:0:0:
320,192,34047,128,0,34156:0:0:0:0:
192,192,34156,128,0,34265:0:0:0:0:
320,192,34265,128,0,34373:0:0:0:0:
448,192,34373,128,0,34591:0:0:0:0:
64,192,34373,128,0,34591:0:0:0:0:
320,192,34591,128,0,34699:0:0:0:0:
192,192,34699,128,0,34808:0:0:0:0:
448,192,34808,1,0,0:0:0:0:
64,192,34808,1,0,0:0:0:0:
320,192,34917,128,0,35026:0:0:0:0:
192,192,35026,128,0,35134:0:0:0:0:
320,192,35134,128,0,35243:0:0:0:0:
448,192,35243,128,0,35460:0:0:0:0:
64,192,35243,128,0,35460:0:0:0:0:
320,192,35460,128,0,35569:0:0:0:0:
192,192,35569,128,0,35678:0:0:0:0:
448,192,35678,1,0,0:0:0:0:
64,192,35678,1,0,0:0:0:0:
320,192,35786,128,0,35895:0:0:0:0:
192,192,35895,128,0,36004:0:0:0:0:
320,192,36004,128,0,36113:0:0:0:0:
448,192,36113,128,0,36330:0:0:0:0:
64,192,36113,128,0,36330:0:0:0:0:
320,192,36330,128,0,36439:0:0:0:0:
192,192,36439,128,0,36547:0:0:0:0:
64,192,36547,128,0,36765:0:0:0:0:
448,192,36547,128,0,36656:0:0:0:0:
320,192,36765,128,0,36873:0:0:0:0:
448,192,36765,128,0,36873:0:0:0:0:
192,192,36873,128,0,36982:0:0:0:0:
320,192,36982,128,0,37199:0:0:0:0:
448,192,36982,128,0,37199:0:0:0:0:
64,192,37199,128,0,37308:0:0:0:0:
448,192,37308,128,0,37417:0:0:0:0:
320,192,37417,1,0,0:0:0:0:
192,192,37417,1,0,0:0:0:0:
64,192,37526,128,0,37634:0:0:0:0:
448,192,37634,128,0,37743:0:0:0:0:
64,192,37743,128,0,37852:0:0:0:0:
192,192,37852,128,0,38069:0:0:0:0:
320,192,37852,128,0,38069:0:0:0:0:
448,192,38069,128,0,38178:0:0:0:0:
64,192,38178,128,0,38286:0:0:0:0:
320,192,38286,1,0,0:0:0:0:
192,192,38286,1,0,0:0:0:0:
448,192,38395,128,0,38504:0:0:0:0:
64,192,38504,128,0,38613:0:0:0:0:
448,192,38613,128,0,38721:0:0:0:0:
320,192,38721,128,0,38939:0:0:0:0:
192,192,38721,128,0,38939:0:0:0:0:
64,192,38939,128,0,39047:0:0:0:0:
448,192,39047,128,0,39156:0:0:0:0:
192,192,39156,1,0,0:0:0:0:
320,192,39156,1,0,0:0:0:0:
64,192,39265,128,0,39373:0:0:0:0:
448,192,39373,128,0,39482:0:0:0:0:
64,192,39482,128,0,39591:0:0:0:0:
192,192,39591,128,0,39808:0:0:0:0:
320,192,39591,128,0,39808:0:0:0:0:
448,192,39808,128,0,39917:0:0:0:0:
64,192,39917,128,0,40026:0:0:0:0:
192,192,40026,1,0,0:0:0:0:
320,192,40026,128,0,40243:0:0:0:0:
192,192,40243,1,0,0:0:0:0:
64,192,40243,128,0,40352:0:0:0:0:
448,192,40352,128,0,40460:0:0:0:0:
192,192,40460,128,0,40678:0:0:0:0:
320,192,40460,128,0,40678:0:0:0:0:
448,192,40678,128,0,40786:0:0:0:0:
64,192,40786,128,0,40895:0:0:0:0:
192,192,40895,1,0,0:0:0:0:
320,192,40895,1,0,0:0:0:0:
448,192,41004,128,0,41113:0:0:0:0:
64,192,41113,128,0,41221:0:0:0:0:
448,192,41221,128,0,41330:0:0:0:0:
320,192,41330,128,0,41547:0:0:0:0:
192,192,41330,128,0,41547:0:0:0:0:
64,192,41547,128,0,41656:0:0:0:0:
448,192,41656,128,0,41765:0:0:0:0:
192,192,41765,1,0,0:0:0:0:
320,192,41765,1,0,0:0:0:0:
64,192,41873,128,0,41982:0:0:0:0:
448,192,41982,128,0,42091:0:0:0:0:
64,192,42091,128,0,42199:0:0:0:0:
192,192,42199,128,0,42417:0:0:0:0:
320,192,42199,128,0,42417:0:0:0:0:
448,192,42417,128,0,42526:0:0:0:0:
64,192,42526,128,0,42634:0:0:0:0:
320,192,42634,1,0,0:0:0:0:
192,192,42634,1,0,0:0:0:0:
448,192,42743,128,0,42852:0:0:0:0:
64,192,42852,128,0,42960:0:0:0:0:
448,192,42960,128,0,43069:0:0:0:0:
320,192,43069,1,0,0:0:0:0:
64,192,43069,1,0,0:0:0:0:
192,192,43069,1,0,0:0:0:0:
448,192,43214,1,0,0:0:0:0:
192,192,43214,1,0,0:0:0:0:
64,192,43214,1,0,0:0:0:0:
64,192,43359,1,0,0:0:0:0:
448,192,43359,1,0,0:0:0:0:
320,192,43359,1,0,0:0:0:0:
448,192,43504,1,0,0:0:0:0:
320,192,43504,1,0,0:0:0:0:
192,192,43504,1,0,0:0:0:0:
448,192,43649,1,0,0:0:0:0:
64,192,43649,1,0,0:0:0:0:
320,192,43649,1,0,0:0:0:0:
448,192,43794,1,0,0:0:0:0:
192,192,43794,1,0,0:0:0:0:
64,192,43794,1,0,0:0:0:0:
320,192,43939,1,0,0:0:0:0:
192,192,43939,1,0,0:0:0:0:
64,192,43939,1,0,0:0:0:0:
448,192,43939,1,0,0:0:0:0:
192,192,44156,1,0,0:0:0:0:
448,192,44265,1,0,0:0:0:0:
64,192,44373,1,0,0:0:0:0:
192,192,44373,1,0,0:0:0:0:
448,192,44482,1,0,0:0:0:0:
320,192,44482,1,0,0:0:0:0:
192,192,44591,1,0,0:0:0:0:
320,192,44699,1,0,0:0:0:0:
448,192,44808,128,0,45026:0:0:0:0:
64,192,45026,1,0,0:0:0:0:
192,192,45026,1,0,0:0:0:0:
320,192,45134,1,0,0:0:0:0:
448,192,45134,1,0,0:0:0:0:
192,192,45243,1,0,0:0:0:0:
320,192,45352,1,0,0:0:0:0:
64,192,45460,1,0,0:0:0:0:
192,192,45460,128,0,45678:0:0:0:0:
64,192,45678,128,0,45895:0:0:0:0:
448,192,45678,1,0,0:0:0:0:
192,192,45895,1,0,0:0:0:0:
320,192,46004,1,0,0:0:0:0:
448,192,46113,128,0,46330:0:0:0:0:
64,192,46113,1,0,0:0:0:0:
192,192,46330,1,0,0:0:0:0:
64,192,46547,1,0,0:0:0:0:
192,192,46656,1,0,0:0:0:0:
448,192,46656,1,0,0:0:0:0:
320,192,46765,128,0,46982:0:0:0:0:
64,192,46765,1,0,0:0:0:0:
192,192,46982,1,0,0:0:0:0:
448,192,47091,1,0,0:0:0:0:
64,192,47199,1,0,0:0:0:0:
320,192,47308,1,0,0:0:0:0:
64,192,47417,1,0,0:0:0:0:
320,192,47526,1,0,0:0:0:0:
192,192,47634,1,0,0:0:0:0:
448,192,47743,1,0,0:0:0:0:
192,192,47852,1,0,0:0:0:0:
320,192,47852,1,0,0:0:0:0:
448,192,47960,1,0,0:0:0:0:
64,192,47960,1,0,0:0:0:0:
320,192,48069,1,0,0:0:0:0:
192,192,48178,1,0,0:0:0:0:
64,192,48286,128,0,48504:0:0:0:0:
192,192,48504,1,0,0:0:0:0:
448,192,48504,1,0,0:0:0:0:
320,192,48613,1,0,0:0:0:0:
64,192,48613,1,0,0:0:0:0:
448,192,48721,1,0,0:0:0:0:
320,192,48830,1,0,0:0:0:0:
192,192,48939,1,0,0:0:0:0:
64,192,48939,1,0,0:0:0:0:
320,192,49047,1,0,0:0:0:0:
448,192,49156,128,0,49373:0:0:0:0:
192,192,49156,1,0,0:0:0:0:
64,192,49373,1,0,0:0:0:0:
192,192,49482,1,0,0:0:0:0:
320,192,49591,128,0,49808:0:0:0:0:
448,192,49591,1,0,0:0:0:0:
64,192,49808,1,0,0:0:0:0:
192,192,49917,1,0,0:0:0:0:
320,192,50026,1,0,0:0:0:0:
64,192,50026,1,0,0:0:0:0:
448,192,50134,1,0,0:0:0:0:
192,192,50134,1,0,0:0:0:0:
320,192,50388,1,0,0:0:0:0:
448,192,50388,1,0,0:0:0:0:
192,192,50605,1,0,0:0:0:0:
320,192,50605,1,0,0:0:0:0:
64,192,50823,1,0,0:0:0:0:
320,192,50823,1,0,0:0:0:0:
192,192,50895,1,0,0:0:0:0:
448,192,50895,1,0,0:0:0:0:
320,192,51004,1,0,0:0:0:0:
192,192,51113,1,0,0:0:0:0:
64,192,51221,1,0,0:0:0:0:
320,192,51330,1,0,0:0:0:0:
448,192,51330,1,0,0:0:0:0:
192,192,51439,1,0,0:0:0:0:
64,192,51439,1,0,0:0:0:0:
448,192,51547,1,0,0:0:0:0:
320,192,51656,1,0,0:0:0:0:
64,192,51765,128,0,51982:0:0:0:0:
448,192,51873,1,0,0:0:0:0:
320,192,51982,1,0,0:0:0:0:
192,192,51982,1,0,0:0:0:0:
64,192,52091,1,0,0:0:0:0:
448,192,52091,1,0,0:0:0:0:
320,192,52199,1,0,0:0:0:0:
192,192,52308,1,0,0:0:0:0:
448,192,52417,128,0,52634:0:0:0:0:
64,192,52417,1,0,0:0:0:0:
192,192,52526,1,0,0:0:0:0:
320,192,52634,1,0,0:0:0:0:
192,192,52743,1,0,0:0:0:0:
320,192,52852,1,0,0:0:0:0:
448,192,52960,1,0,0:0:0:0:
192,192,53069,1,0,0:0:0:0:
320,192,53069,128,0,53286:0:0:0:0:
448,192,53178,1,0,0:0:0:0:
64,192,53178,1,0,0:0:0:0:
192,192,53286,1,0,0:0:0:0:
448,192,53395,1,0,0:0:0:0:
192,192,53504,1,0,0:0:0:0:
64,192,53504,128,0,53721:0:0:0:0:
320,192,53613,1,0,0:0:0:0:
448,192,53613,1,0,0:0:0:0:
192,192,53721,128,0,53939:0:0:0:0:
448,192,53939,1,0,0:0:0:0:
320,192,54047,1,0,0:0:0:0:
192,192,54156,1,0,0:0:0:0:
64,192,54265,1,0,0:0:0:0:
320,192,54373,1,0,0:0:0:0:
192,192,54482,1,0,0:0:0:0:
64,192,54591,1,0,0:0:0:0:
192,192,54699,1,0,0:0:0:0:
320,192,54808,1,0,0:0:0:0:
64,192,54808,1,0,0:0:0:0:
448,192,54917,1,0,0:0:0:0:
192,192,54917,1,0,0:0:0:0:
64,192,55026,1,0,0:0:0:0:
192,192,55134,1,0,0:0:0:0:
320,192,55243,128,0,55460:0:0:0:0:
64,192,55460,1,0,0:0:0:0:
448,192,55460,1,0,0:0:0:0:
192,192,55569,1,0,0:0:0:0:
320,192,55569,1,0,0:0:0:0:
448,192,55678,1,0,0:0:0:0:
320,192,55786,1,0,0:0:0:0:
192,192,55895,1,0,0:0:0:0:
320,192,56004,1,0,0:0:0:0:
64,192,56113,128,0,56547:0:0:0:0:
448,192,56221,1,0,0:0:0:0:
320,192,56330,1,0,0:0:0:0:
192,192,56439,1,0,0:0:0:0:
320,192,56547,128,0,56982:0:0:0:0:
448,192,56547,1,0,0:0:0:0:
192,192,56765,1,0,0:0:0:0:
192,192,56982,1,0,0:0:0:0:
64,192,56982,1,0,0:0:0:0:
448,192,56982,1,0,0:0:0:0:
320,192,57127,1,0,0:0:0:0:
192,192,57127,1,0,0:0:0:0:
64,192,57127,1,0,0:0:0:0:
448,192,57272,1,0,0:0:0:0:
192,192,57272,1,0,0:0:0:0:
64,192,57272,1,0,0:0:0:0:
64,192,57417,1,0,0:0:0:0:
320,192,57417,1,0,0:0:0:0:
448,192,57417,1,0,0:0:0:0:
192,192,57562,1,0,0:0:0:0:
320,192,57562,1,0,0:0:0:0:
448,192,57562,1,0,0:0:0:0:
448,192,57707,1,0,0:0:0:0:
320,192,57707,1,0,0:0:0:0:
64,192,57707,1,0,0:0:0:0:
64,192,57852,1,0,0:0:0:0:
320,192,57852,1,0,0:0:0:0:
448,192,57852,1,0,0:0:0:0:
192,192,57852,1,0,0:0:0:0:
64,192,58286,1,0,0:0:0:0:
320,192,58286,1,0,0:0:0:0:
64,192,58721,1,0,0:0:0:0:
320,192,58721,1,0,0:0:0:0:
320,192,59156,1,0,0:0:0:0:
64,192,59156,1,0,0:0:0:0:
192,192,59265,1,0,0:0:0:0:
320,192,59373,1,0,0:0:0:0:
448,192,59482,1,0,0:0:0:0:
320,192,59591,1,0,0:0:0:0:
192,192,59591,1,0,0:0:0:0:
320,192,60026,1,0,0:0:0:0:
192,192,60026,1,0,0:0:0:0:
192,192,60460,1,0,0:0:0:0:
320,192,60460,1,0,0:0:0:0:
320,192,60895,1,0,0:0:0:0:
192,192,60895,1,0,0:0:0:0:
64,192,61004,1,0,0:0:0:0:
192,192,61113,1,0,0:0:0:0:
320,192,61113,1,0,0:0:0:0:
448,192,61221,1,0,0:0:0:0:
192,192,61330,1,0,0:0:0:0:
64,192,61330,1,0,0:0:0:0:
192,192,61765,1,0,0:0:0:0:
320,192,61765,1,0,0:0:0:0:
320,192,62199,1,0,0:0:0:0:
448,192,62199,1,0,0:0:0:0:
448,192,62634,1,0,0:0:0:0:
64,192,62634,1,0,0:0:0:0:
320,192,62743,1,0,0:0:0:0:
192,192,62852,1,0,0:0:0:0:
64,192,62960,1,0,0:0:0:0:
192,192,63069,1,0,0:0:0:0:
320,192,63069,1,0,0:0:0:0:
64,192,63504,1,0,0:0:0:0:
448,192,63504,1,0,0:0:0:0:
320,192,63939,1,0,0:0:0:0:
192,192,63939,1,0,0:0:0:0:
64,192,64047,1,0,0:0:0:0:
192,192,64156,1,0,0:0:0:0:
320,192,64156,1,0,0:0:0:0:
448,192,64265,1,0,0:0:0:0:
64,192,64373,1,0,0:0:0:0:
320,192,64373,1,0,0:0:0:0:
192,192,64482,1,0,0:0:0:0:
320,192,64591,1,0,0:0:0:0:
192,192,64699,1,0,0:0:0:0:
64,192,64808,1,0,0:0:0:0:
320,192,64808,1,0,0:0:0:0:
448,192,64808,1,0,0:0:0:0:
192,192,65026,1,0,0:0:0:0:
320,192,65243,1,0,0:0:0:0:
448,192,65243,1,0,0:0:0:0:
192,192,65460,1,0,0:0:0:0:
320,192,65678,1,0,0:0:0:0:
64,192,65678,1,0,0:0:0:0:
192,192,65895,1,0,0:0:0:0:
64,192,66113,1,0,0:0:0:0:
448,192,66113,1,0,0:0:0:0:
320,192,66221,1,0,0:0:0:0:
192,192,66330,1,0,0:0:0:0:
448,192,66439,1,0,0:0:0:0:
320,192,66547,1,0,0:0:0:0:
64,192,66547,1,0,0:0:0:0:
192,192,66765,1,0,0:0:0:0:
320,192,66982,1,0,0:0:0:0:
64,192,66982,1,0,0:0:0:0:
192,192,67199,1,0,0:0:0:0:
64,192,67417,1,0,0:0:0:0:
448,192,67417,1,0,0:0:0:0:
320,192,67634,1,0,0:0:0:0:
448,192,67852,1,0,0:0:0:0:
64,192,67852,1,0,0:0:0:0:
320,192,67960,1,0,0:0:0:0:
64,192,68069,1,0,0:0:0:0:
192,192,68069,1,0,0:0:0:0:
320,192,68178,1,0,0:0:0:0:
448,192,68286,1,0,0:0:0:0:
64,192,68286,1,0,0:0:0:0:
64,192,68504,1,0,0:0:0:0:
320,192,68721,1,0,0:0:0:0:
192,192,68721,1,0,0:0:0:0:
192,192,68939,1,0,0:0:0:0:
320,192,69156,1,0,0:0:0:0:
448,192,69156,1,0,0:0:0:0:
320,192,69373,1,0,0:0:0:0:
448,192,69591,1,0,0:0:0:0:
320,192,69591,1,0,0:0:0:0:
192,192,69699,1,0,0:0:0:0:
64,192,69808,1,0,0:0:0:0:
192,192,69917,1,0,0:0:0:0:
320,192,70026,1,0,0:0:0:0:
448,192,70026,1,0,0:0:0:0:
64,192,70243,128,0,70678:0:0:0:0:
448,192,70460,1,0,0:0:0:0:
192,192,70460,1,0,0:0:0:0:
320,192,70569,1,0,0:0:0:0:
192,192,70678,1,0,0:0:0:0:
320,192,70786,1,0,0:0:0:0:
64,192,70895,1,0,0:0:0:0:
448,192,70895,1,0,0:0:0:0:
192,192,70895,1,0,0:0:0:0:
448,192,71040,1,0,0:0:0:0:
320,192,71040,1,0,0:0:0:0:
192,192,71040,1,0,0:0:0:0:
64,192,71185,1,0,0:0:0:0:
320,192,71185,1,0,0:0:0:0:
448,192,71185,1,0,0:0:0:0:
448,192,71330,1,0,0:0:0:0:
192,192,71330,1,0,0:0:0:0:
64,192,71330,1,0,0:0:0:0:
64,192,71475,1,0,0:0:0:0:
320,192,71475,1,0,0:0:0:0:
448,192,71475,1,0,0:0:0:0:
64,192,71620,1,0,0:0:0:0:
192,192,71620,1,0,0:0:0:0:
448,192,71620,1,0,0:0:0:0:
64,192,71765,1,0,0:0:0:0:
192,192,71765,1,0,0:0:0:0:
320,192,71765,1,0,0:0:0:0:
448,192,71765,1,0,0:0:0:0:
64,192,71982,1,0,0:0:0:0:
192,192,72091,1,0,0:0:0:0:
320,192,72199,1,0,0:0:0:0:
448,192,72199,1,0,0:0:0:0:
448,192,72417,1,0,0:0:0:0:
320,192,72526,1,0,0:0:0:0:
64,192,72634,1,0,0:0:0:0:
192,192,72634,1,0,0:0:0:0:
320,192,72852,1,0,0:0:0:0:
448,192,72960,1,0,0:0:0:0:
320,192,73069,1,0,0:0:0:0:
64,192,73069,1,0,0:0:0:0:
192,192,73178,1,0,0:0:0:0:
320,192,73286,1,0,0:0:0:0:
448,192,73395,1,0,0:0:0:0:
64,192,73504,1,0,0:0:0:0:
320,192,73504,1,0,0:0:0:0:
192,192,73721,1,0,0:0:0:0:
448,192,73830,1,0,0:0:0:0:
320,192,73939,1,0,0:0:0:0:
64,192,73939,1,0,0:0:0:0:
320,192,74156,1,0,0:0:0:0:
64,192,74265,1,0,0:0:0:0:
192,192,74373,1,0,0:0:0:0:
448,192,74373,1,0,0:0:0:0:
320,192,74591,1,0,0:0:0:0:
192,192,74699,1,0,0:0:0:0:
64,192,74808,1,0,0:0:0:0:
448,192,74808,1,0,0:0:0:0:
192,192,74917,1,0,0:0:0:0:
64,192,75026,1,0,0:0:0:0:
448,192,75026,1,0,0:0:0:0:
320,192,75134,1,0,0:0:0:0:
192,192,75243,1,0,0:0:0:0:
448,192,75243,1,0,0:0:0:0:
64,192,75460,1,0,0:0:0:0:
192,192,75569,1,0,0:0:0:0:
448,192,75678,1,0,0:0:0:0:
64,192,75678,1,0,0:0:0:0:
448,192,75895,1,0,0:0:0:0:
320,192,76004,1,0,0:0:0:0:
448,192,76113,1,0,0:0:0:0:
64,192,76113,1,0,0:0:0:0:
64,192,76330,1,0,0:0:0:0:
192,192,76439,1,0,0:0:0:0:
320,192,76547,1,0,0:0:0:0:
448,192,76547,1,0,0:0:0:0:
192,192,76656,1,0,0:0:0:0:
64,192,76765,1,0,0:0:0:0:
192,192,76873,1,0,0:0:0:0:
320,192,76982,1,0,0:0:0:0:
64,192,76982,1,0,0:0:0:0:
320,192,77199,1,0,0:0:0:0:
192,192,77308,1,0,0:0:0:0:
64,192,77417,1,0,0:0:0:0:
448,192,77417,1,0,0:0:0:0:
192,192,77634,1,0,0:0:0:0:
320,192,77743,1,0,0:0:0:0:
448,192,77852,1,0,0:0:0:0:
64,192,77852,1,0,0:0:0:0:
320,192,77960,1,0,0:0:0:0:
192,192,78069,1,0,0:0:0:0:
64,192,78069,1,0,0:0:0:0:
320,192,78178,1,0,0:0:0:0:
448,192,78286,1,0,0:0:0:0:
64,192,78286,1,0,0:0:0:0:
320,192,78395,1,0,0:0:0:0:
192,192,78504,1,0,0:0:0:0:
64,192,78613,1,0,0:0:0:0:
192,192,78721,1,0,0:0:0:0:
320,192,78721,1,0,0:0:0:0:
448,192,78721,1,0,0:0:0:0:
64,192,78830,1,0,0:0:0:0:
192,192,78939,1,0,0:0:0:0:
64,192,79156,1,0,0:0:0:0:
320,192,79156,1,0,0:0:0:0:
448,192,79265,1,0,0:0:0:0:
320,192,79373,1,0,0:0:0:0:
64,192,79591,1,0,0:0:0:0:
320,192,79591,1,0,0:0:0:0:
192,192,79699,1,0,0:0:0:0:
320,192,79808,1,0,0:0:0:0:
448,192,80026,1,0,0:0:0:0:
192,192,80026,1,0,0:0:0:0:
320,192,80134,1,0,0:0:0:0:
192,192,80243,1,0,0:0:0:0:
448,192,80460,1,0,0:0:0:0:
320,192,80460,1,0,0:0:0:0:
192,192,80569,1,0,0:0:0:0:
64,192,80678,1,0,0:0:0:0:
64,192,80895,1,0,0:0:0:0:
192,192,80895,1,0,0:0:0:0:
320,192,81004,1,0,0:0:0:0:
448,192,81113,1,0,0:0:0:0:
64,192,81330,1,0,0:0:0:0:
192,192,81330,1,0,0:0:0:0:
320,192,81439,1,0,0:0:0:0:
192,192,81547,1,0,0:0:0:0:
448,192,81765,1,0,0:0:0:0:
64,192,81765,1,0,0:0:0:0:
192,192,81873,1,0,0:0:0:0:
320,192,81982,1,0,0:0:0:0:
64,192,81982,1,0,0:0:0:0:
192,192,82091,1,0,0:0:0:0:
64,192,82199,1,0,0:0:0:0:
448,192,82199,1,0,0:0:0:0:
320,192,82308,1,0,0:0:0:0:
192,192,82417,1,0,0:0:0:0:
64,192,82634,1,0,0:0:0:0:
320,192,82634,1,0,0:0:0:0:
192,192,82743,1,0,0:0:0:0:
320,192,82852,1,0,0:0:0:0:
448,192,83069,1,0,0:0:0:0:
64,192,83069,1,0,0:0:0:0:
192,192,83178,1,0,0:0:0:0:
320,192,83286,1,0,0:0:0:0:
64,192,83286,128,0,83830:0:0:0:0:
192,192,83504,1,0,0:0:0:0:
448,192,83504,1,0,0:0:0:0:
320,192,83613,1,0,0:0:0:0:
192,192,83721,1,0,0:0:0:0:
320,192,83830,1,0,0:0:0:0:
192,192,83939,1,0,0:0:0:0:
448,192,83939,1,0,0:0:0:0:
64,192,83939,1,0,0:0:0:0:
320,192,84047,1,0,0:0:0:0:
448,192,84156,1,0,0:0:0:0:
64,192,84373,1,0,0:0:0:0:
320,192,84373,1,0,0:0:0:0:
448,192,84373,1,0,0:0:0:0:
192,192,84482,1,0,0:0:0:0:
320,192,84591,1,0,0:0:0:0:
64,192,84808,1,0,0:0:0:0:
320,192,84808,1,0,0:0:0:0:
448,192,84808,1,0,0:0:0:0:
192,192,84917,1,0,0:0:0:0:
64,192,85026,1,0,0:0:0:0:
192,192,85243,1,0,0:0:0:0:
448,192,85243,1,0,0:0:0:0:
320,192,85352,1,0,0:0:0:0:
64,192,85352,1,0,0:0:0:0:
448,192,85460,1,0,0:0:0:0:
192,192,85460,1,0,0:0:0:0:
320,192,85569,1,0,0:0:0:0:
448,192,85678,1,0,0:0:0:0:
192,192,85678,1,0,0:0:0:0:
64,192,85678,1,0,0:0:0:0:
320,192,85786,1,0,0:0:0:0:
192,192,85895,1,0,0:0:0:0:
64,192,86004,1,0,0:0:0:0:
448,192,86113,1,0,0:0:0:0:
192,192,86113,1,0,0:0:0:0:
320,192,86221,1,0,0:0:0:0:
192,192,86330,1,0,0:0:0:0:
64,192,86439,1,0,0:0:0:0:
448,192,86547,1,0,0:0:0:0:
320,192,86547,1,0,0:0:0:0:
192,192,86656,1,0,0:0:0:0:
320,192,86765,1,0,0:0:0:0:
64,192,86873,1,0,0:0:0:0:
448,192,86982,1,0,0:0:0:0:
320,192,86982,1,0,0:0:0:0:
192,192,87091,1,0,0:0:0:0:
320,192,87199,1,0,0:0:0:0:
64,192,87308,1,0,0:0:0:0:
320,192,87417,1,0,0:0:0:0:
448,192,87417,1,0,0:0:0:0:
192,192,87526,1,0,0:0:0:0:
320,192,87634,1,0,0:0:0:0:
448,192,87743,1,0,0:0:0:0:
64,192,87852,1,0,0:0:0:0:
320,192,87852,1,0,0:0:0:0:
192,192,87960,1,0,0:0:0:0:
320,192,88069,1,0,0:0:0:0:
64,192,88069,1,0,0:0:0:0:
448,192,88178,1,0,0:0:0:0:
64,192,88286,1,0,0:0:0:0:
192,192,88286,1,0,0:0:0:0:
320,192,88395,1,0,0:0:0:0:
192,192,88504,1,0,0:0:0:0:
448,192,88613,1,0,0:0:0:0:
64,192,88721,1,0,0:0:0:0:
192,192,88721,1,0,0:0:0:0:
320,192,88830,1,0,0:0:0:0:
448,192,88830,1,0,0:0:0:0:
192,192,88939,1,0,0:0:0:0:
64,192,88939,1,0,0:0:0:0:
448,192,89047,1,0,0:0:0:0:
320,192,89156,1,0,0:0:0:0:
64,192,89156,1,0,0:0:0:0:
192,192,89265,1,0,0:0:0:0:
64,192,89373,1,0,0:0:0:0:
448,192,89482,1,0,0:0:0:0:
320,192,89591,1,0,0:0:0:0:
64,192,89591,1,0,0:0:0:0:
192,192,89699,1,0,0:0:0:0:
64,192,89808,1,0,0:0:0:0:
448,192,89917,1,0,0:0:0:0:
192,192,90026,1,0,0:0:0:0:
320,192,90026,1,0,0:0:0:0:
64,192,90134,1,0,0:0:0:0:
448,192,90243,1,0,0:0:0:0:
64,192,90352,1,0,0:0:0:0:
192,192,90460,1,0,0:0:0:0:
320,192,90460,1,0,0:0:0:0:
64,192,90569,1,0,0:0:0:0:
448,192,90678,1,0,0:0:0:0:
64,192,90786,1,0,0:0:0:0:
192,192,90895,1,0,0:0:0:0:
448,192,90895,1,0,0:0:0:0:
320,192,91004,1,0,0:0:0:0:
64,192,91113,1,0,0:0:0:0:
320,192,91221,1,0,0:0:0:0:
192,192,91330,1,0,0:0:0:0:
448,192,91330,1,0,0:0:0:0:
64,192,91439,1,0,0:0:0:0:
320,192,91547,1,0,0:0:0:0:
64,192,91656,1,0,0:0:0:0:
448,192,91765,128,0,91982:0:0:0:0:
192,192,91765,1,0,0:0:0:0:
320,192,91873,1,0,0:0:0:0:
192,192,91982,1,0,0:0:0:0:
64,192,91982,128,0,92091:0:0:0:0:
320,192,92091,128,0,92199:0:0:0:0:
192,192,92199,128,0,92417:0:0:0:0:
448,192,92199,1,0,0:0:0:0:
320,192,92308,1,0,0:0:0:0:
64,192,92417,128,0,92526:0:0:0:0:
320,192,92526,128,0,92634:0:0:0:0:
448,192,92634,1,0,0:0:0:0:
192,192,92634,1,0,0:0:0:0:
64,192,92634,1,0,0:0:0:0:
320,192,92743,1,0,0:0:0:0:
192,192,92852,1,0,0:0:0:0:
64,192,92960,1,0,0:0:0:0:
192,192,93069,1,0,0:0:0:0:
448,192,93069,1,0,0:0:0:0:
64,192,93178,1,0,0:0:0:0:
192,192,93286,1,0,0:0:0:0:
320,192,93395,1,0,0:0:0:0:
448,192,93504,1,0,0:0:0:0:
64,192,93504,1,0,0:0:0:0:
320,192,93613,1,0,0:0:0:0:
192,192,93721,1,0,0:0:0:0:
64,192,93830,1,0,0:0:0:0:
192,192,93939,1,0,0:0:0:0:
448,192,93939,1,0,0:0:0:0:
64,192,94047,1,0,0:0:0:0:
192,192,94156,1,0,0:0:0:0:
320,192,94265,1,0,0:0:0:0:
448,192,94373,1,0,0:0:0:0:
64,192,94373,1,0,0:0:0:0:
192,192,94482,1,0,0:0:0:0:
320,192,94591,1,0,0:0:0:0:
448,192,94699,1,0,0:0:0:0:
320,192,94808,1,0,0:0:0:0:
64,192,94808,1,0,0:0:0:0:
448,192,94917,1,0,0:0:0:0:
320,192,95026,1,0,0:0:0:0:
192,192,95134,1,0,0:0:0:0:
64,192,95243,1,0,0:0:0:0:
448,192,95243,1,0,0:0:0:0:
192,192,95352,1,0,0:0:0:0:
320,192,95460,1,0,0:0:0:0:
448,192,95569,1,0,0:0:0:0:
320,192,95678,1,0,0:0:0:0:
64,192,95678,1,0,0:0:0:0:
192,192,95786,1,0,0:0:0:0:
448,192,95786,1,0,0:0:0:0:
320,192,95895,1,0,0:0:0:0:
64,192,95895,1,0,0:0:0:0:
192,192,96004,1,0,0:0:0:0:
64,192,96113,1,0,0:0:0:0:
448,192,96113,1,0,0:0:0:0:
192,192,96221,1,0,0:0:0:0:
320,192,96330,1,0,0:0:0:0:
448,192,96439,1,0,0:0:0:0:
320,192,96547,1,0,0:0:0:0:
64,192,96547,1,0,0:0:0:0:
448,192,96656,1,0,0:0:0:0:
320,192,96765,1,0,0:0:0:0:
192,192,96873,1,0,0:0:0:0:
64,192,96982,1,0,0:0:0:0:
448,192,96982,1,0,0:0:0:0:
192,192,97091,1,0,0:0:0:0:
320,192,97199,1,0,0:0:0:0:
448,192,97308,1,0,0:0:0:0:
320,192,97417,1,0,0:0:0:0:
64,192,97417,1,0,0:0:0:0:
448,192,97526,1,0,0:0:0:0:
320,192,97634,1,0,0:0:0:0:
192,192,97743,1,0,0:0:0:0:
64,192,97852,1,0,0:0:0:0:
448,192,97852,1,0,0:0:0:0:
320,192,97960,1,0,0:0:0:0:
192,192,98069,1,0,0:0:0:0:
64,192,98178,1,0,0:0:0:0:
192,192,98286,1,0,0:0:0:0:
448,192,98286,1,0,0:0:0:0:
64,192,98395,1,0,0:0:0:0:
192,192,98504,1,0,0:0:0:0:
320,192,98613,1,0,0:0:0:0:
448,192,98721,1,0,0:0:0:0:
192,192,98721,1,0,0:0:0:0:
64,192,98721,1,0,0:0:0:0:
448,192,98866,1,0,0:0:0:0:
320,192,98866,1,0,0:0:0:0:
64,192,98866,1,0,0:0:0:0:
192,192,99011,1,0,0:0:0:0:
320,192,99011,1,0,0:0:0:0:
448,192,99011,1,0,0:0:0:0:
448,192,99156,1,0,0:0:0:0:
192,192,99156,1,0,0:0:0:0:
64,192,99156,1,0,0:0:0:0:
320,192,99301,1,0,0:0:0:0:
448,192,99301,1,0,0:0:0:0:
64,192,99301,1,0,0:0:0:0:
192,192,99446,1,0,0:0:0:0:
320,192,99446,1,0,0:0:0:0:
448,192,99446,1,0,0:0:0:0:
64,192,99591,1,0,0:0:0:0:
448,192,99591,1,0,0:0:0:0:
320,192,99591,1,0,0:0:0:0:
192,192,99591,1,0,0:0:0:0:
64,192,100026,1,0,0:0:0:0:
192,192,100026,1,0,0:0:0:0:
320,192,100026,1,0,0:0:0:0:
448,192,100026,1,0,0:0:0:0:
448,192,100460,1,0,0:0:0:0:
320,192,100460,1,0,0:0:0:0:
192,192,100460,1,0,0:0:0:0:
64,192,100460,1,0,0:0:0:0:
448,192,100895,1,0,0:0:0:0:
320,192,100895,1,0,0:0:0:0:
192,192,100895,1,0,0:0:0:0:
64,192,100895,1,0,0:0:0:0:
64,192,101330,1,0,0:0:0:0:
192,192,101330,1,0,0:0:0:0:
320,192,101330,1,0,0:0:0:0:
448,192,101330,1,0,0:0:0:0:
448,192,101765,1,0,0:0:0:0:
320,192,101765,1,0,0:0:0:0:
192,192,101765,1,0,0:0:0:0:
64,192,101765,1,0,0:0:0:0:
64,192,102199,1,0,0:0:0:0:
320,192,102199,1,0,0:0:0:0:
448,192,102199,1,0,0:0:0:0:
192,192,102199,1,0,0:0:0:0:
448,192,102634,1,0,0:0:0:0:
320,192,102634,1,0,0:0:0:0:
192,192,102634,1,0,0:0:0:0:
64,192,102634,1,0,0:0:0:0:
320,192,102852,1,0,0:0:0:0:
192,192,102852,1,0,0:0:0:0:
64,192,102852,1,0,0:0:0:0:
448,192,102852,1,0,0:0:0:0:
64,192,103069,1,0,0:0:0:0:
192,192,103069,1,0,0:0:0:0:
320,192,103069,1,0,0:0:0:0:
448,192,103069,1,0,0:0:0:0:
448,192,103286,1,0,0:0:0:0:
448,192,103504,1,0,0:0:0:0:
320,192,103504,1,0,0:0:0:0:
192,192,103504,1,0,0:0:0:0:
64,192,103504,1,0,0:0:0:0:
320,192,103721,1,0,0:0:0:0:
448,192,103939,1,0,0:0:0:0:
320,192,103939,1,0,0:0:0:0:
192,192,103939,1,0,0:0:0:0:
64,192,103939,1,0,0:0:0:0:
192,192,104156,1,0,0:0:0:0:
64,192,104373,1,0,0:0:0:0:
192,192,104373,1,0,0:0:0:0:
320,192,104373,1,0,0:0:0:0:
448,192,104373,1,0,0:0:0:0:
64,192,104591,1,0,0:0:0:0:
64,192,104808,1,0,0:0:0:0:
192,192,104808,1,0,0:0:0:0:
320,192,104808,1,0,0:0:0:0:
448,192,104808,1,0,0:0:0:0:
192,192,105026,1,0,0:0:0:0:
64,192,105243,1,0,0:0:0:0:
192,192,105243,1,0,0:0:0:0:
320,192,105243,1,0,0:0:0:0:
448,192,105243,1,0,0:0:0:0:
320,192,105460,1,0,0:0:0:0:
448,192,105678,1,0,0:0:0:0:
64,192,105678,1,0,0:0:0:0:
192,192,105678,128,0,105895:0:0:0:0:
448,192,105895,1,0,0:0:0:0:
320,192,105895,1,0,0:0:0:0:
64,192,105895,128,0,106004:0:0:0:0:
192,192,106004,128,0,106113:0:0:0:0:
448,192,106113,1,0,0:0:0:0:
64,192,106113,1,0,0:0:0:0:
320,192,106113,128,0,106330:0:0:0:0:
64,192,106330,128,0,106439:0:0:0:0:
192,192,106439,128,0,106547:0:0:0:0:
64,192,106547,1,0,0:0:0:0:
320,192,106547,1,0,0:0:0:0:
448,192,106547,1,0,0:0:0:0:
192,192,106765,1,0,0:0:0:0:
320,192,106873,1,0,0:0:0:0:
64,192,106982,1,0,0:0:0:0:
448,192,106982,1,0,0:0:0:0:
192,192,106982,1,0,0:0:0:0:
320,192,107199,1,0,0:0:0:0:
192,192,107308,1,0,0:0:0:0:
448,192,107417,1,0,0:0:0:0:
320,192,107417,1,0,0:0:0:0:
64,192,107417,1,0,0:0:0:0:
64,192,107634,1,0,0:0:0:0:
448,192,107743,1,0,0:0:0:0:
320,192,107852,1,0,0:0:0:0:
192,192,107852,1,0,0:0:0:0:
64,192,107852,1,0,0:0:0:0:
448,192,108069,1,0,0:0:0:0:
64,192,108178,1,0,0:0:0:0:
448,192,108286,1,0,0:0:0:0:
320,192,108286,1,0,0:0:0:0:
192,192,108286,1,0,0:0:0:0:
192,192,108504,1,0,0:0:0:0:
320,192,108613,1,0,0:0:0:0:
64,192,108721,1,0,0:0:0:0:
192,192,108721,1,0,0:0:0:0:
448,192,108721,1,0,0:0:0:0:
192,192,108939,1,0,0:0:0:0:
64,192,109047,1,0,0:0:0:0:
192,192,109156,1,0,0:0:0:0:
320,192,109156,1,0,0:0:0:0:
448,192,109156,1,0,0:0:0:0:
192,192,109373,1,0,0:0:0:0:
320,192,109482,1,0,0:0:0:0:
192,192,109591,1,0,0:0:0:0:
448,192,109591,1,0,0:0:0:0:
64,192,109591,1,0,0:0:0:0:
320,192,109699,1,0,0:0:0:0:
64,192,109808,1,0,0:0:0:0:
192,192,109808,1,0,0:0:0:0:
448,192,109808,1,0,0:0:0:0:
320,192,109917,1,0,0:0:0:0:
448,192,110026,1,0,0:0:0:0:
192,192,110026,1,0,0:0:0:0:
64,192,110026,1,0,0:0:0:0:
320,192,110134,1,0,0:0:0:0:
448,192,110243,1,0,0:0:0:0:
320,192,110352,1,0,0:0:0:0:
448,192,110460,1,0,0:0:0:0:
192,192,110460,1,0,0:0:0:0:
64,192,110460,1,0,0:0:0:0:
320,192,110569,1,0,0:0:0:0:
192,192,110678,1,0,0:0:0:0:
64,192,110786,1,0,0:0:0:0:
192,192,110895,1,0,0:0:0:0:
320,192,110895,1,0,0:0:0:0:
448,192,110895,1,0,0:0:0:0:
64,192,111004,1,0,0:0:0:0:
448,192,111113,1,0,0:0:0:0:
192,192,111221,1,0,0:0:0:0:
320,192,111330,1,0,0:0:0:0:
448,192,111330,1,0,0:0:0:0:
64,192,111330,1,0,0:0:0:0:
192,192,111439,1,0,0:0:0:0:
320,192,111547,1,0,0:0:0:0:
448,192,111656,1,0,0:0:0:0:
320,192,111765,1,0,0:0:0:0:
192,192,111765,1,0,0:0:0:0:
64,192,111765,1,0,0:0:0:0:
448,192,111873,1,0,0:0:0:0:
320,192,111982,1,0,0:0:0:0:
64,192,112091,1,0,0:0:0:0:
192,192,112199,1,0,0:0:0:0:
320,192,112199,1,0,0:0:0:0:
448,192,112199,1,0,0:0:0:0:
64,192,112308,1,0,0:0:0:0:
192,192,112417,1,0,0:0:0:0:
320,192,112526,1,0,0:0:0:0:
448,192,112634,1,0,0:0:0:0:
192,192,112634,1,0,0:0:0:0:
64,192,112634,1,0,0:0:0:0:
320,192,112779,1,0,0:0:0:0:
192,192,112779,1,0,0:0:0:0:
64,192,112779,1,0,0:0:0:0:
192,192,112924,1,0,0:0:0:0:
64,192,112924,1,0,0:0:0:0:
448,192,112924,1,0,0:0:0:0:
320,192,113069,1,0,0:0:0:0:
448,192,113069,1,0,0:0:0:0:
64,192,113069,1,0,0:0:0:0:
320,192,113214,1,0,0:0:0:0:
448,192,113214,1,0,0:0:0:0:
192,192,113214,1,0,0:0:0:0:
320,192,113359,1,0,0:0:0:0:
448,192,113359,1,0,0:0:0:0:
64,192,113359,1,0,0:0:0:0:
320,192,113504,1,0,0:0:0:0:
448,192,113504,1,0,0:0:0:0:
192,192,113504,1,0,0:0:0:0:
64,192,113504,128,0,115243:0:0:0:0:
448,192,113721,1,0,0:0:0:0:
320,192,113939,1,0,0:0:0:0:
192,192,114156,1,0,0:0:0:0:
320,192,114373,1,0,0:0:0:0:
448,192,114373,128,0,114808:0:0:0:0:
192,192,114808,1,0,0:0:0:0:
320,192,115026,1,0,0:0:0:0:
448,192,115243,1,0,0:0:0:0:
192,192,115243,128,0,116982:0:0:0:0:
320,192,115460,1,0,0:0:0:0:
64,192,115678,1,0,0:0:0:0:
320,192,115895,1,0,0:0:0:0:
448,192,116113,1,0,0:0:0:0:
64,192,116113,128,0,116547:0:0:0:0:
320,192,116547,1,0,0:0:0:0:
448,192,116765,1,0,0:0:0:0:
64,192,116982,1,0,0:0:0:0:
320,192,116982,128,0,118721:0:0:0:0:
192,192,117199,1,0,0:0:0:0:
448,192,117417,1,0,0:0:0:0:
192,192,117634,1,0,0:0:0:0:
64,192,117852,1,0,0:0:0:0:
448,192,117852,128,0,118286:0:0:0:0:
192,192,118286,1,0,0:0:0:0:
64,192,118504,1,0,0:0:0:0:
448,192,118721,128,0,120460:0:0:0:0:
192,192,118721,1,0,0:0:0:0:
64,192,118939,1,0,0:0:0:0:
192,192,119156,128,0,119373:0:0:0:0:
320,192,119156,1,0,0:0:0:0:
320,192,119373,1,0,0:0:0:0:
64,192,119591,128,0,119808:0:0:0:0:
192,192,119591,1,0,0:0:0:0:
320,192,119808,128,0,120026:0:0:0:0:
64,192,120026,1,0,0:0:0:0:
192,192,120243,1,0,0:0:0:0:
64,192,120460,128,0,122199:0:0:0:0:
320,192,120460,128,0,120678:0:0:0:0:
448,192,120678,128,0,120895:0:0:0:0:
320,192,120895,128,0,121113:0:0:0:0:
192,192,121113,128,0,121330:0:0:0:0:
448,192,121330,128,0,121765:0:0:0:0:
320,192,121330,128,0,121547:0:0:0:0:
192,192,121765,128,0,121982:0:0:0:0:
320,192,121982,128,0,122199:0:0:0:0:
192,192,122199,128,0,123939:0:0:0:0:
448,192,122199,128,0,122417:0:0:0:0:
320,192,122417,128,0,122634:0:0:0:0:
64,192,122634,128,0,122852:0:0:0:0:
320,192,122852,128,0,123069:0:0:0:0:
64,192,123069,128,0,123504:0:0:0:0:
448,192,123069,128,0,123286:0:0:0:0:
320,192,123504,128,0,123721:0:0:0:0:
448,192,123721,128,0,123939:0:0:0:0:
320,192,123939,128,0,125678:0:0:0:0:
64,192,123939,128,0,124156:0:0:0:0:
192,192,124156,128,0,124373:0:0:0:0:
448,192,124373,128,0,124591:0:0:0:0:
192,192,124591,128,0,124808:0:0:0:0:
448,192,124808,128,0,125243:0:0:0:0:
64,192,124808,128,0,125026:0:0:0:0:
192,192,125243,128,0,125460:0:0:0:0:
64,192,125460,128,0,125678:0:0:0:0:
448,192,125678,128,0,127417:0:0:0:0:
192,192,125678,128,0,125895:0:0:0:0:
64,192,125895,128,0,126113:0:0:0:0:
192,192,126113,128,0,126330:0:0:0:0:
320,192,126113,1,0,0:0:0:0:
320,192,126330,128,0,126547:0:0:0:0:
64,192,126547,128,0,126765:0:0:0:0:
192,192,126547,128,0,126765:0:0:0:0:
320,192,126765,128,0,126982:0:0:0:0:
64,192,126982,1,0,0:0:0:0:
192,192,127199,1,0,0:0:0:0:
64,192,127417,1,0,0:0:0:0:
192,192,127417,1,0,0:0:0:0:
320,192,127417,128,0,129156:0:0:0:0:
64,192,127634,1,0,0:0:0:0:
448,192,127852,1,0,0:0:0:0:
64,192,127852,1,0,0:0:0:0:
192,192,127852,1,0,0:0:0:0:
192,192,128069,1,0,0:0:0:0:
64,192,128286,128,0,128721:0:0:0:0:
192,192,128286,1,0,0:0:0:0:
448,192,128395,1,0,0:0:0:0:
192,192,128504,1,0,0:0:0:0:
448,192,128721,128,0,128939:0:0:0:0:
192,192,128939,128,0,129156:0:0:0:0:
448,192,129156,1,0,0:0:0:0:
64,192,129156,128,0,130895:0:0:0:0:
192,192,129373,1,0,0:0:0:0:
192,192,129591,1,0,0:0:0:0:
448,192,129591,1,0,0:0:0:0:
320,192,129591,1,0,0:0:0:0:
320,192,129808,1,0,0:0:0:0:
448,192,130026,128,0,130460:0:0:0:0:
192,192,130026,1,0,0:0:0:0:
320,192,130134,1,0,0:0:0:0:
192,192,130243,1,0,0:0:0:0:
192,192,130460,1,0,0:0:0:0:
320,192,130569,1,0,0:0:0:0:
448,192,130678,1,0,0:0:0:0:
320,192,130786,1,0,0:0:0:0:
448,192,130895,1,0,0:0:0:0:
320,192,131004,1,0,0:0:0:0:
192,192,131113,1,0,0:0:0:0:
64,192,131221,1,0,0:0:0:0:
448,192,131330,1,0,0:0:0:0:
192,192,131330,1,0,0:0:0:0:
320,192,131439,1,0,0:0:0:0:
192,192,131547,1,0,0:0:0:0:
64,192,131656,1,0,0:0:0:0:
192,192,131765,1,0,0:0:0:0:
448,192,131765,128,0,132199:0:0:0:0:
320,192,131873,1,0,0:0:0:0:
192,192,131982,1,0,0:0:0:0:
64,192,132091,1,0,0:0:0:0:
192,192,132199,1,0,0:0:0:0:
320,192,132308,1,0,0:0:0:0:
192,192,132417,1,0,0:0:0:0:
64,192,132526,1,0,0:0:0:0:
192,192,132634,1,0,0:0:0:0:
448,192,132634,128,0,132852:0:0:0:0:
320,192,132743,1,0,0:0:0:0:
64,192,132852,1,0,0:0:0:0:
448,192,132960,1,0,0:0:0:0:
320,192,133069,1,0,0:0:0:0:
64,192,133069,128,0,133286:0:0:0:0:
192,192,133178,1,0,0:0:0:0:
448,192,133286,1,0,0:0:0:0:
64,192,133395,1,0,0:0:0:0:
192,192,133504,1,0,0:0:0:0:
448,192,133504,128,0,133721:0:0:0:0:
320,192,133613,1,0,0:0:0:0:
64,192,133721,1,0,0:0:0:0:
448,192,133830,1,0,0:0:0:0:
320,192,133939,1,0,0:0:0:0:
192,192,134047,1,0,0:0:0:0:
448,192,134156,1,0,0:0:0:0:
320,192,134156,1,0,0:0:0:0:
64,192,134265,1,0,0:0:0:0:
448,192,134373,1,0,0:0:0:0:
192,192,134373,128,0,134808:0:0:0:0:
320,192,134591,1,0,0:0:0:0:
448,192,134808,1,0,0:0:0:0:
64,192,134808,1,0,0:0:0:0:
320,192,135026,1,0,0:0:0:0:
448,192,135243,128,0,135678:0:0:0:0:
64,192,135243,1,0,0:0:0:0:
192,192,135352,1,0,0:0:0:0:
64,192,135460,1,0,0:0:0:0:
320,192,135460,1,0,0:0:0:0:
64,192,135678,1,0,0:0:0:0:
192,192,135786,1,0,0:0:0:0:
320,192,135895,1,0,0:0:0:0:
448,192,136004,1,0,0:0:0:0:
320,192,136113,128,0,136547:0:0:0:0:
64,192,136113,1,0,0:0:0:0:
192,192,136221,1,0,0:0:0:0:
64,192,136330,1,0,0:0:0:0:
192,192,136439,1,0,0:0:0:0:
448,192,136547,1,0,0:0:0:0:
64,192,136547,1,0,0:0:0:0:
320,192,136765,1,0,0:0:0:0:
448,192,136982,128,0,137417:0:0:0:0:
64,192,136982,1,0,0:0:0:0:
320,192,137091,1,0,0:0:0:0:
192,192,137091,1,0,0:0:0:0:
192,192,137199,1,0,0:0:0:0:
320,192,137199,1,0,0:0:0:0:
64,192,137417,128,0,137634:0:0:0:0:
320,192,137634,128,0,137852:0:0:0:0:
448,192,137852,128,0,138069:0:0:0:0:
320,192,138069,128,0,138286:0:0:0:0:
192,192,138286,128,0,138504:0:0:0:0:
448,192,138286,1,0,0:0:0:0:
64,192,138504,128,0,138721:0:0:0:0:
448,192,138721,128,0,139482:0:0:0:0:
320,192,138939,128,0,139699:0:0:0:0:
192,192,139156,128,0,139917:0:0:0:0:
64,192,139373,128,0,140134:0:0:0:0:
448,192,139591,128,0,139808:0:0:0:0:
320,192,139808,128,0,140026:0:0:0:0:
192,192,140026,128,0,140243:0:0:0:0:
64,192,140243,128,0,140460:0:0:0:0:
192,192,140460,128,0,140678:0:0:0:0:
320,192,140460,128,0,140678:0:0:0:0:
448,192,140460,128,0,140678:0:0:0:0:
320,192,140895,128,0,141113:0:0:0:0:
192,192,140895,128,0,141113:0:0:0:0:
64,192,140895,128,0,141113:0:0:0:0:
448,192,140895,128,0,141113:0:0:0:0:
192,192,141330,1,0,0:0:0:0:
64,192,141330,128,0,141547:0:0:0:0:
320,192,141330,1,0,0:0:0:0:
448,192,141330,1,0,0:0:0:0:
192,192,141547,128,0,141656:0:0:0:0:
320,192,141656,128,0,141765:0:0:0:0:
448,192,141765,1,0,0:0:0:0:
64,192,141765,1,0,0:0:0:0:
192,192,141873,128,0,141982:0:0:0:0:
320,192,141982,128,0,142091:0:0:0:0:
192,192,142091,128,0,142199:0:0:0:0:
448,192,142199,1,0,0:0:0:0:
64,192,142199,128,0,142417:0:0:0:0:
192,192,142417,128,0,142526:0:0:0:0:
320,192,142526,128,0,142634:0:0:0:0:
448,192,142634,1,0,0:0:0:0:
64,192,142634,1,0,0:0:0:0:
192,192,142743,128,0,142852:0:0:0:0:
320,192,142852,128,0,142960:0:0:0:0:
192,192,142960,128,0,143069:0:0:0:0:
448,192,143069,1,0,0:0:0:0:
64,192,143069,128,0,143286:0:0:0:0:
192,192,143286,128,0,143395:0:0:0:0:
320,192,143395,128,0,143504:0:0:0:0:
448,192,143504,1,0,0:0:0:0:
64,192,143504,1,0,0:0:0:0:
192,192,143613,128,0,143721:0:0:0:0:
320,192,143721,128,0,143830:0:0:0:0:
192,192,143830,128,0,143939:0:0:0:0:
448,192,143939,1,0,0:0:0:0:
64,192,143939,128,0,144156:0:0:0:0:
192,192,144156,128,0,144265:0:0:0:0:
320,192,144265,128,0,144373:0:0:0:0:
448,192,144373,128,0,144591:0:0:0:0:
64,192,144373,1,0,0:0:0:0:
192,192,144591,128,0,144699:0:0:0:0:
64,192,144591,1,0,0:0:0:0:
320,192,144699,128,0,144808:0:0:0:0:
448,192,144808,128,0,145026:0:0:0:0:
64,192,144808,1,0,0:0:0:0:
320,192,145026,128,0,145134:0:0:0:0:
192,192,145134,128,0,145243:0:0:0:0:
64,192,145243,1,0,0:0:0:0:
448,192,145243,1,0,0:0:0:0:
320,192,145352,128,0,145460:0:0:0:0:
192,192,145460,128,0,145569:0:0:0:0:
320,192,145569,128,0,145678:0:0:0:0:
64,192,145678,1,0,0:0:0:0:
448,192,145678,128,0,145895:0:0:0:0:
320,192,145895,128,0,146004:0:0:0:0:
192,192,146004,128,0,146113:0:0:0:0:
64,192,146113,1,0,0:0:0:0:
448,192,146113,1,0,0:0:0:0:
320,192,146221,128,0,146330:0:0:0:0:
192,192,146330,128,0,146439:0:0:0:0:
320,192,146439,128,0,146547:0:0:0:0:
64,192,146547,1,0,0:0:0:0:
448,192,146547,128,0,146765:0:0:0:0:
320,192,146765,128,0,146873:0:0:0:0:
192,192,146873,128,0,146982:0:0:0:0:
64,192,146982,1,0,0:0:0:0:
448,192,146982,1,0,0:0:0:0:
320,192,147091,128,0,147199:0:0:0:0:
192,192,147199,128,0,147308:0:0:0:0:
320,192,147308,128,0,147417:0:0:0:0:
64,192,147417,1,0,0:0:0:0:
448,192,147417,128,0,147634:0:0:0:0:
320,192,147634,128,0,147743:0:0:0:0:
192,192,147743,128,0,147852:0:0:0:0:
64,192,147852,128,0,148069:0:0:0:0:
448,192,147852,1,0,0:0:0:0:
320,192,148069,128,0,148178:0:0:0:0:
448,192,148069,1,0,0:0:0:0:
192,192,148178,128,0,148286:0:0:0:0:
320,192,148286,128,0,148504:0:0:0:0:
448,192,148286,1,0,0:0:0:0:
64,192,148504,128,0,148613:0:0:0:0:
448,192,148613,128,0,148721:0:0:0:0:
192,192,148721,1,0,0:0:0:0:
320,192,148721,1,0,0:0:0:0:
64,192,148830,128,0,148939:0:0:0:0:
448,192,148939,128,0,149047:0:0:0:0:
64,192,149047,128,0,149156:0:0:0:0:
192,192,149156,128,0,149373:0:0:0:0:
320,192,149156,1,0,0:0:0:0:
448,192,149373,128,0,149482:0:0:0:0:
64,192,149482,128,0,149591:0:0:0:0:
192,192,149591,1,0,0:0:0:0:
320,192,149591,1,0,0:0:0:0:
448,192,149699,128,0,149808:0:0:0:0:
64,192,149808,128,0,149917:0:0:0:0:
448,192,149917,128,0,150026:0:0:0:0:
320,192,150026,128,0,150243:0:0:0:0:
192,192,150026,1,0,0:0:0:0:
64,192,150243,128,0,150352:0:0:0:0:
448,192,150352,128,0,150460:0:0:0:0:
320,192,150460,1,0,0:0:0:0:
192,192,150460,1,0,0:0:0:0:
64,192,150569,128,0,150678:0:0:0:0:
448,192,150678,128,0,150786:0:0:0:0:
64,192,150786,128,0,150895:0:0:0:0:
192,192,150895,128,0,151113:0:0:0:0:
320,192,150895,1,0,0:0:0:0:
448,192,151113,128,0,151221:0:0:0:0:
64,192,151221,128,0,151330:0:0:0:0:
320,192,151330,128,0,151547:0:0:0:0:
192,192,151330,1,0,0:0:0:0:
64,192,151547,128,0,151656:0:0:0:0:
192,192,151547,1,0,0:0:0:0:
448,192,151656,128,0,151765:0:0:0:0:
320,192,151765,1,0,0:0:0:0:
192,192,151765,128,0,151982:0:0:0:0:
448,192,151982,128,0,152091:0:0:0:0:
64,192,152091,128,0,152199:0:0:0:0:
320,192,152199,1,0,0:0:0:0:
192,192,152199,1,0,0:0:0:0:
448,192,152308,128,0,152417:0:0:0:0:
64,192,152417,128,0,152526:0:0:0:0:
448,192,152526,128,0,152634:0:0:0:0:
320,192,152634,128,0,152852:0:0:0:0:
192,192,152634,1,0,0:0:0:0:
64,192,152852,128,0,152960:0:0:0:0:
448,192,152960,128,0,153069:0:0:0:0:
320,192,153069,1,0,0:0:0:0:
192,192,153069,1,0,0:0:0:0:
64,192,153178,128,0,153286:0:0:0:0:
448,192,153286,128,0,153395:0:0:0:0:
64,192,153395,128,0,153504:0:0:0:0:
192,192,153504,128,0,153721:0:0:0:0:
320,192,153504,1,0,0:0:0:0:
448,192,153721,128,0,153830:0:0:0:0:
64,192,153830,128,0,153939:0:0:0:0:
192,192,153939,1,0,0:0:0:0:
320,192,153939,1,0,0:0:0:0:
448,192,154047,128,0,154156:0:0:0:0:
64,192,154156,128,0,154265:0:0:0:0:
448,192,154265,128,0,154373:0:0:0:0:
192,192,154373,1,0,0:0:0:0:
320,192,154373,1,0,0:0:0:0:
64,192,154373,1,0,0:0:0:0:
64,192,154518,1,0,0:0:0:0:
192,192,154518,1,0,0:0:0:0:
448,192,154518,1,0,0:0:0:0:
320,192,154663,1,0,0:0:0:0:
448,192,154663,1,0,0:0:0:0:
64,192,154663,1,0,0:0:0:0:
320,192,154808,1,0,0:0:0:0:
64,192,154808,1,0,0:0:0:0:
192,192,154808,1,0,0:0:0:0:
448,192,154953,1,0,0:0:0:0:
192,192,154953,1,0,0:0:0:0:
64,192,154953,1,0,0:0:0:0:
448,192,155098,128,0,155243:0:0:0:0:
320,192,155098,1,0,0:0:0:0:
64,192,155098,1,0,0:0:0:0:
64,192,155243,128,0,155460:0:0:0:0:
192,192,155243,1,0,0:0:0:0:
320,192,155243,1,0,0:0:0:0:
192,192,155460,128,0,155569:0:0:0:0:
320,192,155569,128,0,155678:0:0:0:0:
64,192,155678,1,0,0:0:0:0:
448,192,155678,1,0,0:0:0:0:
192,192,155678,1,0,0:0:0:0:
192,192,155786,128,0,155895:0:0:0:0:
320,192,155895,128,0,156004:0:0:0:0:
192,192,156004,128,0,156113:0:0:0:0:
64,192,156113,128,0,156330:0:0:0:0:
448,192,156113,128,0,156330:0:0:0:0:
320,192,156113,1,0,0:0:0:0:
192,192,156330,128,0,156439:0:0:0:0:
320,192,156439,128,0,156547:0:0:0:0:
64,192,156547,1,0,0:0:0:0:
448,192,156547,1,0,0:0:0:0:
192,192,156547,1,0,0:0:0:0:
192,192,156656,128,0,156765:0:0:0:0:
320,192,156765,128,0,156873:0:0:0:0:
192,192,156873,128,0,156982:0:0:0:0:
64,192,156982,128,0,157199:0:0:0:0:
320,192,156982,1,0,0:0:0:0:
448,192,156982,1,0,0:0:0:0:
192,192,157199,128,0,157308:0:0:0:0:
320,192,157308,128,0,157417:0:0:0:0:
64,192,157417,1,0,0:0:0:0:
448,192,157417,1,0,0:0:0:0:
192,192,157417,1,0,0:0:0:0:
192,192,157526,128,0,157634:0:0:0:0:
320,192,157634,128,0,157743:0:0:0:0:
192,192,157743,128,0,157852:0:0:0:0:
64,192,157852,128,0,158069:0:0:0:0:
448,192,157852,128,0,158069:0:0:0:0:
320,192,157852,1,0,0:0:0:0:
192,192,158069,128,0,158178:0:0:0:0:
320,192,158178,128,0,158286:0:0:0:0:
448,192,158286,128,0,158504:0:0:0:0:
64,192,158286,128,0,158395:0:0:0:0:
192,192,158286,1,0,0:0:0:0:
192,192,158504,128,0,158613:0:0:0:0:
64,192,158504,128,0,158613:0:0:0:0:
448,192,158613,1,0,0:0:0:0:
320,192,158613,128,0,158721:0:0:0:0:
192,192,158721,1,0,0:0:0:0:
448,192,158721,128,0,158939:0:0:0:0:
64,192,158721,128,0,158939:0:0:0:0:
320,192,158939,128,0,159047:0:0:0:0:
192,192,159047,128,0,159156:0:0:0:0:
448,192,159156,1,0,0:0:0:0:
64,192,159156,1,0,0:0:0:0:
320,192,159156,1,0,0:0:0:0:
320,192,159265,128,0,159373:0:0:0:0:
192,192,159373,128,0,159482:0:0:0:0:
320,192,159482,128,0,159591:0:0:0:0:
448,192,159591,128,0,159808:0:0:0:0:
64,192,159591,128,0,159808:0:0:0:0:
192,192,159591,1,0,0:0:0:0:
320,192,159808,128,0,159917:0:0:0:0:
192,192,159917,128,0,160026:0:0:0:0:
448,192,160026,1,0,0:0:0:0:
64,192,160026,1,0,0:0:0:0:
320,192,160026,1,0,0:0:0:0:
320,192,160134,128,0,160243:0:0:0:0:
192,192,160243,128,0,160352:0:0:0:0:
320,192,160352,128,0,160460:0:0:0:0:
448,192,160460,128,0,160678:0:0:0:0:
64,192,160460,128,0,160678:0:0:0:0:
192,192,160460,1,0,0:0:0:0:
320,192,160678,128,0,160786:0:0:0:0:
192,192,160786,128,0,160895:0:0:0:0:
448,192,160895,1,0,0:0:0:0:
64,192,160895,1,0,0:0:0:0:
320,192,160895,1,0,0:0:0:0:
320,192,161004,128,0,161113:0:0:0:0:
192,192,161113,128,0,161221:0:0:0:0:
320,192,161221,128,0,161330:0:0:0:0:
448,192,161330,128,0,161547:0:0:0:0:
64,192,161330,128,0,161547:0:0:0:0:
192,192,161330,1,0,0:0:0:0:
320,192,161547,128,0,161656:0:0:0:0:
192,192,161656,128,0,161765:0:0:0:0:
64,192,161765,128,0,161982:0:0:0:0:
448,192,161765,128,0,161873:0:0:0:0:
320,192,161765,1,0,0:0:0:0:
320,192,161982,128,0,162091:0:0:0:0:
448,192,161982,128,0,162091:0:0:0:0:
192,192,161982,1,0,0:0:0:0:
192,192,162091,128,0,162199:0:0:0:0:
320,192,162199,128,0,162417:0:0:0:0:
448,192,162199,128,0,162417:0:0:0:0:
64,192,162199,1,0,0:0:0:0:
64,192,162417,128,0,162526:0:0:0:0:
448,192,162526,128,0,162634:0:0:0:0:
320,192,162634,1,0,0:0:0:0:
192,192,162634,1,0,0:0:0:0:
64,192,162634,1,0,0:0:0:0:
64,192,162743,128,0,162852:0:0:0:0:
448,192,162852,128,0,162960:0:0:0:0:
64,192,162960,128,0,163069:0:0:0:0:
192,192,163069,128,0,163286:0:0:0:0:
320,192,163069,128,0,163286:0:0:0:0:
448,192,163069,1,0,0:0:0:0:
448,192,163286,128,0,163395:0:0:0:0:
64,192,163395,128,0,163504:0:0:0:0:
320,192,163504,1,0,0:0:0:0:
192,192,163504,1,0,0:0:0:0:
448,192,163504,1,0,0:0:0:0:
448,192,163613,128,0,163721:0:0:0:0:
64,192,163721,128,0,163830:0:0:0:0:
448,192,163830,128,0,163939:0:0:0:0:
320,192,163939,128,0,164156:0:0:0:0:
192,192,163939,128,0,164156:0:0:0:0:
64,192,163939,1,0,0:0:0:0:
64,192,164156,128,0,164265:0:0:0:0:
448,192,164265,128,0,164373:0:0:0:0:
192,192,164373,1,0,0:0:0:0:
320,192,164373,1,0,0:0:0:0:
64,192,164373,1,0,0:0:0:0:
64,192,164482,128,0,164591:0:0:0:0:
448,192,164591,128,0,164699:0:0:0:0:
64,192,164699,128,0,164808:0:0:0:0:
192,192,164808,128,0,165026:0:0:0:0:
320,192,164808,128,0,165026:0:0:0:0:
448,192,164808,1,0,0:0:0:0:
448,192,165026,128,0,165134:0:0:0:0:
64,192,165134,128,0,165243:0:0:0:0:
192,192,165243,1,0,0:0:0:0:
320,192,165243,128,0,165460:0:0:0:0:
448,192,165243,1,0,0:0:0:0:
192,192,165460,1,0,0:0:0:0:
64,192,165460,128,0,165569:0:0:0:0:
448,192,165569,128,0,165678:0:0:0:0:
192,192,165678,128,0,165895:0:0:0:0:
320,192,165678,128,0,165895:0:0:0:0:
64,192,165678,1,0,0:0:0:0:
448,192,165895,128,0,166004:0:0:0:0:
64,192,166004,128,0,166113:0:0:0:0:
192,192,166113,1,0,0:0:0:0:
320,192,166113,1,0,0:0:0:0:
448,192,166113,1,0,0:0:0:0:
448,192,166221,128,0,166330:0:0:0:0:
64,192,166330,128,0,166439:0:0:0:0:
448,192,166439,128,0,166547:0:0:0:0:
320,192,166547,128,0,166765:0:0:0:0:
192,192,166547,128,0,166765:0:0:0:0:
64,192,166547,1,0,0:0:0:0:
64,192,166765,128,0,166873:0:0:0:0:
448,192,166873,128,0,166982:0:0:0:0:
192,192,166982,1,0,0:0:0:0:
320,192,166982,1,0,0:0:0:0:
64,192,166982,1,0,0:0:0:0:
64,192,167091,128,0,167199:0:0:0:0:
448,192,167199,128,0,167308:0:0:0:0:
64,192,167308,128,0,167417:0:0:0:0:
192,192,167417,128,0,167634:0:0:0:0:
320,192,167417,128,0,167634:0:0:0:0:
448,192,167417,1,0,0:0:0:0:
448,192,167634,128,0,167743:0:0:0:0:
64,192,167743,128,0,167852:0:0:0:0:
320,192,167852,1,0,0:0:0:0:
192,192,167852,1,0,0:0:0:0:
448,192,167852,1,0,0:0:0:0:
448,192,167960,128,0,168069:0:0:0:0:
64,192,168069,128,0,168178:0:0:0:0:
448,192,168178,128,0,168286:0:0:0:0:
320,192,168286,1,0,0:0:0:0:
64,192,168286,1,0,0:0:0:0:
192,192,168286,1,0,0:0:0:0:
448,192,168431,1,0,0:0:0:0:
192,192,168431,1,0,0:0:0:0:
64,192,168431,1,0,0:0:0:0:
64,192,168576,1,0,0:0:0:0:
448,192,168576,1,0,0:0:0:0:
320,192,168576,1,0,0:0:0:0:
448,192,168721,1,0,0:0:0:0:
320,192,168721,1,0,0:0:0:0:
192,192,168721,1,0,0:0:0:0:
448,192,168866,1,0,0:0:0:0:
64,192,168866,1,0,0:0:0:0:
320,192,168866,1,0,0:0:0:0:
448,192,169011,1,0,0:0:0:0:
192,192,169011,1,0,0:0:0:0:
64,192,169011,1,0,0:0:0:0:
64,192,169156,1,0,0:0:0:0:
192,192,169156,1,0,0:0:0:0:
448,192,169156,128,0,169373:0:0:0:0:
320,192,169265,1,0,0:0:0:0:
192,192,169373,1,0,0:0:0:0:
320,192,169482,1,0,0:0:0:0:
64,192,169591,1,0,0:0:0:0:
448,192,169591,1,0,0:0:0:0:
320,192,169699,1,0,0:0:0:0:
192,192,169808,1,0,0:0:0:0:
64,192,169917,1,0,0:0:0:0:
320,192,170026,1,0,0:0:0:0:
192,192,170026,1,0,0:0:0:0:
64,192,170134,1,0,0:0:0:0:
448,192,170243,1,0,0:0:0:0:
192,192,170352,1,0,0:0:0:0:
320,192,170460,1,0,0:0:0:0:
64,192,170460,1,0,0:0:0:0:
192,192,170569,1,0,0:0:0:0:
320,192,170678,1,0,0:0:0:0:
448,192,170786,1,0,0:0:0:0:
320,192,170895,1,0,0:0:0:0:
192,192,170895,128,0,171113:0:0:0:0:
448,192,171004,1,0,0:0:0:0:
64,192,171113,1,0,0:0:0:0:
448,192,171221,1,0,0:0:0:0:
320,192,171330,1,0,0:0:0:0:
192,192,171330,1,0,0:0:0:0:
64,192,171439,1,0,0:0:0:0:
448,192,171547,1,0,0:0:0:0:
64,192,171656,1,0,0:0:0:0:
192,192,171765,1,0,0:0:0:0:
320,192,171765,1,0,0:0:0:0:
448,192,171873,1,0,0:0:0:0:
64,192,171982,1,0,0:0:0:0:
448,192,172091,1,0,0:0:0:0:
320,192,172199,1,0,0:0:0:0:
192,192,172199,1,0,0:0:0:0:
64,192,172308,1,0,0:0:0:0:
192,192,172417,1,0,0:0:0:0:
320,192,172417,1,0,0:0:0:0:
448,192,172526,1,0,0:0:0:0:
192,192,172634,1,0,0:0:0:0:
64,192,172634,128,0,172852:0:0:0:0:
320,192,172743,1,0,0:0:0:0:
448,192,172852,1,0,0:0:0:0:
320,192,172960,1,0,0:0:0:0:
192,192,173069,1,0,0:0:0:0:
448,192,173069,1,0,0:0:0:0:
320,192,173178,1,0,0:0:0:0:
64,192,173286,1,0,0:0:0:0:
192,192,173395,1,0,0:0:0:0:
320,192,173504,1,0,0:0:0:0:
448,192,173504,1,0,0:0:0:0:
64,192,173613,1,0,0:0:0:0:
192,192,173721,1,0,0:0:0:0:
320,192,173830,1,0,0:0:0:0:
448,192,173939,1,0,0:0:0:0:
64,192,173939,1,0,0:0:0:0:
320,192,174047,1,0,0:0:0:0:
192,192,174156,1,0,0:0:0:0:
64,192,174265,1,0,0:0:0:0:
320,192,174373,1,0,0:0:0:0:
192,192,174373,128,0,174591:0:0:0:0:
448,192,174482,1,0,0:0:0:0:
320,192,174591,1,0,0:0:0:0:
192,192,174699,1,0,0:0:0:0:
64,192,174808,1,0,0:0:0:0:
448,192,174808,1,0,0:0:0:0:
320,192,174917,1,0,0:0:0:0:
192,192,175026,1,0,0:0:0:0:
448,192,175134,1,0,0:0:0:0:
320,192,175243,1,0,0:0:0:0:
192,192,175243,1,0,0:0:0:0:
64,192,175352,1,0,0:0:0:0:
192,192,175460,1,0,0:0:0:0:
320,192,175460,1,0,0:0:0:0:
448,192,175569,1,0,0:0:0:0:
64,192,175678,1,0,0:0:0:0:
320,192,175678,1,0,0:0:0:0:
192,192,175786,1,0,0:0:0:0:
320,192,175895,1,0,0:0:0:0:
192,192,176004,1,0,0:0:0:0:
64,192,176113,1,0,0:0:0:0:
320,192,176113,1,0,0:0:0:0:
448,192,176113,128,0,176330:0:0:0:0:
192,192,176221,1,0,0:0:0:0:
64,192,176330,1,0,0:0:0:0:
192,192,176439,1,0,0:0:0:0:
320,192,176547,1,0,0:0:0:0:
448,192,176547,1,0,0:0:0:0:
64,192,176656,1,0,0:0:0:0:
320,192,176765,1,0,0:0:0:0:
192,192,176873,1,0,0:0:0:0:
64,192,176982,1,0,0:0:0:0:
320,192,176982,128,0,177199:0:0:0:0:
448,192,177091,1,0,0:0:0:0:
192,192,177199,1,0,0:0:0:0:
320,192,177308,1,0,0:0:0:0:
64,192,177417,1,0,0:0:0:0:
448,192,177417,1,0,0:0:0:0:
320,192,177526,1,0,0:0:0:0:
192,192,177634,1,0,0:0:0:0:
448,192,177743,1,0,0:0:0:0:
320,192,177852,1,0,0:0:0:0:
64,192,177852,128,0,178069:0:0:0:0:
448,192,177960,1,0,0:0:0:0:
192,192,178069,1,0,0:0:0:0:
448,192,178178,1,0,0:0:0:0:
320,192,178286,1,0,0:0:0:0:
64,192,178286,1,0,0:0:0:0:
448,192,178395,1,0,0:0:0:0:
192,192,178504,1,0,0:0:0:0:
320,192,178613,1,0,0:0:0:0:
64,192,178721,1,0,0:0:0:0:
448,192,178721,128,0,178939:0:0:0:0:
192,192,178830,1,0,0:0:0:0:
320,192,178939,1,0,0:0:0:0:
192,192,179047,1,0,0:0:0:0:
448,192,179156,1,0,0:0:0:0:
64,192,179156,1,0,0:0:0:0:
320,192,179265,1,0,0:0:0:0:
64,192,179373,1,0,0:0:0:0:
192,192,179373,1,0,0:0:0:0:
320,192,179482,1,0,0:0:0:0:
64,192,179591,1,0,0:0:0:0:
448,192,179591,128,0,179808:0:0:0:0:
192,192,179699,1,0,0:0:0:0:
64,192,179808,1,0,0:0:0:0:
320,192,179917,1,0,0:0:0:0:
192,192,180026,1,0,0:0:0:0:
448,192,180026,1,0,0:0:0:0:
64,192,180134,1,0,0:0:0:0:
192,192,180243,1,0,0:0:0:0:
64,192,180352,1,0,0:0:0:0:
320,192,180460,1,0,0:0:0:0:
448,192,180460,128,0,180678:0:0:0:0:
192,192,180569,1,0,0:0:0:0:
64,192,180678,1,0,0:0:0:0:
192,192,180786,1,0,0:0:0:0:
448,192,180895,1,0,0:0:0:0:
320,192,180895,1,0,0:0:0:0:
64,192,181004,1,0,0:0:0:0:
448,192,181113,1,0,0:0:0:0:
192,192,181113,1,0,0:0:0:0:
320,192,181221,1,0,0:0:0:0:
448,192,181330,128,0,181547:0:0:0:0:
192,192,181330,1,0,0:0:0:0:
320,192,181439,1,0,0:0:0:0:
64,192,181547,128,0,181982:0:0:0:0:
192,192,181547,1,0,0:0:0:0:
320,192,181656,1,0,0:0:0:0:
448,192,181765,1,0,0:0:0:0:
192,192,181765,1,0,0:0:0:0:
320,192,181873,1,0,0:0:0:0:
192,192,181982,1,0,0:0:0:0:
320,192,182091,1,0,0:0:0:0:
448,192,182199,1,0,0:0:0:0:
192,192,182199,1,0,0:0:0:0:
64,192,182199,1,0,0:0:0:0:
448,192,182344,1,0,0:0:0:0:
320,192,182344,1,0,0:0:0:0:
64,192,182344,1,0,0:0:0:0:
448,192,182489,1,0,0:0:0:0:
320,192,182489,1,0,0:0:0:0:
192,192,182489,1,0,0:0:0:0:
448,192,182634,1,0,0:0:0:0:
64,192,182634,1,0,0:0:0:0:
192,192,182634,1,0,0:0:0:0:
192,192,182743,1,0,0:0:0:0:
448,192,182743,1,0,0:0:0:0:
64,192,182779,1,0,0:0:0:0:
320,192,182779,1,0,0:0:0:0:
64,192,182924,1,0,0:0:0:0:
448,192,182924,1,0,0:0:0:0:
192,192,182924,1,0,0:0:0:0:
64,192,183069,1,0,0:0:0:0:
448,192,183069,1,0,0:0:0:0:
320,192,183069,1,0,0:0:0:0:
192,192,183178,1,0,0:0:0:0:
64,192,183286,1,0,0:0:0:0:
192,192,183395,1,0,0:0:0:0:
448,192,183504,1,0,0:0:0:0:
64,192,183504,128,0,183721:0:0:0:0:
192,192,183613,1,0,0:0:0:0:
320,192,183721,1,0,0:0:0:0:
448,192,183830,1,0,0:0:0:0:
320,192,183939,1,0,0:0:0:0:
64,192,183939,128,0,184156:0:0:0:0:
192,192,184047,1,0,0:0:0:0:
320,192,184156,1,0,0:0:0:0:
448,192,184265,1,0,0:0:0:0:
320,192,184373,1,0,0:0:0:0:
64,192,184373,1,0,0:0:0:0:
192,192,184482,1,0,0:0:0:0:
320,192,184591,1,0,0:0:0:0:
448,192,184699,1,0,0:0:0:0:
64,192,184808,1,0,0:0:0:0:
320,192,184808,128,0,185026:0:0:0:0:
448,192,184917,1,0,0:0:0:0:
192,192,185026,1,0,0:0:0:0:
448,192,185134,1,0,0:0:0:0:
320,192,185243,1,0,0:0:0:0:
64,192,185243,128,0,185460:0:0:0:0:
192,192,185352,1,0,0:0:0:0:
320,192,185460,1,0,0:0:0:0:
192,192,185569,1,0,0:0:0:0:
320,192,185678,1,0,0:0:0:0:
448,192,185678,128,0,185895:0:0:0:0:
64,192,185786,1,0,0:0:0:0:
320,192,185895,1,0,0:0:0:0:
192,192,186004,1,0,0:0:0:0:
64,192,186113,1,0,0:0:0:0:
448,192,186113,1,0,0:0:0:0:
192,192,186221,1,0,0:0:0:0:
64,192,186330,1,0,0:0:0:0:
448,192,186330,1,0,0:0:0:0:
320,192,186439,1,0,0:0:0:0:
192,192,186547,1,0,0:0:0:0:
448,192,186547,128,0,186765:0:0:0:0:
320,192,186656,1,0,0:0:0:0:
64,192,186765,1,0,0:0:0:0:
192,192,186873,1,0,0:0:0:0:
448,192,186982,1,0,0:0:0:0:
64,192,186982,128,0,187199:0:0:0:0:
192,192,187091,1,0,0:0:0:0:
448,192,187199,1,0,0:0:0:0:
320,192,187308,1,0,0:0:0:0:
64,192,187417,1,0,0:0:0:0:
448,192,187417,128,0,187634:0:0:0:0:
192,192,187526,1,0,0:0:0:0:
64,192,187634,1,0,0:0:0:0:
192,192,187743,1,0,0:0:0:0:
320,192,187852,1,0,0:0:0:0:
448,192,187852,1,0,0:0:0:0:
192,192,187960,1,0,0:0:0:0:
64,192,188069,1,0,0:0:0:0:
192,192,188178,1,0,0:0:0:0:
320,192,188286,1,0,0:0:0:0:
64,192,188286,128,0,188504:0:0:0:0:
192,192,188395,1,0,0:0:0:0:
320,192,188504,1,0,0:0:0:0:
192,192,188613,1,0,0:0:0:0:
64,192,188721,1,0,0:0:0:0:
448,192,188721,128,0,188939:0:0:0:0:
320,192,188830,1,0,0:0:0:0:
192,192,188939,1,0,0:0:0:0:
320,192,189047,1,0,0:0:0:0:
64,192,189156,1,0,0:0:0:0:
448,192,189156,128,0,189373:0:0:0:0:
320,192,189265,1,0,0:0:0:0:
192,192,189373,1,0,0:0:0:0:
64,192,189373,1,0,0:0:0:0:
320,192,189482,1,0,0:0:0:0:
448,192,189591,1,0,0:0:0:0:
64,192,189591,1,0,0:0:0:0:
320,192,189699,1,0,0:0:0:0:
192,192,189808,1,0,0:0:0:0:
64,192,189917,1,0,0:0:0:0:
192,192,190026,1,0,0:0:0:0:
448,192,190026,1,0,0:0:0:0:
320,192,190026,128,0,190243:0:0:0:0:
64,192,190134,1,0,0:0:0:0:
192,192,190243,1,0,0:0:0:0:
448,192,190352,1,0,0:0:0:0:
64,192,190460,1,0,0:0:0:0:
320,192,190460,128,0,190678:0:0:0:0:
448,192,190569,1,0,0:0:0:0:
192,192,190678,1,0,0:0:0:0:
64,192,190895,1,0,0:0:0:0:
448,192,190895,128,0,191113:0:0:0:0:
192,192,191004,1,0,0:0:0:0:
320,192,191113,1,0,0:0:0:0:
192,192,191221,1,0,0:0:0:0:
64,192,191330,1,0,0:0:0:0:
448,192,191330,128,0,191547:0:0:0:0:
320,192,191439,1,0,0:0:0:0:
192,192,191547,1,0,0:0:0:0:
64,192,191656,1,0,0:0:0:0:
448,192,191765,1,0,0:0:0:0:
320,192,191765,128,0,191982:0:0:0:0:
192,192,191873,1,0,0:0:0:0:
64,192,191982,1,0,0:0:0:0:
448,192,192091,1,0,0:0:0:0:
64,192,192199,1,0,0:0:0:0:
192,192,192199,128,0,192417:0:0:0:0:
320,192,192308,1,0,0:0:0:0:
448,192,192417,1,0,0:0:0:0:
320,192,192526,1,0,0:0:0:0:
192,192,192634,1,0,0:0:0:0:
64,192,192634,128,0,192852:0:0:0:0:
320,192,192743,1,0,0:0:0:0:
192,192,192852,1,0,0:0:0:0:
320,192,192960,1,0,0:0:0:0:
64,192,193069,1,0,0:0:0:0:
448,192,193069,128,0,193286:0:0:0:0:
192,192,193178,1,0,0:0:0:0:
64,192,193286,1,0,0:0:0:0:
320,192,193286,128,0,193504:0:0:0:0:
192,192,193395,1,0,0:0:0:0:
448,192,193504,1,0,0:0:0:0:
64,192,193504,128,0,193721:0:0:0:0:
320,192,193613,1,0,0:0:0:0:
192,192,193721,1,0,0:0:0:0:
448,192,193830,1,0,0:0:0:0:
320,192,193939,1,0,0:0:0:0:
64,192,193939,128,0,194156:0:0:0:0:
192,192,194047,1,0,0:0:0:0:
320,192,194156,1,0,0:0:0:0:
192,192,194265,1,0,0:0:0:0:
64,192,194373,1,0,0:0:0:0:
448,192,194373,128,0,194591:0:0:0:0:
192,192,194482,1,0,0:0:0:0:
320,192,194591,1,0,0:0:0:0:
448,192,194699,1,0,0:0:0:0:
320,192,194808,1,0,0:0:0:0:
64,192,194808,128,0,195026:0:0:0:0:
448,192,194917,1,0,0:0:0:0:
320,192,195026,1,0,0:0:0:0:
192,192,195134,1,0,0:0:0:0:
448,192,195243,128,0,195460:0:0:0:0:
320,192,195243,128,0,195460:0:0:0:0:
64,192,195243,1,0,0:0:0:0:
192,192,195352,1,0,0:0:0:0:
64,192,195460,1,0,0:0:0:0:
192,192,195569,1,0,0:0:0:0:
448,192,195678,128,0,195895:0:0:0:0:
64,192,195678,1,0,0:0:0:0:
320,192,195678,128,0,195895:0:0:0:0:
192,192,195786,1,0,0:0:0:0:
64,192,195895,1,0,0:0:0:0:
192,192,196004,1,0,0:0:0:0:
64,192,196113,128,0,196330:0:0:0:0:
320,192,196113,1,0,0:0:0:0:
448,192,196113,128,0,196330:0:0:0:0:
192,192,196221,1,0,0:0:0:0:
320,192,196330,1,0,0:0:0:0:
192,192,196439,1,0,0:0:0:0:
448,192,196547,128,0,196765:0:0:0:0:
64,192,196547,128,0,196765:0:0:0:0:
320,192,196547,1,0,0:0:0:0:
192,192,196656,1,0,0:0:0:0:
320,192,196765,1,0,0:0:0:0:
192,192,196873,1,0,0:0:0:0:
448,192,196982,128,0,197199:0:0:0:0:
64,192,196982,128,0,197417:0:0:0:0:
320,192,196982,1,0,0:0:0:0:
192,192,197091,1,0,0:0:0:0:
320,192,197199,1,0,0:0:0:0:
192,192,197308,1,0,0:0:0:0:
448,192,197417,1,0,0:0:0:0:
320,192,197417,1,0,0:0:0:0:
192,192,197526,1,0,0:0:0:0:
64,192,197634,1,0,0:0:0:0:
192,192,197743,1,0,0:0:0:0:
320,192,197852,1,0,0:0:0:0:
448,192,197852,128,0,198069:0:0:0:0:
192,192,197960,1,0,0:0:0:0:
320,192,198069,1,0,0:0:0:0:
64,192,198178,1,0,0:0:0:0:
320,192,198286,1,0,0:0:0:0:
448,192,198286,128,0,198504:0:0:0:0:
192,192,198395,1,0,0:0:0:0:
320,192,198504,1,0,0:0:0:0:
64,192,198613,1,0,0:0:0:0:
320,192,198721,1,0,0:0:0:0:
448,192,198721,128,0,199156:0:0:0:0:
192,192,198830,1,0,0:0:0:0:
320,192,198939,1,0,0:0:0:0:
192,192,199047,1,0,0:0:0:0:
64,192,199156,1,0,0:0:0:0:
320,192,199156,1,0,0:0:0:0:
192,192,199265,1,0,0:0:0:0:
320,192,199373,1,0,0:0:0:0:
64,192,199373,1,0,0:0:0:0:
448,192,199482,1,0,0:0:0:0:
192,192,199591,1,0,0:0:0:0:
64,192,199591,128,0,199808:0:0:0:0:
320,192,199699,1,0,0:0:0:0:
192,192,199808,1,0,0:0:0:0:
448,192,199917,1,0,0:0:0:0:
192,192,200026,1,0,0:0:0:0:
64,192,200026,128,0,200134:0:0:0:0:
320,192,200134,1,0,0:0:0:0:
448,192,200134,1,0,0:0:0:0:
192,192,200243,1,0,0:0:0:0:
64,192,200243,128,0,200352:0:0:0:0:
448,192,200352,1,0,0:0:0:0:
64,192,200460,1,0,0:0:0:0:
320,192,200460,128,0,200895:0:0:0:0:
192,192,200569,1,0,0:0:0:0:
64,192,200678,1,0,0:0:0:0:
448,192,200786,1,0,0:0:0:0:
64,192,200895,1,0,0:0:0:0:
192,192,200895,1,0,0:0:0:0:
448,192,201004,1,0,0:0:0:0:
192,192,201113,1,0,0:0:0:0:
448,192,201221,1,0,0:0:0:0:
320,192,201330,1,0,0:0:0:0:
192,192,201330,128,0,201547:0:0:0:0:
64,192,201439,1,0,0:0:0:0:
448,192,201547,1,0,0:0:0:0:
64,192,201656,1,0,0:0:0:0:
320,192,201765,1,0,0:0:0:0:
192,192,201765,128,0,201982:0:0:0:0:
64,192,201873,1,0,0:0:0:0:
448,192,201982,1,0,0:0:0:0:
64,192,202091,1,0,0:0:0:0:
192,192,202199,1,0,0:0:0:0:
448,192,202199,128,0,202634:0:0:0:0:
320,192,202308,1,0,0:0:0:0:
64,192,202417,1,0,0:0:0:0:
320,192,202526,1,0,0:0:0:0:
192,192,202634,1,0,0:0:0:0:
64,192,202634,1,0,0:0:0:0:
320,192,202743,1,0,0:0:0:0:
192,192,202852,1,0,0:0:0:0:
64,192,202960,1,0,0:0:0:0:
448,192,203069,128,0,203286:0:0:0:0:
192,192,203069,1,0,0:0:0:0:
320,192,203178,1,0,0:0:0:0:
192,192,203286,1,0,0:0:0:0:
64,192,203286,128,0,203395:0:0:0:0:
320,192,203395,128,0,203504:0:0:0:0:
192,192,203504,128,0,203721:0:0:0:0:
448,192,203504,1,0,0:0:0:0:
320,192,203613,1,0,0:0:0:0:
64,192,203721,128,0,203830:0:0:0:0:
320,192,203830,128,0,203939:0:0:0:0:
192,192,203939,1,0,0:0:0:0:
64,192,203939,1,0,0:0:0:0:
448,192,203939,128,0,204156:0:0:0:0:
320,192,204047,1,0,0:0:0:0:
192,192,204156,1,0,0:0:0:0:
64,192,204265,1,0,0:0:0:0:
192,192,204373,1,0,0:0:0:0:
448,192,204373,128,0,204591:0:0:0:0:
64,192,204482,1,0,0:0:0:0:
192,192,204591,1,0,0:0:0:0:
320,192,204699,1,0,0:0:0:0:
64,192,204808,1,0,0:0:0:0:
448,192,204808,128,0,205026:0:0:0:0:
320,192,204917,1,0,0:0:0:0:
192,192,205026,1,0,0:0:0:0:
64,192,205134,1,0,0:0:0:0:
192,192,205243,1,0,0:0:0:0:
448,192,205243,128,0,205460:0:0:0:0:
64,192,205352,1,0,0:0:0:0:
192,192,205460,1,0,0:0:0:0:
320,192,205569,1,0,0:0:0:0:
448,192,205678,1,0,0:0:0:0:
64,192,205678,128,0,205895:0:0:0:0:
192,192,205786,1,0,0:0:0:0:
320,192,205895,1,0,0:0:0:0:
448,192,206004,1,0,0:0:0:0:
320,192,206113,1,0,0:0:0:0:
64,192,206113,128,0,206330:0:0:0:0:
448,192,206221,1,0,0:0:0:0:
320,192,206330,1,0,0:0:0:0:
192,192,206439,1,0,0:0:0:0:
448,192,206547,1,0,0:0:0:0:
64,192,206547,128,0,206765:0:0:0:0:
192,192,206656,1,0,0:0:0:0:
320,192,206765,1,0,0:0:0:0:
448,192,206873,1,0,0:0:0:0:
320,192,206982,1,0,0:0:0:0:
64,192,206982,128,0,207091:0:0:0:0:
192,192,207091,1,0,0:0:0:0:
448,192,207091,1,0,0:0:0:0:
320,192,207199,1,0,0:0:0:0:
64,192,207199,128,0,207308:0:0:0:0:
192,192,207308,1,0,0:0:0:0:
64,192,207417,1,0,0:0:0:0:
448,192,207417,128,0,207634:0:0:0:0:
192,192,207526,1,0,0:0:0:0:
320,192,207634,1,0,0:0:0:0:
448,192,207743,1,0,0:0:0:0:
320,192,207852,1,0,0:0:0:0:
64,192,207852,128,0,208069:0:0:0:0:
448,192,207960,1,0,0:0:0:0:
320,192,208069,1,0,0:0:0:0:
192,192,208178,1,0,0:0:0:0:
64,192,208286,1,0,0:0:0:0:
448,192,208286,128,0,208504:0:0:0:0:
192,192,208395,1,0,0:0:0:0:
320,192,208504,1,0,0:0:0:0:
448,192,208613,1,0,0:0:0:0:
320,192,208721,1,0,0:0:0:0:
64,192,208721,128,0,208939:0:0:0:0:
448,192,208830,1,0,0:0:0:0:
320,192,208939,1,0,0:0:0:0:
192,192,209047,1,0,0:0:0:0:
64,192,209156,1,0,0:0:0:0:
448,192,209156,128,0,209373:0:0:0:0:
320,192,209265,1,0,0:0:0:0:
192,192,209373,1,0,0:0:0:0:
64,192,209482,1,0,0:0:0:0:
192,192,209591,1,0,0:0:0:0:
448,192,209591,128,0,209808:0:0:0:0:
64,192,209699,1,0,0:0:0:0:
192,192,209808,1,0,0:0:0:0:
320,192,209917,1,0,0:0:0:0:
448,192,210026,1,0,0:0:0:0:
64,192,210026,1,0,0:0:0:0:
192,192,210026,1,0,0:0:0:0:
448,192,210171,1,0,0:0:0:0:
64,192,210171,1,0,0:0:0:0:
320,192,210171,1,0,0:0:0:0:
448,192,210315,1,0,0:0:0:0:
64,192,210315,1,0,0:0:0:0:
192,192,210315,1,0,0:0:0:0:
448,192,210460,1,0,0:0:0:0:
64,192,210460,1,0,0:0:0:0:
320,192,210460,1,0,0:0:0:0:
448,192,210605,1,0,0:0:0:0:
64,192,210605,1,0,0:0:0:0:
192,192,210605,1,0,0:0:0:0:
448,192,210750,1,0,0:0:0:0:
320,192,210750,1,0,0:0:0:0:
64,192,210750,1,0,0:0:0:0:
64,192,210895,1,0,0:0:0:0:
448,192,210895,1,0,0:0:0:0:
320,192,210895,1,0,0:0:0:0:
192,192,210895,128,0,211113:0:0:0:0:
64,192,211113,1,0,0:0:0:0:
64,192,211330,1,0,0:0:0:0:
192,192,211330,1,0,0:0:0:0:
448,192,211330,1,0,0:0:0:0:
320,192,211330,128,0,211547:0:0:0:0:
192,192,211547,1,0,0:0:0:0:
320,192,211765,1,0,0:0:0:0:
192,192,211765,1,0,0:0:0:0:
64,192,211765,1,0,0:0:0:0:
448,192,211765,128,0,211982:0:0:0:0:
320,192,211982,1,0,0:0:0:0:
448,192,212199,1,0,0:0:0:0:
192,192,212199,1,0,0:0:0:0:
64,192,212199,1,0,0:0:0:0:
320,192,212199,128,0,212417:0:0:0:0:
448,192,212417,1,0,0:0:0:0:
64,192,212634,1,0,0:0:0:0:
320,192,212634,1,0,0:0:0:0:
448,192,212634,1,0,0:0:0:0:
192,192,212634,128,0,212852:0:0:0:0:
320,192,212852,1,0,0:0:0:0:
448,192,213069,1,0,0:0:0:0:
320,192,213069,1,0,0:0:0:0:
192,192,213069,1,0,0:0:0:0:
64,192,213069,128,0,213286:0:0:0:0:
192,192,213286,1,0,0:0:0:0:
64,192,213504,1,0,0:0:0:0:
320,192,213504,1,0,0:0:0:0:
192,192,213504,1,0,0:0:0:0:
448,192,213504,128,0,213721:0:0:0:0:
64,192,213721,1,0,0:0:0:0:
448,192,213939,1,0,0:0:0:0:
64,192,213939,1,0,0:0:0:0:
320,192,213939,1,0,0:0:0:0:
192,192,214047,1,0,0:0:0:0:
64,192,214156,1,0,0:0:0:0:
448,192,214156,1,0,0:0:0:0:
320,192,214156,1,0,0:0:0:0:
192,192,214265,1,0,0:0:0:0:
64,192,214373,1,0,0:0:0:0:
448,192,214373,1,0,0:0:0:0:
320,192,214373,128,0,214591:0:0:0:0:
448,192,214591,1,0,0:0:0:0:
448,192,214808,1,0,0:0:0:0:
320,192,214808,1,0,0:0:0:0:
64,192,214808,1,0,0:0:0:0:
192,192,214808,128,0,215026:0:0:0:0:
64,192,215026,1,0,0:0:0:0:
448,192,215243,1,0,0:0:0:0:
320,192,215243,1,0,0:0:0:0:
192,192,215243,1,0,0:0:0:0:
64,192,215243,128,0,215460:0:0:0:0:
192,192,215460,1,0,0:0:0:0:
64,192,215678,1,0,0:0:0:0:
192,192,215678,1,0,0:0:0:0:
320,192,215678,1,0,0:0:0:0:
448,192,215678,128,0,215895:0:0:0:0:
320,192,215895,1,0,0:0:0:0:
64,192,216113,1,0,0:0:0:0:
192,192,216113,1,0,0:0:0:0:
448,192,216113,1,0,0:0:0:0:
320,192,216113,128,0,216330:0:0:0:0:
64,192,216330,1,0,0:0:0:0:
64,192,216547,1,0,0:0:0:0:
320,192,216547,1,0,0:0:0:0:
448,192,216547,1,0,0:0:0:0:
192,192,216547,128,0,216765:0:0:0:0:
448,192,216765,128,0,216873:0:0:0:0:
320,192,216873,128,0,216982:0:0:0:0:
64,192,216982,1,0,0:0:0:0:
192,192,216982,128,0,217199:0:0:0:0:
448,192,216982,1,0,0:0:0:0:
448,192,217199,1,0,0:0:0:0:
320,192,217199,1,0,0:0:0:0:
64,192,217199,128,0,217308:0:0:0:0:
192,192,217308,128,0,217417:0:0:0:0:
64,192,217417,1,0,0:0:0:0:
448,192,217417,1,0,0:0:0:0:
320,192,217417,128,0,217634:0:0:0:0:
64,192,217634,128,0,217743:0:0:0:0:
192,192,217743,128,0,217852:0:0:0:0:
64,192,217852,1,0,0:0:0:0:
320,192,217852,1,0,0:0:0:0:
448,192,217852,1,0,0:0:0:0:
192,192,217960,1,0,0:0:0:0:
64,192,218069,1,0,0:0:0:0:
192,192,218178,1,0,0:0:0:0:
64,192,218286,1,0,0:0:0:0:
448,192,218286,1,0,0:0:0:0:
320,192,218286,1,0,0:0:0:0:
192,192,218395,1,0,0:0:0:0:
320,192,218504,1,0,0:0:0:0:
192,192,218613,1,0,0:0:0:0:
448,192,218721,1,0,0:0:0:0:
320,192,218721,1,0,0:0:0:0:
64,192,218721,1,0,0:0:0:0:
192,192,218830,1,0,0:0:0:0:
320,192,218939,1,0,0:0:0:0:
448,192,219047,1,0,0:0:0:0:
320,192,219156,1,0,0:0:0:0:
64,192,219156,1,0,0:0:0:0:
192,192,219156,1,0,0:0:0:0:
448,192,219265,1,0,0:0:0:0:
320,192,219373,1,0,0:0:0:0:
192,192,219482,1,0,0:0:0:0:
320,192,219591,1,0,0:0:0:0:
64,192,219591,1,0,0:0:0:0:
448,192,219591,1,0,0:0:0:0:
192,192,219699,1,0,0:0:0:0:
64,192,219808,1,0,0:0:0:0:
192,192,219917,1,0,0:0:0:0:
64,192,220026,1,0,0:0:0:0:
320,192,220026,1,0,0:0:0:0:
448,192,220026,1,0,0:0:0:0:
192,192,220134,1,0,0:0:0:0:
320,192,220243,1,0,0:0:0:0:
192,192,220352,1,0,0:0:0:0:
320,192,220460,1,0,0:0:0:0:
448,192,220460,1,0,0:0:0:0:
64,192,220460,1,0,0:0:0:0:
192,192,220569,1,0,0:0:0:0:
320,192,220678,1,0,0:0:0:0:
448,192,220786,1,0,0:0:0:0:
64,192,220895,1,0,0:0:0:0:
320,192,220895,1,0,0:0:0:0:
192,192,220895,1,0,0:0:0:0:
448,192,221004,1,0,0:0:0:0:
64,192,221113,1,0,0:0:0:0:
192,192,221113,1,0,0:0:0:0:
320,192,221113,1,0,0:0:0:0:
448,192,221221,1,0,0:0:0:0:
192,192,221330,1,0,0:0:0:0:
64,192,221330,1,0,0:0:0:0:
320,192,221330,1,0,0:0:0:0:
448,192,221439,1,0,0:0:0:0:
320,192,221547,1,0,0:0:0:0:
192,192,221656,1,0,0:0:0:0:
448,192,221765,1,0,0:0:0:0:
64,192,221765,1,0,0:0:0:0:
320,192,221765,1,0,0:0:0:0:
192,192,221873,1,0,0:0:0:0:
320,192,221982,1,0,0:0:0:0:
448,192,222091,1,0,0:0:0:0:
192,192,222199,1,0,0:0:0:0:
320,192,222199,1,0,0:0:0:0:
64,192,222199,1,0,0:0:0:0:
448,192,222308,1,0,0:0:0:0:
64,192,222417,1,0,0:0:0:0:
192,192,222526,1,0,0:0:0:0:
320,192,222634,1,0,0:0:0:0:
448,192,222634,1,0,0:0:0:0:
64,192,222634,1,0,0:0:0:0:
192,192,222743,1,0,0:0:0:0:
320,192,222852,1,0,0:0:0:0:
448,192,222960,1,0,0:0:0:0:
320,192,223069,1,0,0:0:0:0:
192,192,223069,1,0,0:0:0:0:
64,192,223069,1,0,0:0:0:0:
448,192,223178,1,0,0:0:0:0:
320,192,223286,1,0,0:0:0:0:
192,192,223395,1,0,0:0:0:0:
64,192,223504,1,0,0:0:0:0:
320,192,223504,1,0,0:0:0:0:
448,192,223613,1,0,0:0:0:0:
192,192,223613,1,0,0:0:0:0:
320,192,223721,1,0,0:0:0:0:
192,192,223830,1,0,0:0:0:0:
64,192,223939,1,0,0:0:0:0:
448,192,223939,128,0,224373:0:0:0:0:
320,192,223939,1,0,0:0:0:0:
192,192,224373,1,0,0:0:0:0:
64,192,224373,1,0,0:0:0:0:
320,192,224373,128,0,224808:0:0:0:0:
192,192,224808,1,0,0:0:0:0:
448,192,224808,1,0,0:0:0:0:
64,192,224808,128,0,226547:0:0:0:0:
320,192,225026,1,0,0:0:0:0:
192,192,225243,1,0,0:0:0:0:
448,192,225243,1,0,0:0:0:0:
320,192,225460,1,0,0:0:0:0:
448,192,225678,128,0,225895:0:0:0:0:
192,192,225895,1,0,0:0:0:0:
320,192,225895,1,0,0:0:0:0:
192,192,226004,1,0,0:0:0:0:
320,192,226004,1,0,0:0:0:0:
192,192,226113,1,0,0:0:0:0:
320,192,226113,1,0,0:0:0:0:
448,192,226221,1,0,0:0:0:0:
320,192,226330,1,0,0:0:0:0:
448,192,226439,1,0,0:0:0:0:
192,192,226547,128,0,228286:0:0:0:0:
320,192,226547,1,0,0:0:0:0:
320,192,226765,1,0,0:0:0:0:
64,192,226982,1,0,0:0:0:0:
448,192,226982,1,0,0:0:0:0:
64,192,227199,1,0,0:0:0:0:
320,192,227199,1,0,0:0:0:0:
448,192,227417,1,0,0:0:0:0:
64,192,227417,1,0,0:0:0:0:
448,192,227526,1,0,0:0:0:0:
64,192,227526,1,0,0:0:0:0:
448,192,227634,1,0,0:0:0:0:
64,192,227634,1,0,0:0:0:0:
320,192,227852,1,0,0:0:0:0:
64,192,227852,1,0,0:0:0:0:
448,192,227960,1,0,0:0:0:0:
320,192,228069,1,0,0:0:0:0:
448,192,228178,1,0,0:0:0:0:
64,192,228286,1,0,0:0:0:0:
320,192,228286,128,0,230026:0:0:0:0:
448,192,228504,1,0,0:0:0:0:
64,192,228613,1,0,0:0:0:0:
192,192,228721,1,0,0:0:0:0:
448,192,228721,1,0,0:0:0:0:
64,192,228830,1,0,0:0:0:0:
192,192,228939,1,0,0:0:0:0:
64,192,229156,128,0,229373:0:0:0:0:
448,192,229373,1,0,0:0:0:0:
192,192,229373,1,0,0:0:0:0:
192,192,229482,1,0,0:0:0:0:
448,192,229482,1,0,0:0:0:0:
192,192,229591,1,0,0:0:0:0:
448,192,229591,1,0,0:0:0:0:
64,192,229699,1,0,0:0:0:0:
192,192,229808,1,0,0:0:0:0:
64,192,229917,1,0,0:0:0:0:
448,192,230026,128,0,231765:0:0:0:0:
192,192,230026,1,0,0:0:0:0:
64,192,230243,1,0,0:0:0:0:
320,192,230460,1,0,0:0:0:0:
192,192,230460,1,0,0:0:0:0:
192,192,230569,1,0,0:0:0:0:
320,192,230569,1,0,0:0:0:0:
192,192,230678,1,0,0:0:0:0:
64,192,230678,1,0,0:0:0:0:
64,192,230786,1,0,0:0:0:0:
192,192,230786,1,0,0:0:0:0:
320,192,230895,1,0,0:0:0:0:
64,192,230895,1,0,0:0:0:0:
192,192,231004,1,0,0:0:0:0:
64,192,231113,1,0,0:0:0:0:
192,192,231221,1,0,0:0:0:0:
320,192,231330,1,0,0:0:0:0:
64,192,231330,1,0,0:0:0:0:
192,192,231439,1,0,0:0:0:0:
64,192,231547,1,0,0:0:0:0:
320,192,231547,1,0,0:0:0:0:
192,192,231656,1,0,0:0:0:0:
320,192,231765,1,0,0:0:0:0:
64,192,231765,128,0,233504:0:0:0:0:
192,192,231982,1,0,0:0:0:0:
320,192,232199,1,0,0:0:0:0:
448,192,232199,1,0,0:0:0:0:
192,192,232417,1,0,0:0:0:0:
320,192,232634,128,0,233069:0:0:0:0:
192,192,232743,1,0,0:0:0:0:
448,192,232743,1,0,0:0:0:0:
448,192,232852,1,0,0:0:0:0:
192,192,232852,1,0,0:0:0:0:
448,192,232960,1,0,0:0:0:0:
192,192,233069,1,0,0:0:0:0:
320,192,233178,1,0,0:0:0:0:
448,192,233286,1,0,0:0:0:0:
320,192,233395,1,0,0:0:0:0:
192,192,233504,128,0,235243:0:0:0:0:
448,192,233504,1,0,0:0:0:0:
320,192,233721,1,0,0:0:0:0:
448,192,233939,1,0,0:0:0:0:
64,192,233939,1,0,0:0:0:0:
320,192,234156,1,0,0:0:0:0:
64,192,234156,1,0,0:0:0:0:
448,192,234373,1,0,0:0:0:0:
64,192,234373,1,0,0:0:0:0:
448,192,234482,1,0,0:0:0:0:
64,192,234482,1,0,0:0:0:0:
320,192,234591,1,0,0:0:0:0:
448,192,234808,1,0,0:0:0:0:
64,192,234808,1,0,0:0:0:0:
320,192,234917,1,0,0:0:0:0:
64,192,235026,1,0,0:0:0:0:
448,192,235134,1,0,0:0:0:0:
320,192,235243,128,0,236982:0:0:0:0:
64,192,235243,1,0,0:0:0:0:
192,192,235460,1,0,0:0:0:0:
64,192,235678,1,0,0:0:0:0:
192,192,235678,1,0,0:0:0:0:
64,192,235786,1,0,0:0:0:0:
192,192,235786,1,0,0:0:0:0:
448,192,235895,1,0,0:0:0:0:
192,192,236113,128,0,236330:0:0:0:0:
64,192,236330,1,0,0:0:0:0:
448,192,236330,1,0,0:0:0:0:
64,192,236547,1,0,0:0:0:0:
192,192,236656,1,0,0:0:0:0:
448,192,236765,1,0,0:0:0:0:
64,192,236765,1,0,0:0:0:0:
64,192,236873,1,0,0:0:0:0:
448,192,236873,1,0,0:0:0:0:
192,192,236982,128,0,237199:0:0:0:0:
64,192,237199,128,0,237417:0:0:0:0:
192,192,237417,128,0,237634:0:0:0:0:
320,192,237634,128,0,237852:0:0:0:0:
448,192,237852,128,0,238069:0:0:0:0:
192,192,238286,128,0,238504:0:0:0:0:
320,192,238504,128,0,238721:0:0:0:0:
192,192,238721,1,0,0:0:0:0:
448,192,238721,1,0,0:0:0:0:
64,192,238721,128,0,239156:0:0:0:0:
320,192,238939,1,0,0:0:0:0:
192,192,239156,1,0,0:0:0:0:
448,192,239156,1,0,0:0:0:0:
320,192,239373,1,0,0:0:0:0:
448,192,239591,128,0,240026:0:0:0:0:
320,192,239808,1,0,0:0:0:0:
64,192,239808,1,0,0:0:0:0:
192,192,239917,1,0,0:0:0:0:
64,192,240026,1,0,0:0:0:0:
320,192,240243,1,0,0:0:0:0:
448,192,240243,1,0,0:0:0:0:
448,192,240460,1,0,0:0:0:0:
64,192,240460,1,0,0:0:0:0:
192,192,240569,1,0,0:0:0:0:
320,192,240678,1,0,0:0:0:0:
448,192,240895,1,0,0:0:0:0:
192,192,240895,1,0,0:0:0:0:
320,192,241004,1,0,0:0:0:0:
192,192,241113,1,0,0:0:0:0:
64,192,241221,1,0,0:0:0:0:
448,192,241330,128,0,241765:0:0:0:0:
320,192,241330,1,0,0:0:0:0:
192,192,241439,1,0,0:0:0:0:
64,192,241547,1,0,0:0:0:0:
192,192,241656,1,0,0:0:0:0:
320,192,241765,128,0,241982:0:0:0:0:
64,192,241765,1,0,0:0:0:0:
448,192,241982,128,0,242199:0:0:0:0:
320,192,242199,1,0,0:0:0:0:
192,192,242199,1,0,0:0:0:0:
64,192,242199,128,0,242634:0:0:0:0:
448,192,242417,1,0,0:0:0:0:
192,192,242634,1,0,0:0:0:0:
320,192,242634,1,0,0:0:0:0:
448,192,242634,1,0,0:0:0:0:
64,192,242852,1,0,0:0:0:0:
192,192,243069,128,0,243504:0:0:0:0:
448,192,243069,1,0,0:0:0:0:
320,192,243178,1,0,0:0:0:0:
448,192,243286,1,0,0:0:0:0:
320,192,243395,1,0,0:0:0:0:
448,192,243504,1,0,0:0:0:0:
64,192,243504,1,0,0:0:0:0:
320,192,243613,1,0,0:0:0:0:
64,192,243721,1,0,0:0:0:0:
192,192,243721,1,0,0:0:0:0:
320,192,243830,1,0,0:0:0:0:
64,192,243939,1,0,0:0:0:0:
192,192,243939,1,0,0:0:0:0:
448,192,243939,128,0,244156:0:0:0:0:
320,192,244156,1,0,0:0:0:0:
448,192,244373,1,0,0:0:0:0:
192,192,244373,128,0,244591:0:0:0:0:
320,192,244591,1,0,0:0:0:0:
64,192,244808,128,0,245243:0:0:0:0:
448,192,244808,1,0,0:0:0:0:
320,192,244808,1,0,0:0:0:0:
192,192,244917,1,0,0:0:0:0:
320,192,245026,1,0,0:0:0:0:
448,192,245134,1,0,0:0:0:0:
192,192,245243,128,0,245460:0:0:0:0:
320,192,245352,1,0,0:0:0:0:
448,192,245460,1,0,0:0:0:0:
320,192,245569,1,0,0:0:0:0:
64,192,245678,128,0,246113:0:0:0:0:
448,192,245678,128,0,246113:0:0:0:0:
192,192,245678,1,0,0:0:0:0:
320,192,245895,1,0,0:0:0:0:
320,192,246113,1,0,0:0:0:0:
192,192,246113,1,0,0:0:0:0:
64,192,246330,1,0,0:0:0:0:
192,192,246547,128,0,246982:0:0:0:0:
448,192,246547,1,0,0:0:0:0:
320,192,246656,1,0,0:0:0:0:
448,192,246765,1,0,0:0:0:0:
64,192,246765,1,0,0:0:0:0:
320,192,246873,1,0,0:0:0:0:
64,192,246982,1,0,0:0:0:0:
192,192,247091,1,0,0:0:0:0:
320,192,247199,1,0,0:0:0:0:
64,192,247199,1,0,0:0:0:0:
448,192,247308,1,0,0:0:0:0:
64,192,247417,1,0,0:0:0:0:
192,192,247417,1,0,0:0:0:0:
320,192,247417,1,0,0:0:0:0:
448,192,247634,1,0,0:0:0:0:
320,192,247743,1,0,0:0:0:0:
192,192,247852,1,0,0:0:0:0:
448,192,247852,1,0,0:0:0:0:
64,192,248069,1,0,0:0:0:0:
192,192,248178,1,0,0:0:0:0:
320,192,248286,1,0,0:0:0:0:
448,192,248286,128,0,248721:0:0:0:0:
192,192,248395,1,0,0:0:0:0:
64,192,248395,1,0,0:0:0:0:
320,192,248504,1,0,0:0:0:0:
192,192,248613,1,0,0:0:0:0:
64,192,248721,128,0,248830:0:0:0:0:
192,192,248830,128,0,248939:0:0:0:0:
320,192,248939,128,0,249047:0:0:0:0:
64,192,248939,1,0,0:0:0:0:
448,192,249047,128,0,249156:0:0:0:0:
320,192,249156,1,0,0:0:0:0:
192,192,249156,1,0,0:0:0:0:
64,192,249156,128,0,250026:0:0:0:0:
448,192,249373,1,0,0:0:0:0:
192,192,249591,1,0,0:0:0:0:
320,192,249591,1,0,0:0:0:0:
192,192,249808,1,0,0:0:0:0:
448,192,249808,1,0,0:0:0:0:
192,192,250026,1,0,0:0:0:0:
320,192,250026,1,0,0:0:0:0:
448,192,250026,128,0,250895:0:0:0:0:
320,192,250243,1,0,0:0:0:0:
64,192,250243,128,0,250460:0:0:0:0:
192,192,250460,1,0,0:0:0:0:
64,192,250678,1,0,0:0:0:0:
320,192,250678,1,0,0:0:0:0:
64,192,250895,1,0,0:0:0:0:
192,192,250895,1,0,0:0:0:0:
320,192,250895,128,0,251765:0:0:0:0:
448,192,251113,1,0,0:0:0:0:
64,192,251330,1,0,0:0:0:0:
192,192,251330,1,0,0:0:0:0:
448,192,251330,128,0,251547:0:0:0:0:
64,192,251547,1,0,0:0:0:0:
192,192,251547,1,0,0:0:0:0:
448,192,251765,1,0,0:0:0:0:
64,192,251765,128,0,251873:0:0:0:0:
192,192,251765,1,0,0:0:0:0:
192,192,251873,128,0,251982:0:0:0:0:
64,192,251982,128,0,252091:0:0:0:0:
192,192,252091,128,0,252199:0:0:0:0:
64,192,252199,1,0,0:0:0:0:
448,192,252199,128,0,252308:0:0:0:0:
320,192,252199,1,0,0:0:0:0:
320,192,252308,128,0,252417:0:0:0:0:
448,192,252417,128,0,252526:0:0:0:0:
320,192,252526,128,0,252634:0:0:0:0:
192,192,252634,1,0,0:0:0:0:
448,192,252634,128,0,252852:0:0:0:0:
64,192,252634,1,0,0:0:0:0:
320,192,252743,1,0,0:0:0:0:
192,192,252852,128,0,253069:0:0:0:0:
64,192,252960,1,0,0:0:0:0:
320,192,253069,1,0,0:0:0:0:
448,192,253069,128,0,253286:0:0:0:0:
64,192,253178,1,0,0:0:0:0:
192,192,253286,128,0,253504:0:0:0:0:
320,192,253395,1,0,0:0:0:0:
448,192,253504,128,0,253721:0:0:0:0:
64,192,253504,1,0,0:0:0:0:
320,192,253613,1,0,0:0:0:0:
192,192,253721,1,0,0:0:0:0:
320,192,253830,1,0,0:0:0:0:
192,192,253939,1,0,0:0:0:0:
64,192,253939,128,0,254047:0:0:0:0:
320,192,254047,1,0,0:0:0:0:
448,192,254047,1,0,0:0:0:0:
192,192,254156,1,0,0:0:0:0:
64,192,254156,128,0,254265:0:0:0:0:
320,192,254265,1,0,0:0:0:0:
448,192,254265,1,0,0:0:0:0:
192,192,254373,1,0,0:0:0:0:
64,192,254373,128,0,254591:0:0:0:0:
448,192,254482,1,0,0:0:0:0:
320,192,254591,128,0,254808:0:0:0:0:
192,192,254699,1,0,0:0:0:0:
64,192,254808,128,0,255026:0:0:0:0:
448,192,254808,1,0,0:0:0:0:
192,192,254917,1,0,0:0:0:0:
320,192,255026,128,0,255243:0:0:0:0:
192,192,255134,1,0,0:0:0:0:
64,192,255243,128,0,255460:0:0:0:0:
448,192,255243,1,0,0:0:0:0:
192,192,255352,1,0,0:0:0:0:
320,192,255460,1,0,0:0:0:0:
192,192,255569,1,0,0:0:0:0:
64,192,255678,128,0,255895:0:0:0:0:
448,192,255678,1,0,0:0:0:0:
320,192,255786,1,0,0:0:0:0:
192,192,255895,128,0,256113:0:0:0:0:
448,192,255895,1,0,0:0:0:0:
64,192,256004,1,0,0:0:0:0:
448,192,256113,128,0,256330:0:0:0:0:
320,192,256113,1,0,0:0:0:0:
64,192,256221,1,0,0:0:0:0:
320,192,256330,128,0,256547:0:0:0:0:
64,192,256439,1,0,0:0:0:0:
192,192,256547,128,0,256765:0:0:0:0:
448,192,256547,1,0,0:0:0:0:
320,192,256656,1,0,0:0:0:0:
64,192,256765,128,0,256982:0:0:0:0:
320,192,256873,1,0,0:0:0:0:
448,192,256982,1,0,0:0:0:0:
192,192,256982,128,0,257199:0:0:0:0:
320,192,257091,1,0,0:0:0:0:
448,192,257199,1,0,0:0:0:0:
320,192,257308,1,0,0:0:0:0:
192,192,257417,1,0,0:0:0:0:
64,192,257417,1,0,0:0:0:0:
320,192,257526,1,0,0:0:0:0:
448,192,257526,1,0,0:0:0:0:
64,192,257634,1,0,0:0:0:0:
192,192,257634,1,0,0:0:0:0:
320,192,257743,1,0,0:0:0:0:
448,192,257743,1,0,0:0:0:0:
192,192,257852,1,0,0:0:0:0:
64,192,257852,128,0,258069:0:0:0:0:
448,192,257960,1,0,0:0:0:0:
192,192,258069,128,0,258286:0:0:0:0:
448,192,258178,1,0,0:0:0:0:
320,192,258286,128,0,258504:0:0:0:0:
64,192,258286,1,0,0:0:0:0:
192,192,258395,1,0,0:0:0:0:
448,192,258504,128,0,258721:0:0:0:0:
192,192,258613,1,0,0:0:0:0:
320,192,258721,128,0,258939:0:0:0:0:
64,192,258721,1,0,0:0:0:0:
192,192,258830,1,0,0:0:0:0:
64,192,258939,128,0,259047:0:0:0:0:
448,192,258939,1,0,0:0:0:0:
192,192,259047,128,0,259156:0:0:0:0:
448,192,259156,128,0,259373:0:0:0:0:
320,192,259156,1,0,0:0:0:0:
64,192,259156,1,0,0:0:0:0:
64,192,259373,128,0,259482:0:0:0:0:
192,192,259373,1,0,0:0:0:0:
320,192,259373,1,0,0:0:0:0:
192,192,259482,128,0,259591:0:0:0:0:
448,192,259591,1,0,0:0:0:0:
320,192,259591,1,0,0:0:0:0:
64,192,259591,128,0,259808:0:0:0:0:
192,192,259699,1,0,0:0:0:0:
320,192,259808,128,0,260026:0:0:0:0:
448,192,259917,1,0,0:0:0:0:
192,192,260026,1,0,0:0:0:0:
64,192,260026,128,0,260243:0:0:0:0:
448,192,260134,1,0,0:0:0:0:
320,192,260243,128,0,260460:0:0:0:0:
192,192,260352,1,0,0:0:0:0:
64,192,260460,128,0,260678:0:0:0:0:
448,192,260460,1,0,0:0:0:0:
192,192,260569,1,0,0:0:0:0:
320,192,260678,1,0,0:0:0:0:
192,192,260786,1,0,0:0:0:0:
320,192,260895,1,0,0:0:0:0:
448,192,260895,128,0,261004:0:0:0:0:
192,192,261004,1,0,0:0:0:0:
64,192,261004,1,0,0:0:0:0:
320,192,261113,1,0,0:0:0:0:
448,192,261113,128,0,261221:0:0:0:0:
192,192,261221,1,0,0:0:0:0:
64,192,261221,1,0,0:0:0:0:
320,192,261330,1,0,0:0:0:0:
448,192,261330,128,0,261547:0:0:0:0:
64,192,261439,1,0,0:0:0:0:
192,192,261547,128,0,261765:0:0:0:0:
320,192,261656,1,0,0:0:0:0:
448,192,261765,128,0,261982:0:0:0:0:
64,192,261765,1,0,0:0:0:0:
320,192,261873,1,0,0:0:0:0:
192,192,261982,128,0,262199:0:0:0:0:
320,192,262091,1,0,0:0:0:0:
448,192,262199,128,0,262417:0:0:0:0:
64,192,262199,1,0,0:0:0:0:
320,192,262308,1,0,0:0:0:0:
192,192,262417,1,0,0:0:0:0:
320,192,262526,1,0,0:0:0:0:
192,192,262634,1,0,0:0:0:0:
448,192,262634,128,0,262852:0:0:0:0:
64,192,262743,1,0,0:0:0:0:
320,192,262852,128,0,263069:0:0:0:0:
192,192,262852,1,0,0:0:0:0:
448,192,262960,1,0,0:0:0:0:
64,192,263069,128,0,263286:0:0:0:0:
192,192,263069,1,0,0:0:0:0:
448,192,263178,1,0,0:0:0:0:
192,192,263286,128,0,263504:0:0:0:0:
448,192,263395,1,0,0:0:0:0:
320,192,263504,128,0,263721:0:0:0:0:
64,192,263504,1,0,0:0:0:0:
192,192,263613,1,0,0:0:0:0:
448,192,263721,128,0,263939:0:0:0:0:
192,192,263830,1,0,0:0:0:0:
64,192,263939,1,0,0:0:0:0:
320,192,263939,128,0,264156:0:0:0:0:
192,192,264047,1,0,0:0:0:0:
64,192,264156,1,0,0:0:0:0:
192,192,264265,1,0,0:0:0:0:
320,192,264373,1,0,0:0:0:0:
448,192,264373,1,0,0:0:0:0:
192,192,264482,1,0,0:0:0:0:
64,192,264482,1,0,0:0:0:0:
448,192,264591,1,0,0:0:0:0:
320,192,264591,1,0,0:0:0:0:
192,192,264699,1,0,0:0:0:0:
64,192,264699,1,0,0:0:0:0:
320,192,264808,1,0,0:0:0:0:
448,192,264808,128,0,265026:0:0:0:0:
64,192,264917,1,0,0:0:0:0:
320,192,265026,128,0,265243:0:0:0:0:
64,192,265134,1,0,0:0:0:0:
448,192,265243,1,0,0:0:0:0:
192,192,265243,128,0,265460:0:0:0:0:
320,192,265352,1,0,0:0:0:0:
64,192,265460,128,0,265678:0:0:0:0:
320,192,265569,1,0,0:0:0:0:
448,192,265678,1,0,0:0:0:0:
192,192,265678,128,0,265823:0:0:0:0:
320,192,265823,128,0,265968:0:0:0:0:
448,192,265968,128,0,266113:0:0:0:0:
192,192,266113,1,0,0:0:0:0:
64,192,266113,128,0,266257:0:0:0:0:
320,192,266257,128,0,266402:0:0:0:0:
448,192,266402,128,0,266547:0:0:0:0:
64,192,266547,128,0,266765:0:0:0:0:
320,192,266547,1,0,0:0:0:0:
192,192,266547,128,0,266765:0:0:0:0:
320,192,266765,1,0,0:0:0:0:
64,192,266982,128,0,267199:0:0:0:0:
320,192,266982,128,0,267199:0:0:0:0:
448,192,266982,1,0,0:0:0:0:
192,192,266982,1,0,0:0:0:0:
192,192,267199,1,0,0:0:0:0:
64,192,267417,1,0,0:0:0:0:
448,192,267417,1,0,0:0:0:0:
192,192,267417,128,0,267634:0:0:0:0:
320,192,267417,128,0,267634:0:0:0:0:
64,192,267634,1,0,0:0:0:0:
64,192,267852,1,0,0:0:0:0:
192,192,267852,1,0,0:0:0:0:
448,192,267852,1,0,0:0:0:0:
192,192,267960,1,0,0:0:0:0:
320,192,267960,1,0,0:0:0:0:
320,192,268069,1,0,0:0:0:0:
448,192,268069,1,0,0:0:0:0:
192,192,268178,1,0,0:0:0:0:
320,192,268178,1,0,0:0:0:0:
64,192,268286,1,0,0:0:0:0:
320,192,268286,128,0,268504:0:0:0:0:
448,192,268286,128,0,268504:0:0:0:0:
192,192,268504,1,0,0:0:0:0:
448,192,268721,128,0,268939:0:0:0:0:
192,192,268721,128,0,268939:0:0:0:0:
320,192,268721,1,0,0:0:0:0:
64,192,268721,1,0,0:0:0:0:
320,192,268939,1,0,0:0:0:0:
320,192,269156,128,0,269373:0:0:0:0:
192,192,269156,128,0,269373:0:0:0:0:
64,192,269156,1,0,0:0:0:0:
448,192,269156,1,0,0:0:0:0:
448,192,269373,1,0,0:0:0:0:
320,192,269591,1,0,0:0:0:0:
448,192,269591,1,0,0:0:0:0:
64,192,269591,128,0,269808:0:0:0:0:
192,192,269591,1,0,0:0:0:0:
320,192,269808,1,0,0:0:0:0:
448,192,269808,1,0,0:0:0:0:
192,192,269808,1,0,0:0:0:0:
192,192,270026,1,0,0:0:0:0:
320,192,270026,1,0,0:0:0:0:
448,192,270026,128,0,270243:0:0:0:0:
64,192,270026,128,0,270243:0:0:0:0:
320,192,270243,1,0,0:0:0:0:
320,192,270460,128,0,270678:0:0:0:0:
64,192,270460,128,0,270678:0:0:0:0:
192,192,270460,1,0,0:0:0:0:
448,192,270460,1,0,0:0:0:0:
448,192,270678,1,0,0:0:0:0:
64,192,270895,128,0,271113:0:0:0:0:
320,192,270895,1,0,0:0:0:0:
448,192,270895,1,0,0:0:0:0:
192,192,270895,128,0,271113:0:0:0:0:
320,192,271113,1,0,0:0:0:0:
64,192,271330,1,0,0:0:0:0:
320,192,271330,1,0,0:0:0:0:
448,192,271330,1,0,0:0:0:0:
320,192,271439,1,0,0:0:0:0:
192,192,271439,1,0,0:0:0:0:
64,192,271547,1,0,0:0:0:0:
192,192,271547,1,0,0:0:0:0:
320,192,271656,1,0,0:0:0:0:
192,192,271656,1,0,0:0:0:0:
320,192,271765,1,0,0:0:0:0:
448,192,271765,128,0,271982:0:0:0:0:
64,192,271765,128,0,271982:0:0:0:0:
192,192,271982,1,0,0:0:0:0:
448,192,272199,128,0,272417:0:0:0:0:
320,192,272199,1,0,0:0:0:0:
64,192,272199,128,0,272308:0:0:0:0:
192,192,272308,128,0,272417:0:0:0:0:
320,192,272417,1,0,0:0:0:0:
64,192,272417,128,0,272526:0:0:0:0:
192,192,272526,128,0,272634:0:0:0:0:
448,192,272634,128,0,272852:0:0:0:0:
320,192,272634,128,0,272852:0:0:0:0:
64,192,272634,1,0,0:0:0:0:
64,192,272852,128,0,272960:0:0:0:0:
192,192,272960,128,0,273069:0:0:0:0:
64,192,273069,1,0,0:0:0:0:
320,192,273069,1,0,0:0:0:0:
448,192,273069,128,0,273286:0:0:0:0:
192,192,273286,128,0,273395:0:0:0:0:
64,192,273286,1,0,0:0:0:0:
320,192,273395,128,0,273504:0:0:0:0:
192,192,273504,1,0,0:0:0:0:
64,192,273504,128,0,273721:0:0:0:0:
448,192,273504,128,0,273721:0:0:0:0:
320,192,273721,1,0,0:0:0:0:
64,192,273939,1,0,0:0:0:0:
448,192,273939,1,0,0:0:0:0:
320,192,273939,128,0,274156:0:0:0:0:
192,192,273939,128,0,274156:0:0:0:0:
64,192,274156,1,0,0:0:0:0:
320,192,274373,1,0,0:0:0:0:
192,192,274373,1,0,0:0:0:0:
64,192,274373,128,0,274591:0:0:0:0:
448,192,274373,128,0,274591:0:0:0:0:
192,192,274591,1,0,0:0:0:0:
64,192,274808,1,0,0:0:0:0:
192,192,274808,1,0,0:0:0:0:
320,192,274808,1,0,0:0:0:0:
192,192,274917,1,0,0:0:0:0:
320,192,274917,1,0,0:0:0:0:
448,192,275026,1,0,0:0:0:0:
64,192,275026,1,0,0:0:0:0:
64,192,275134,1,0,0:0:0:0:
448,192,275134,1,0,0:0:0:0:
64,192,275243,1,0,0:0:0:0:
320,192,275243,1,0,0:0:0:0:
192,192,275243,128,0,275460:0:0:0:0:
448,192,275243,128,0,275460:0:0:0:0:
320,192,275460,1,0,0:0:0:0:
320,192,275678,128,0,275895:0:0:0:0:
64,192,275678,128,0,275895:0:0:0:0:
192,192,275678,1,0,0:0:0:0:
448,192,275678,1,0,0:0:0:0:
192,192,275895,1,0,0:0:0:0:
192,192,276113,128,0,276330:0:0:0:0:
448,192,276113,128,0,276330:0:0:0:0:
320,192,276113,1,0,0:0:0:0:
64,192,276113,1,0,0:0:0:0:
320,192,276330,1,0,0:0:0:0:
64,192,276547,1,0,0:0:0:0:
192,192,276547,1,0,0:0:0:0:
320,192,276547,1,0,0:0:0:0:
448,192,276656,1,0,0:0:0:0:
320,192,276765,1,0,0:0:0:0:
192,192,276765,1,0,0:0:0:0:
64,192,276765,1,0,0:0:0:0:
448,192,276873,1,0,0:0:0:0:
64,192,276982,1,0,0:0:0:0:
192,192,276982,128,0,277199:0:0:0:0:
320,192,276982,128,0,277199:0:0:0:0:
320,192,277417,1,0,0:0:0:0:
192,192,277417,1,0,0:0:0:0:
64,192,277417,128,0,277634:0:0:0:0:
448,192,277417,128,0,277634:0:0:0:0:
192,192,277526,1,0,0:0:0:0:
320,192,277634,1,0,0:0:0:0:
320,192,277743,1,0,0:0:0:0:
448,192,277852,1,0,0:0:0:0:
64,192,277852,1,0,0:0:0:0:
192,192,277852,128,0,278069:0:0:0:0:
320,192,277852,128,0,278069:0:0:0:0:
320,192,278286,1,0,0:0:0:0:
448,192,278286,1,0,0:0:0:0:
64,192,278286,1,0,0:0:0:0:
64,192,278395,1,0,0:0:0:0:
320,192,278395,1,0,0:0:0:0:
192,192,278504,1,0,0:0:0:0:
448,192,278504,1,0,0:0:0:0:
448,192,278613,1,0,0:0:0:0:
192,192,278613,1,0,0:0:0:0:
64,192,278721,1,0,0:0:0:0:
192,192,278721,1,0,0:0:0:0:
448,192,278721,128,0,278939:0:0:0:0:
320,192,278721,128,0,278939:0:0:0:0:
192,192,278939,1,0,0:0:0:0:
64,192,279156,1,0,0:0:0:0:
320,192,279156,1,0,0:0:0:0:
448,192,279156,128,0,279373:0:0:0:0:
192,192,279156,128,0,279373:0:0:0:0:
64,192,279373,1,0,0:0:0:0:
320,192,279591,1,0,0:0:0:0:
192,192,279591,1,0,0:0:0:0:
448,192,279591,128,0,280026:0:0:0:0:
64,192,279591,128,0,279808:0:0:0:0:
320,192,279808,1,0,0:0:0:0:
320,192,280026,128,0,280460:0:0:0:0:
192,192,280026,1,0,0:0:0:0:
64,192,280026,128,0,280243:0:0:0:0:
192,192,280243,1,0,0:0:0:0:
192,192,280460,1,0,0:0:0:0:
448,192,280460,128,0,280678:0:0:0:0:
64,192,280460,128,0,280895:0:0:0:0:
192,192,280895,1,0,0:0:0:0:
448,192,280895,1,0,0:0:0:0:
320,192,281004,1,0,0:0:0:0:
192,192,281113,1,0,0:0:0:0:
64,192,281221,1,0,0:0:0:0:
192,192,281330,1,0,0:0:0:0:
320,192,281439,1,0,0:0:0:0:
192,192,281547,1,0,0:0:0:0:
448,192,281547,1,0,0:0:0:0:
64,192,281656,1,0,0:0:0:0:
320,192,281656,1,0,0:0:0:0:
192,192,281765,1,0,0:0:0:0:
448,192,281765,128,0,281982:0:0:0:0:
320,192,281873,1,0,0:0:0:0:
192,192,281982,128,0,282199:0:0:0:0:
64,192,282091,1,0,0:0:0:0:
320,192,282199,1,0,0:0:0:0:
448,192,282308,1,0,0:0:0:0:
320,192,282417,1,0,0:0:0:0:
448,192,282526,1,0,0:0:0:0:
192,192,282634,1,0,0:0:0:0:
320,192,282634,1,0,0:0:0:0:
64,192,282743,1,0,0:0:0:0:
192,192,282852,1,0,0:0:0:0:
448,192,282852,1,0,0:0:0:0:
320,192,282960,1,0,0:0:0:0:
192,192,283069,1,0,0:0:0:0:
320,192,283178,1,0,0:0:0:0:
64,192,283178,1,0,0:0:0:0:
192,192,283286,1,0,0:0:0:0:
448,192,283286,1,0,0:0:0:0:
320,192,283395,1,0,0:0:0:0:
192,192,283504,128,0,283721:0:0:0:0:
448,192,283613,1,0,0:0:0:0:
320,192,283721,128,0,283939:0:0:0:0:
192,192,283830,1,0,0:0:0:0:
64,192,283939,1,0,0:0:0:0:
448,192,283939,1,0,0:0:0:0:
192,192,284047,1,0,0:0:0:0:
64,192,284156,1,0,0:0:0:0:
192,192,284265,1,0,0:0:0:0:
64,192,284373,1,0,0:0:0:0:
320,192,284373,1,0,0:0:0:0:
192,192,284482,1,0,0:0:0:0:
320,192,284591,1,0,0:0:0:0:
448,192,284699,1,0,0:0:0:0:
320,192,284808,1,0,0:0:0:0:
192,192,284917,1,0,0:0:0:0:
320,192,285026,1,0,0:0:0:0:
64,192,285026,1,0,0:0:0:0:
448,192,285134,1,0,0:0:0:0:
192,192,285134,1,0,0:0:0:0:
320,192,285243,128,0,285460:0:0:0:0:
64,192,285243,1,0,0:0:0:0:
192,192,285352,1,0,0:0:0:0:
64,192,285460,128,0,285678:0:0:0:0:
448,192,285460,1,0,0:0:0:0:
320,192,285569,1,0,0:0:0:0:
448,192,285678,1,0,0:0:0:0:
192,192,285678,1,0,0:0:0:0:
320,192,285786,1,0,0:0:0:0:
192,192,285895,1,0,0:0:0:0:
320,192,286004,1,0,0:0:0:0:
64,192,286113,1,0,0:0:0:0:
448,192,286113,1,0,0:0:0:0:
192,192,286221,1,0,0:0:0:0:
448,192,286330,1,0,0:0:0:0:
64,192,286330,1,0,0:0:0:0:
192,192,286439,1,0,0:0:0:0:
320,192,286547,1,0,0:0:0:0:
448,192,286547,1,0,0:0:0:0:
192,192,286656,1,0,0:0:0:0:
64,192,286656,1,0,0:0:0:0:
320,192,286765,1,0,0:0:0:0:
448,192,286765,1,0,0:0:0:0:
192,192,286873,1,0,0:0:0:0:
64,192,286873,1,0,0:0:0:0:
448,192,286982,1,0,0:0:0:0:
320,192,286982,128,0,287199:0:0:0:0:
192,192,287091,1,0,0:0:0:0:
64,192,287091,1,0,0:0:0:0:
448,192,287199,128,0,287417:0:0:0:0:
192,192,287308,1,0,0:0:0:0:
64,192,287308,1,0,0:0:0:0:
320,192,287417,1,0,0:0:0:0:
192,192,287526,1,0,0:0:0:0:
64,192,287634,1,0,0:0:0:0:
192,192,287743,1,0,0:0:0:0:
320,192,287852,1,0,0:0:0:0:
448,192,287852,1,0,0:0:0:0:
192,192,287960,1,0,0:0:0:0:
320,192,288069,1,0,0:0:0:0:
448,192,288178,1,0,0:0:0:0:
320,192,288286,1,0,0:0:0:0:
448,192,288395,1,0,0:0:0:0:
192,192,288395,1,0,0:0:0:0:
320,192,288504,1,0,0:0:0:0:
64,192,288504,1,0,0:0:0:0:
448,192,288613,1,0,0:0:0:0:
192,192,288613,1,0,0:0:0:0:
64,192,288721,1,0,0:0:0:0:
192,192,288830,1,0,0:0:0:0:
448,192,288939,1,0,0:0:0:0:
64,192,288939,1,0,0:0:0:0:
320,192,289047,1,0,0:0:0:0:
64,192,289156,1,0,0:0:0:0:
448,192,289156,1,0,0:0:0:0:
192,192,289265,1,0,0:0:0:0:
320,192,289373,1,0,0:0:0:0:
448,192,289482,1,0,0:0:0:0:
320,192,289591,1,0,0:0:0:0:
64,192,289591,1,0,0:0:0:0:
192,192,289699,1,0,0:0:0:0:
448,192,289808,1,0,0:0:0:0:
64,192,289808,1,0,0:0:0:0:
320,192,289917,1,0,0:0:0:0:
192,192,290026,1,0,0:0:0:0:
320,192,290134,1,0,0:0:0:0:
448,192,290134,1,0,0:0:0:0:
192,192,290243,1,0,0:0:0:0:
64,192,290243,1,0,0:0:0:0:
320,192,290352,1,0,0:0:0:0:
192,192,290460,1,0,0:0:0:0:
320,192,290569,1,0,0:0:0:0:
448,192,290678,1,0,0:0:0:0:
320,192,290786,1,0,0:0:0:0:
192,192,290895,1,0,0:0:0:0:
64,192,291004,1,0,0:0:0:0:
192,192,291113,1,0,0:0:0:0:
320,192,291221,1,0,0:0:0:0:
448,192,291330,1,0,0:0:0:0:
64,192,291330,1,0,0:0:0:0:
192,192,291439,1,0,0:0:0:0:
320,192,291547,1,0,0:0:0:0:
448,192,291656,1,0,0:0:0:0:
320,192,291765,1,0,0:0:0:0:
448,192,291873,1,0,0:0:0:0:
64,192,291982,1,0,0:0:0:0:
320,192,291982,1,0,0:0:0:0:
192,192,292091,1,0,0:0:0:0:
448,192,292091,1,0,0:0:0:0:
320,192,292199,1,0,0:0:0:0:
192,192,292308,1,0,0:0:0:0:
64,192,292417,1,0,0:0:0:0:
448,192,292417,1,0,0:0:0:0:
192,192,292526,1,0,0:0:0:0:
320,192,292634,1,0,0:0:0:0:
64,192,292743,1,0,0:0:0:0:
192,192,292852,1,0,0:0:0:0:
448,192,292960,1,0,0:0:0:0:
320,192,293069,1,0,0:0:0:0:
64,192,293069,1,0,0:0:0:0:
192,192,293178,1,0,0:0:0:0:
448,192,293178,1,0,0:0:0:0:
64,192,293286,1,0,0:0:0:0:
320,192,293286,1,0,0:0:0:0:
448,192,293395,1,0,0:0:0:0:
192,192,293395,1,0,0:0:0:0:
64,192,293504,128,0,294228:0:0:0:0:
448,192,293504,1,0,0:0:0:0:
320,192,293504,1,0,0:0:0:0:
448,192,293649,1,0,0:0:0:0:
320,192,293649,1,0,0:0:0:0:
192,192,293794,1,0,0:0:0:0:
448,192,293794,1,0,0:0:0:0:
192,192,293939,1,0,0:0:0:0:
448,192,293939,1,0,0:0:0:0:
320,192,294084,1,0,0:0:0:0:
192,192,294084,1,0,0:0:0:0:
320,192,294228,1,0,0:0:0:0:
192,192,294228,1,0,0:0:0:0:
192,192,294373,1,0,0:0:0:0:
64,192,294373,128,0,296113:0:0:0:0:
448,192,294373,1,0,0:0:0:0:
320,192,294373,128,0,294591:0:0:0:0:
448,192,294591,128,0,294808:0:0:0:0:
320,192,294808,128,0,295026:0:0:0:0:
192,192,295026,128,0,295243:0:0:0:0:
448,192,295243,128,0,295460:0:0:0:0:
192,192,295352,1,0,0:0:0:0:
320,192,295460,1,0,0:0:0:0:
448,192,295569,1,0,0:0:0:0:
320,192,295678,1,0,0:0:0:0:
192,192,295786,1,0,0:0:0:0:
320,192,295895,1,0,0:0:0:0:
448,192,296004,1,0,0:0:0:0:
320,192,296113,128,0,297852:0:0:0:0:
192,192,296113,128,0,296330:0:0:0:0:
448,192,296330,128,0,296547:0:0:0:0:
192,192,296547,128,0,296765:0:0:0:0:
64,192,296765,128,0,296982:0:0:0:0:
448,192,296982,128,0,297199:0:0:0:0:
192,192,297091,1,0,0:0:0:0:
64,192,297199,1,0,0:0:0:0:
192,192,297308,1,0,0:0:0:0:
448,192,297417,1,0,0:0:0:0:
192,192,297526,1,0,0:0:0:0:
64,192,297634,1,0,0:0:0:0:
192,192,297743,1,0,0:0:0:0:
448,192,297852,128,0,299591:0:0:0:0:
64,192,297852,128,0,298069:0:0:0:0:
192,192,298069,128,0,298286:0:0:0:0:
320,192,298286,128,0,298504:0:0:0:0:
64,192,298504,128,0,298721:0:0:0:0:
192,192,298721,128,0,298939:0:0:0:0:
320,192,298830,1,0,0:0:0:0:
64,192,298939,1,0,0:0:0:0:
192,192,299047,1,0,0:0:0:0:
320,192,299156,1,0,0:0:0:0:
64,192,299265,1,0,0:0:0:0:
192,192,299373,1,0,0:0:0:0:
320,192,299482,1,0,0:0:0:0:
64,192,299591,128,0,301330:0:0:0:0:
192,192,299591,128,0,299808:0:0:0:0:
320,192,299699,1,0,0:0:0:0:
448,192,299808,128,0,300026:0:0:0:0:
320,192,299917,1,0,0:0:0:0:
192,192,300026,128,0,300243:0:0:0:0:
320,192,300134,1,0,0:0:0:0:
448,192,300243,128,0,300460:0:0:0:0:
320,192,300352,1,0,0:0:0:0:
192,192,300460,128,0,300678:0:0:0:0:
320,192,300569,1,0,0:0:0:0:
448,192,300678,1,0,0:0:0:0:
320,192,300786,1,0,0:0:0:0:
448,192,300895,1,0,0:0:0:0:
320,192,301004,1,0,0:0:0:0:
192,192,301113,1,0,0:0:0:0:
320,192,301221,1,0,0:0:0:0:
448,192,301330,128,0,303069:0:0:0:0:
192,192,301330,128,0,301547:0:0:0:0:
320,192,301547,128,0,301765:0:0:0:0:
64,192,301765,128,0,301982:0:0:0:0:
192,192,301873,1,0,0:0:0:0:
320,192,301982,128,0,302199:0:0:0:0:
192,192,302091,1,0,0:0:0:0:
64,192,302199,128,0,302417:0:0:0:0:
192,192,302308,1,0,0:0:0:0:
320,192,302417,128,0,302634:0:0:0:0:
192,192,302526,1,0,0:0:0:0:
64,192,302634,1,0,0:0:0:0:
192,192,302743,1,0,0:0:0:0:
64,192,302852,1,0,0:0:0:0:
192,192,302960,1,0,0:0:0:0:
320,192,303069,128,0,304808:0:0:0:0:
64,192,303069,128,0,303286:0:0:0:0:
448,192,303286,128,0,303504:0:0:0:0:
192,192,303504,128,0,303721:0:0:0:0:
64,192,303613,1,0,0:0:0:0:
448,192,303721,128,0,303939:0:0:0:0:
192,192,303830,1,0,0:0:0:0:
64,192,303939,128,0,304156:0:0:0:0:
192,192,304047,1,0,0:0:0:0:
448,192,304156,128,0,304373:0:0:0:0:
192,192,304265,1,0,0:0:0:0:
64,192,304373,1,0,0:0:0:0:
192,192,304482,1,0,0:0:0:0:
448,192,304591,1,0,0:0:0:0:
192,192,304699,1,0,0:0:0:0:
448,192,304808,128,0,306547:0:0:0:0:
64,192,304808,128,0,305026:0:0:0:0:
192,192,305026,128,0,305243:0:0:0:0:
64,192,305243,128,0,305460:0:0:0:0:
320,192,305460,128,0,305678:0:0:0:0:
192,192,305678,128,0,305895:0:0:0:0:
64,192,305786,1,0,0:0:0:0:
320,192,305895,1,0,0:0:0:0:
192,192,306004,1,0,0:0:0:0:
64,192,306113,1,0,0:0:0:0:
320,192,306221,1,0,0:0:0:0:
192,192,306330,1,0,0:0:0:0:
64,192,306439,1,0,0:0:0:0:
320,192,306547,128,0,308178:0:0:0:0:
192,192,306765,128,0,306982:0:0:0:0:
448,192,306982,128,0,308178:0:0:0:0:
64,192,307199,128,0,308178:0:0:0:0:
192,192,307417,128,0,308178:0:0:0:0:
448,192,308286,1,0,0:0:0:0:
192,192,308286,1,0,0:0:0:0:
64,192,308286,1,0,0:0:0:0:
320,192,308286,1,0,0:0:0:0:
192,192,308576,128,0,308721:0:0:0:0:
320,192,308613,1,0,0:0:0:0:
448,192,308721,1,0,0:0:0:0:
64,192,308830,1,0,0:0:0:0:
192,192,308866,128,0,309011:0:0:0:0:
448,192,308939,1,0,0:0:0:0:
64,192,309228,128,0,309301:0:0:0:0:
320,192,309265,1,0,0:0:0:0:
448,192,309373,1,0,0:0:0:0:
64,192,309446,128,0,309518:0:0:0:0:
320,192,309482,1,0,0:0:0:0:
448,192,309591,1,0,0:0:0:0:
192,192,309736,128,0,309881:0:0:0:0:
64,192,309808,1,0,0:0:0:0:
448,192,309917,1,0,0:0:0:0:
320,192,310098,128,0,310171:0:0:0:0:
64,192,310134,1,0,0:0:0:0:
192,192,310243,1,0,0:0:0:0:
320,192,310315,128,0,310460:0:0:0:0:
64,192,310352,1,0,0:0:0:0:
192,192,310460,1,0,0:0:0:0:
320,192,310605,128,0,310750:0:0:0:0:
64,192,310678,1,0,0:0:0:0:
192,192,310786,1,0,0:0:0:0:
448,192,310895,128,0,311040:0:0:0:0:
64,192,311004,1,0,0:0:0:0:
192,192,311113,1,0,0:0:0:0:
448,192,311185,128,0,311330:0:0:0:0:
64,192,311221,1,0,0:0:0:0:
192,192,311330,1,0,0:0:0:0:
448,192,311475,128,0,311620:0:0:0:0:
64,192,311547,1,0,0:0:0:0:
192,192,311656,1,0,0:0:0:0:
320,192,311765,128,0,311837:0:0:0:0:
64,192,311873,1,0,0:0:0:0:
320,192,311982,128,0,312127:0:0:0:0:
448,192,311982,1,0,0:0:0:0:
64,192,312091,1,0,0:0:0:0:
448,192,312199,1,0,0:0:0:0:
320,192,312344,128,0,312489:0:0:0:0:
64,192,312417,1,0,0:0:0:0:
448,192,312526,1,0,0:0:0:0:
192,192,312634,128,0,312707:0:0:0:0:
320,192,312743,1,0,0:0:0:0:
192,192,312852,128,0,312997:0:0:0:0:
448,192,312852,1,0,0:0:0:0:
320,192,312960,1,0,0:0:0:0:
448,192,313069,1,0,0:0:0:0:
192,192,313214,128,0,313359:0:0:0:0:
320,192,313286,1,0,0:0:0:0:
448,192,313395,1,0,0:0:0:0:
64,192,313504,128,0,313576:0:0:0:0:
448,192,313613,1,0,0:0:0:0:
64,192,313721,128,0,313866:0:0:0:0:
192,192,313721,1,0,0:0:0:0:
320,192,313830,1,0,0:0:0:0:
448,192,313939,1,0,0:0:0:0:
64,192,314011,128,0,314156:0:0:0:0:
320,192,314156,1,0,0:0:0:0:
448,192,314265,1,0,0:0:0:0:
192,192,314373,128,0,314446:0:0:0:0:
64,192,314482,1,0,0:0:0:0:
320,192,314591,128,0,314736:0:0:0:0:
448,192,314591,1,0,0:0:0:0:
64,192,314699,1,0,0:0:0:0:
192,192,314808,1,0,0:0:0:0:
448,192,314953,128,0,315098:0:0:0:0:
64,192,315026,1,0,0:0:0:0:
320,192,315134,1,0,0:0:0:0:
