osu file format v14

[General]
AudioFilename: BRAVE OUT.mp3
AudioLeadIn: 0
PreviewTime: 92162
Countdown: 0
SampleSet: Soft
StackLeniency: 0.2
Mode: 0
LetterboxInBreaks: 0
WidescreenStoryboard: 0

[Editor]
DistanceSpacing: 0.2
BeatDivisor: 4
GridSize: 4
TimelineZoom: 0.9

[Metadata]
Title:BRAVE OUT
TitleUnicode:BRAVE OUT
Artist:nomico / DOWNFORCE
ArtistUnicode:nomico / DOWNFORCE
Creator:yf_bmp
Version:rizia's Another
Source:beatmania IIDX 21 SPADA
Tags:Masayoshi Minoshima Alstroemeria Records electrance fanzhen0019 Gyro Zeppeli Rizia ZZHBOY [Emiria] LunaSaika Pata-Mon NeilPerry
BeatmapID:1146092
BeatmapSetID:332201

[Difficulty]
HPDrainRate:7
CircleSize:4.5
OverallDifficulty:7
ApproachRate:8
SliderMultiplier:1.4
SliderTickRate:1

[Events]
//Background and Video events
0,0,"BRAVE OUT.png",0,0
//Break Periods
//Storyboard Layer 0 (Background)
//Storyboard Layer 1 (Fail)
//Storyboard Layer 2 (Pass)
//Storyboard Layer 3 (Foreground)
//Storyboard Sound Samples

[TimingPoints]
262,400,4,2,0,70,1,0
24262,-76.9230769230769,4,2,0,70,0,0
25862,-147.058823529412,4,2,0,50,0,0
26662,-100,4,2,0,70,0,0
27062,-66.6666666666667,4,2,0,70,0,0
27462,-80,4,2,0,70,0,0
40262,-125,4,2,0,70,0,0
51662,-125,4,2,0,20,0,0
51762,-125,4,2,0,30,0,0
52462,-125,4,2,0,70,0,0
53062,-100,4,2,0,70,0,0
78662,-133.333333333333,4,2,0,70,0,0
85062,-66.6666666666667,4,2,0,70,0,0
89862,-100,4,2,0,70,0,0
89887,-100,4,2,1,20,0,0
90062,-100,4,2,0,30,0,0
90262,-100,4,2,1,40,0,0
90462,-100,4,2,0,50,0,0
90662,-100,4,2,1,60,0,0
90862,-125,4,2,0,70,0,0
91062,-125,4,2,1,80,0,0
91262,-125,4,2,1,20,0,0
91462,-100,4,2,1,80,0,0
91762,-100,4,2,0,40,0,0
92062,-100,4,2,0,20,0,0
92262,-50,4,2,0,70,0,0
93062,-80,4,2,0,80,0,1
105862,-50,4,2,0,80,0,1
112262,-80,4,2,0,80,0,1
115859,-80,4,2,0,70,0,1
118562,-80,4,2,0,70,0,0

[Colours]
Combo1 : 255,255,0
Combo2 : 255,128,192
Combo3 : 128,128,255
Combo4 : 128,255,128
Combo5 : 255,255,128
Combo6 : 255,0,255
Combo7 : 128,0,255
Combo8 : 0,255,64

[HitObjects]
120,68,1862,6,0,L|136:240,1,140,4|0,1:2|0:0,0:0:0:0:
216,172,2462,1,4,0:3:0:0:
300,140,2662,2,0,L|316:312,1,140,0|0,1:0|0:0,0:0:0:0:
396,244,3262,1,0,0:0:0:0:
476,204,3462,5,0,1:0:0:0:
476,204,4062,1,4,0:3:0:0:
372,324,4262,5,0,1:0:0:0:
388,176,4462,1,4,0:3:0:0:
508,268,4662,1,0,0:0:0:0:
508,268,4862,1,4,0:3:0:0:
324,248,5062,6,0,P|248:252|160:260,1,140,4|0,1:2|0:0,0:0:0:0:
112,312,5662,1,0,0:0:0:0:
32,272,5862,2,0,L|20:196,1,70,0|0,1:0|0:0,0:0:0:0:
52,116,6262,1,0,0:0:0:0:
52,116,6462,1,4,0:3:0:0:
192,168,6662,6,0,P|232:176|340:48,1,210,0|0,0:0|0:0,0:0:0:0:
232,64,7462,1,0,1:0:0:0:
232,64,7662,1,4,0:3:0:0:
356,36,7862,1,0,1:0:0:0:
356,36,7962,1,0,1:0:0:0:
356,36,8062,1,4,0:3:0:0:
444,124,8262,6,0,B|428:200|428:200|400:252|400:252|384:328,1,210,4|4,1:2|0:3,0:0:0:0:
304,368,9062,1,0,1:0:0:0:
116,232,9462,1,0,0:0:0:0:
180,180,9662,1,4,0:3:0:0:
196,264,9862,6,0,P|140:288|32:296,1,140,0|0,0:0|0:0,0:0:0:0:
62,298,10462,1,0,0:0:0:0:
40,120,10662,1,0,1:0:0:0:
92,204,10862,1,4,0:3:0:0:
196,80,11062,1,0,1:0:0:0:
188,176,11262,1,4,0:3:0:0:
100,40,11462,5,4,0:0:0:0:
376,104,12062,1,0,0:0:0:0:
376,104,12262,2,0,P|352:152|360:268,1,140,0|0,1:0|0:0,0:0:0:0:
444,188,12862,1,4,0:3:0:0:
360,260,13062,6,0,L|200:248,1,140,0|0,0:0|0:0,0:0:0:0:
124,240,13662,1,4,0:3:0:0:
164,328,13862,1,0,1:0:0:0:
44,360,14062,1,4,0:3:0:0:
8,240,14262,1,0,1:0:0:0:
8,240,14362,1,0,1:0:0:0:
8,240,14462,1,0,1:0:0:0:
128,208,14662,5,4,1:2:0:0:
356,284,15062,1,0,1:0:0:0:
291,356,15262,1,0,0:0:0:0:
255,265,15462,2,0,P|247:221|257:118,2,140,2|2|0,1:2|1:2|1:2,0:0:0:0:
449,72,16662,5,0,1:2:0:0:
384,144,16862,1,0,0:0:0:0:
485,163,17062,2,0,P|492:206|482:309,2,140,2|2|2,1:2|1:2|1:2,0:0:0:0:
240,48,18262,5,0,1:0:0:0:
332,80,18462,1,0,0:0:0:0:
260,144,18662,2,0,L|100:160,2,140,2|2|2,1:2|1:2|1:2,0:0:0:0:
240,48,19862,5,0,1:0:0:0:
260,144,20262,1,2,1:2:0:0:
280,240,20662,1,2,1:2:0:0:
300,336,21062,5,2,1:2:0:0:
300,336,21262,1,0,1:0:0:0:
212,308,21462,2,0,L|124:316,1,70,0|0,1:0|1:0,0:0:0:0:
280,240,21862,1,2,1:2:0:0:
344,168,22062,1,0,1:0:0:0:
296,84,22262,2,0,L|208:92,1,70,0|0,1:0|1:0,0:0:0:0:
64,136,22662,5,2,1:2:0:0:
64,136,22862,1,0,1:0:0:0:
124,276,23062,1,2,1:2:0:0:
124,276,23262,1,0,1:0:0:0:
256,168,23462,1,2,1:2:0:0:
256,168,23662,1,0,1:0:0:0:
388,276,23862,1,2,1:2:0:0:
388,276,24062,1,0,1:0:0:0:
448,136,24262,6,0,P|400:144|344:164,1,90.9999958343508,4|2,0:0|1:2,0:0:0:0:
328,0,24662,2,0,P|310:45|300:104,1,90.9999958343508,4|2,0:0|1:2,0:0:0:0:
184,0,25062,2,0,P|200:42|209:86,1,90.9999958343508,4|2,0:0|1:2,0:0:0:0:
64,136,25462,2,0,P|108:143|152:157,1,90.9999958343508,4|0,0:0|1:0,0:0:0:0:
332,256,25862,6,0,P|254:303|177:255,1,190.400001162109,0|2,3:0|3:2,0:0:0:0:
256,156,26862,1,0,3:2:0:0:
256,156,27062,2,0,L|256:224,2,52.5000020027161,2|2|2,3:2|0:1|3:1,0:0:0:0:
168,68,27462,6,0,L|56:80,1,87.5,4|2,1:2|0:1,0:0:0:0:
28,168,27862,2,0,P|40:232|44:284,1,87.5,2|0,1:0|0:0,0:0:0:0:
96,344,28262,2,0,L|226:330,1,131.25,2|2,1:0|0:1,0:0:0:0:
304,344,28662,2,0,B|344:325|344:325|412:340,1,87.5,0|2,0:0|0:1,0:0:0:0:
472,272,29062,5,2,1:0:0:0:
500,172,29262,1,2,0:1:0:0:
368,196,29462,1,2,1:0:0:0:
368,196,29562,1,0,0:0:0:0:
368,196,29662,1,0,0:0:0:0:
396,96,29862,1,2,1:0:0:0:
396,96,29962,1,0,0:0:0:0:
320,24,30162,1,2,1:1:0:0:
320,24,30262,1,0,0:0:0:0:
220,56,30462,1,2,1:1:0:0:
196,160,30662,6,0,L|208:264,1,87.5,2|2,1:0|0:1,0:0:0:0:
272,328,31062,2,0,P|225:352|177:347,1,87.5,2|0,1:0|0:0,0:0:0:0:
88,376,31462,2,0,P|56:344|72:240,1,131.25,2|2,1:0|0:1,0:0:0:0:
104,200,31862,2,0,L|112:92,1,87.5,0|2,0:0|0:1,0:0:0:0:
116,20,32262,5,2,1:0:0:0:
216,92,32462,1,2,0:0:0:0:
332,48,32662,1,2,1:0:0:0:
332,48,32762,1,0,0:0:0:0:
332,48,32862,1,0,0:0:0:0:
408,240,33062,5,0,1:0:0:0:
408,240,33162,1,0,1:0:0:0:
408,240,33262,1,4,0:3:0:0:
308,168,33462,1,2,1:0:0:0:
192,212,33662,1,2,0:0:0:0:
164,332,33862,6,0,P|120:352|56:336,1,87.5,4|2,0:0|0:1,0:0:0:0:
24,236,34262,2,0,P|68:256|132:240,1,87.5,2|0,1:0|0:0,0:0:0:0:
200,204,34662,2,0,P|240:180|340:192,1,131.25,2|2,1:0|0:1,0:0:0:0:
388,228,35062,2,0,L|400:332,1,87.5,0|2,0:0|0:1,0:0:0:0:
192,312,35462,5,2,1:0:0:0:
276,264,35662,1,2,0:1:0:0:
276,360,35862,1,2,1:0:0:0:
276,360,35962,1,0,0:0:0:0:
276,360,36062,1,0,0:0:0:0:
192,312,36262,1,2,1:0:0:0:
192,312,36362,1,0,0:0:0:0:
276,264,36562,1,2,0:1:0:0:
276,264,36662,1,0,0:0:0:0:
276,360,36862,1,2,0:1:0:0:
96,296,37062,6,0,L|0:312,1,87.5,4|2,0:0|1:0,0:0:0:0:
116,160,37462,2,0,L|212:176,1,87.5,4|0,0:0|1:0,0:0:0:0:
416,296,37862,2,0,L|502:310,1,87.5,4|0,0:0|1:0,0:0:0:0:
396,160,38262,2,0,L|309:174,1,87.5,4|2,0:0|1:0,0:0:0:0:
232,360,38662,5,4,1:2:0:0:
284,248,38862,1,0,1:0:0:0:
228,136,39062,1,4,1:2:0:0:
280,24,39262,1,0,1:0:0:0:
232,360,39462,5,0,1:0:0:0:
232,360,39562,1,0,1:0:0:0:
232,360,39662,1,0,1:0:0:0:
280,24,39862,1,0,1:0:0:0:
284,248,40062,1,4,0:3:0:0:
228,136,40262,6,0,P|284:148|388:88,1,168,4|0,1:2|0:0,0:0:0:0:
368,88,41062,2,0,L|376:216,1,112,0|2,1:0|0:0,0:0:0:0:
340,352,41862,2,0,P|284:364|180:304,1,168,2|0,1:2|0:0,0:0:0:0:
180,300,42662,1,0,1:0:0:0:
88,340,43062,1,2,1:2:0:0:
52,244,43462,6,0,P|44:200|120:108,1,168,2|0,1:2|0:0,0:0:0:0:
132,108,44262,2,0,L|248:120,2,112,2|4|2,1:2|0:3|0:2,0:0:0:0:
168,256,45362,1,0,1:0:0:0:
172,264,45462,2,0,L|241:271,1,56,0|0,1:0|1:0,0:0:0:0:
256,316,45762,5,0,1:0:0:0:
260,324,45862,1,2,1:2:0:0:
264,332,45962,2,0,L|333:339,1,56,0|0,1:0|1:0,0:0:0:0:
396,348,46262,5,2,1:2:0:0:
468,192,46462,1,0,1:0:0:0:
396,36,46662,6,0,P|348:80|352:196,1,168,6|0,1:2|0:0,0:0:0:0:
348,192,47462,2,0,L|228:184,1,112,2|0,1:2|0:0,0:0:0:0:
32,108,48262,6,0,P|68:52|176:72,1,168,2|0,1:2|0:0,0:0:0:0:
176,48,49062,1,2,1:2:0:0:
160,148,49462,1,0,0:0:0:0:
144,248,49862,5,0,1:0:0:0:
160,148,50262,1,0,1:0:0:0:
176,48,50662,1,0,1:0:0:0:
160,148,50862,1,0,1:0:0:0:
144,248,51062,1,0,1:0:0:0:
144,248,51162,1,0,1:0:0:0:
144,248,51262,1,0,1:0:0:0:
144,248,51462,6,0,P|200:252|152:151,1,224,4|0,0:0|0:0,0:0:0:0:
140,178,53062,6,0,L|144:248,1,70,4|0,0:0|0:0,0:0:0:0:
208,320,53462,1,8,1:0:0:0:
240,228,53662,1,2,0:0:0:0:
144,248,53862,1,0,1:0:0:0:
208,320,54062,1,2,0:0:0:0:
304,304,54262,2,0,P|344:292|392:300,1,70,8|2,1:0|0:0,0:0:0:0:
444,136,54662,5,0,1:0:0:0:
328,204,54862,1,2,0:0:0:0:
444,272,55062,1,8,1:0:0:0:
444,136,55262,1,2,0:0:0:0:
328,204,55462,2,0,L|232:196,1,70,0|0,1:0|0:0,0:0:0:0:
236,196,55762,1,0,1:0:0:0:
216,196,55862,1,8,1:0:0:0:
128,264,56062,1,0,1:0:0:0:
36,328,56262,6,0,P|16:292|24:208,1,105,0|0,1:0|0:0,0:0:0:0:
28,208,56662,2,0,L|96:184,1,70,8|2,1:0|0:0,0:0:0:0:
176,148,57062,1,0,1:0:0:0:
104,92,57262,2,0,P|56:88|12:84,2,70,2|8|2,0:0|1:0|0:2,0:0:0:0:
264,172,57862,6,0,P|312:168|356:164,1,70,2|0,1:2|1:0,0:0:0:0:
448,100,58262,1,8,1:0:0:0:
428,96,58362,1,0,1:0:0:0:
408,92,58462,1,0,1:0:0:0:
416,248,58662,1,2,1:2:0:0:
436,244,58762,1,0,1:0:0:0:
456,240,58862,1,0,1:0:0:0:
340,172,59062,2,0,P|292:168|248:164,1,70,8|0,1:0|1:0,0:0:0:0:
100,136,59462,6,0,P|93:213|87:284,1,140,4|8,1:2|1:0,0:0:0:0:
156,368,60062,6,0,P|188:348|244:352,1,70,2|0,0:0|1:0,0:0:0:0:
244,264,60462,2,0,P|277:281|301:332,1,70,2|8,0:0|1:0,0:0:0:0:
376,288,60862,6,0,P|377:325|345:372,1,70,2|0,0:0|1:0,0:0:0:0:
308,192,61262,2,0,P|340:172|396:176,1,70,2|8,0:0|1:0,0:0:0:0:
260,300,61662,2,0,P|226:282|202:231,1,70,2|0,0:0|1:0,0:0:0:0:
184,132,62062,2,0,P|190:94|230:55,1,70,0|8,0:0|1:0,0:0:0:0:
328,32,62462,1,2,1:2:0:0:
432,104,62662,6,0,P|400:136|296:152,2,140,2|8|0,1:2|1:0|1:0,0:0:0:0:
432,104,63662,2,0,L|420:204,1,70,2|8,0:0|1:0,0:0:0:0:
412,272,64062,1,2,0:0:0:0:
256,316,64262,5,0,1:0:0:0:
100,272,64462,1,0,0:0:0:0:
256,316,64662,1,8,1:0:0:0:
100,272,64862,1,2,0:0:0:0:
256,316,65062,5,0,1:0:0:0:
412,272,65262,1,0,1:0:0:0:
232,304,65462,1,8,1:0:0:0:
424,248,65662,1,0,1:0:0:0:
208,292,65862,5,0,1:0:0:0:
232,304,66062,1,4,1:2:0:0:
256,316,66262,2,0,L|112:328,1,140,4|2,0:0|1:2,0:0:0:0:
36,172,67062,1,8,1:0:0:0:
76,248,67262,2,0,L|215:236,1,140,2|2,0:0|0:0,0:0:0:0:
284,188,67862,6,0,P|248:156|204:152,1,70,8|2,1:0|0:0,0:0:0:0:
140,200,68262,2,0,P|130:247|148:287,1,70,0|2,1:0|0:0,0:0:0:0:
224,320,68662,2,0,P|269:304|295:268,1,70,8|0,1:0|1:0,0:0:0:0:
216,236,69062,5,0,1:0:0:0:
300,380,69262,1,2,0:0:0:0:
432,276,69462,2,0,L|512:268,1,70,4|0,1:2|0:0,0:0:0:0:
512,280,69862,2,0,L|372:293,1,140,0|8,1:0|1:0,0:0:0:0:
300,248,70462,2,0,P|278:200|298:99,1,140,2|2,0:0|0:0,0:0:0:0:
348,56,71062,6,0,L|417:49,1,70,8|2,1:0|0:0,0:0:0:0:
208,96,71462,1,0,1:0:0:0:
372,136,71662,1,2,1:2:0:0:
348,56,71862,1,8,1:0:0:0:
232,176,72062,1,0,1:0:0:0:
83,95,72262,6,0,P|23:121|25:186,1,140,0|8,1:0|1:0,0:0:0:0:
120,372,73062,2,0,P|180:346|178:281,1,140,0|8,1:0|1:0,0:0:0:0:
120,208,73662,1,2,0:0:0:0:
44,256,73862,6,0,P|40:296|60:348,1,70,0|2,1:0|0:0,0:0:0:0:
120,208,74262,2,0,P|128:164|112:64,2,140,8|0|8,1:0|1:0|1:0,0:0:0:0:
120,208,75462,5,2,1:2:0:0:
256,280,75662,2,0,L|336:272,2,70,0|8|0,1:0|1:0|1:0,0:0:0:0:
104,356,76262,2,0,L|173:349,1,70,0|2,1:0|0:0,0:0:0:0:
336,264,76662,2,0,L|266:270,1,70,8|2,1:0|0:0,0:0:0:0:
96,364,77062,6,0,L|165:357,1,70,2|0,1:2|1:0,0:0:0:0:
268,272,77462,2,0,P|268:228|248:188,1,70,8|0,1:0|1:0,0:0:0:0:
144,100,77862,1,2,1:2:0:0:
24,196,78062,1,0,1:0:0:0:
116,320,78262,1,2,1:2:0:0:
124,332,78362,1,0,1:0:0:0:
132,344,78462,1,0,1:0:0:0:
140,356,78562,1,0,1:0:0:0:
148,368,78662,6,0,P|228:364|312:352,1,157.500006008148,4|4,0:0|0:3,0:0:0:0:
376,300,79462,2,0,L|384:248,1,35.0000013351441,2|2,1:3|3:0,0:0:0:0:
388,236,79728,2,0,L|396:184,1,35.0000013351441,2|2,3:0|0:3,0:0:0:0:
400,172,79995,2,0,L|408:120,1,35.0000013351441,2|2,3:0|3:0,0:0:0:0:
408,108,80262,6,0,P|380:72|376:160,1,210.000008010865,0|0,1:0|1:0,0:0:0:0:
496,212,81262,2,0,P|436:224|372:244,1,105.000004005432,0|0,1:0|1:0,0:0:0:0:
288,320,81862,1,0,1:0:0:0:
152,280,82462,1,0,1:0:0:0:
288,320,82662,1,0,1:0:0:0:
276,236,82862,1,0,1:0:0:0:
264,152,83062,2,0,L|272:80,1,52.5000020027161,0|2,1:0|2:0,0:0:0:0:
140,8,83462,5,0,1:0:0:0:
152,96,83662,1,2,0:1:0:0:
281,187,83862,5,0,0:0:0:0:
269,99,84062,1,2,1:1:0:0:
128,0,84262,5,0,1:0:0:0:
140,88,84462,1,2,0:1:0:0:
293,195,84662,5,0,1:0:0:0:
293,195,84762,1,0,1:0:0:0:
293,195,84862,1,0,1:0:0:0:
280,108,85062,6,0,B|216:64|216:64|132:92,1,157.500006008148,4|0,1:2|0:0,0:0:0:0:
116,100,85462,2,0,L|132:-24,1,105.000004005432,4|0,1:2|0:0,0:0:0:0:
208,240,85862,6,0,P|172:292|76:260,1,157.500006008148,4|0,1:2|0:0,0:0:0:0:
68,260,86262,2,0,L|54:364,1,105.000004005432,4|0,1:2|0:0,0:0:0:0:
148,176,86662,6,0,P|200:152|284:196,1,157.500006008148,4|0,1:2|0:0,0:0:0:0:
308,192,87062,2,0,P|316:248|280:304,1,105.000004005432,4|0,1:2|0:0,0:0:0:0:
244,52,87462,6,0,L|372:40,1,105.000004005432,4|0,1:2|0:0,0:0:0:0:
416,92,87762,1,0,0:0:0:0:
440,108,87862,2,0,L|335:117,1,105.000004005432,4|0,1:2|0:0,0:0:0:0:
148,176,88262,5,0,1:0:0:0:
176,340,88462,1,0,1:0:0:0:
336,340,88662,1,0,1:0:0:0:
364,176,88862,1,0,1:0:0:0:
264,48,89062,5,0,1:0:0:0:
239,82,89162,1,0,1:0:0:0:
233,122,89262,1,0,1:0:0:0:
243,161,89362,1,0,1:0:0:0:
296,224,89462,5,0,1:0:0:0:
324,228,89562,1,0,1:0:0:0:
352,232,89662,1,0,1:0:0:0:
380,236,89762,1,0,1:0:0:0:
424,284,89862,6,0,B|352:232|352:232|316:288|248:276|248:276|204:308|204:308|124:256|36:292,1,420,2|0,0:0|0:0,0:0:0:0:
120,184,91462,6,0,B|108:128|108:128|128:68,2,105,8|8|8,0:0|0:0|0:0,0:0:0:0:
104,368,92262,6,0,P|136:356|170:348,1,70,0|0,1:0|0:0,0:0:0:0:
236,284,92462,2,0,P|203:272|169:264,1,70,0|0,1:0|0:0,0:0:0:0:
44,224,92662,5,0,1:0:0:0:
48,236,92762,1,0,1:0:0:0:
52,248,92862,1,0,1:0:0:0:
56,260,92962,1,0,1:0:0:0:
60,272,93062,1,4,1:0:0:0:
100,88,93262,5,2,0:1:0:0:
104,76,93362,1,0,0:0:0:0:
108,64,93462,2,0,B|148:46|148:46|209:65,1,87.5,0|0,1:0|0:0,0:0:0:0:
316,16,93862,2,0,L|296:180,1,131.25,2|2,1:1|0:1,0:0:0:0:
248,204,94262,2,0,L|234:318,1,87.5,0|2,1:0|0:1,0:0:0:0:
368,380,94662,5,4,1:2:0:0:
488,352,94862,1,2,0:1:0:0:
488,228,95062,1,0,1:0:0:0:
488,228,95162,1,2,0:1:0:0:
488,228,95262,1,0,0:0:0:0:
368,256,95462,2,0,L|428:304,1,43.75,2|0,1:1|0:0,0:0:0:0:
488,352,95662,1,2,0:0:0:0:
488,228,95862,1,0,1:0:0:0:
368,380,96062,2,0,L|333:352,1,43.75,2|2,0:1|0:0,0:0:0:0:
272,300,96262,5,4,1:2:0:0:
160,352,96462,1,2,0:1:0:0:
64,276,96662,2,0,L|48:200,2,43.75,0|2|0,1:0|0:1|0:0,0:0:0:0:
176,224,97062,5,2,1:1:0:0:
184,188,97162,1,0,0:0:0:0:
192,152,97262,1,2,0:0:0:0:
209,21,97462,1,0,1:0:0:0:
164,21,97562,1,2,0:0:0:0:
128,43,97662,1,2,0:1:0:0:
15,101,97862,6,0,P|38:138|76:160,1,87.5,2|0,1:1|0:0,0:0:0:0:
97,197,98162,1,2,0:0:0:0:
97,197,98262,2,0,L|205:185,1,87.5,2|0,1:1|0:0,0:0:0:0:
324,168,98662,2,0,P|336:220|328:280,1,87.5,2|0,1:1|0:0,0:0:0:0:
272,348,99062,2,0,L|204:336,1,43.75,0|2,1:0|0:1,0:0:0:0:
144,320,99262,2,0,L|156:252,1,43.75,0|0,1:0|0:0,0:0:0:0:
53,354,99462,6,0,L|228:340,1,175,4|0,1:1|1:0,0:0:0:0:
88,212,100062,1,0,0:0:0:0:
80,224,100162,1,2,0:0:0:0:
72,236,100262,2,0,L|159:243,1,87.5,2|2,1:1|0:0,0:0:0:0:
288,160,100662,2,0,L|296:88,2,43.75,0|2|2,1:0|0:0|0:1,0:0:0:0:
160,56,101062,6,0,P|116:52|76:68,1,87.5,4|2,1:2|0:1,0:0:0:0:
376,220,101462,2,0,P|392:168|380:112,1,87.5,0|0,1:0|0:0,0:0:0:0:
286,28,101862,2,0,L|292:116,1,87.5,2|2,1:1|0:0,0:0:0:0:
352,248,102262,2,0,L|346:335,1,87.5,0|2,1:0|0:1,0:0:0:0:
112,284,102662,5,4,1:2:0:0:
236,240,102862,1,2,0:1:0:0:
212,364,103062,1,0,1:0:0:0:
212,364,103162,1,2,0:1:0:0:
212,364,103262,1,0,0:0:0:0:
112,284,103462,5,2,1:1:0:0:
112,284,103562,1,0,0:0:0:0:
236,240,103762,1,2,0:1:0:0:
236,240,103862,1,0,1:0:0:0:
212,364,104062,1,2,0:1:0:0:
108,156,104262,6,0,L|96:48,1,87.5,4|2,1:2|0:1,0:0:0:0:
320,168,104662,2,0,P|272:212|180:212,1,131.25,2|0,1:1|0:0,0:0:0:0:
128,200,105062,5,2,1:0:0:0:
140,276,105162,1,0,1:0:0:0:
152,352,105262,1,0,1:0:0:0:
132,204,105462,5,2,1:0:0:0:
156,356,105662,1,4,0:3:0:0:
344,352,105862,6,0,B|387:332|387:332|408:288|368:232,1,140,4|0,1:2|0:0,0:0:0:0:
320,168,106162,2,0,B|276:187|276:187|256:232|296:288,1,140,4|0,1:2|0:0,0:0:0:0:
344,352,106462,1,4,1:2:0:0:
488,240,106662,5,0,1:0:0:0:
488,240,106762,1,0,1:0:0:0:
488,240,106862,1,0,1:0:0:0:
320,168,107062,1,4,1:2:0:0:
344,352,107262,1,0,1:0:0:0:
452,156,107462,6,0,B|492:96|492:96|464:12,1,140,4|0,1:2|0:0,0:0:0:0:
368,88,107762,2,0,L|380:248,1,140,4|0,1:2|0:0,0:0:0:0:
392,336,108062,5,4,1:2:0:0:
392,336,108262,1,4,1:2:0:0:
224,236,108462,5,0,1:0:0:0:
224,236,108662,2,0,L|212:328,1,70,4|0,1:2|1:0,0:0:0:0:
88,352,108862,1,0,1:0:0:0:
0,248,109062,6,0,B|56:204|56:204|140:224,1,140,4|0,1:2|0:0,0:0:0:0:
224,236,109362,2,0,L|192:92,1,140,4|0,1:2|0:0,0:0:0:0:
200,72,109662,1,4,1:2:0:0:
208,40,109762,1,0,1:0:0:0:
284,92,109862,6,0,P|317:82|356:76,1,70,4|0,1:2|1:0,0:0:0:0:
440,72,110062,2,0,P|405:77|371:87,1,70,0|0,1:0|0:0,0:0:0:0:
332,160,110262,1,4,1:2:0:0:
296,16,110462,1,0,1:0:0:0:
448,192,110662,6,0,B|459:225|459:225|449:258,1,70,4|2,1:2|0:0,0:0:0:0:
376,384,110862,2,0,B|365:351|365:351|374:317,1,70,0|2,0:0|0:0,0:0:0:0:
352,228,111062,5,2,1:3:0:0:
324,232,111162,1,2,1:3:0:0:
296,236,111262,1,2,1:3:0:0:
268,240,111362,1,2,1:3:0:0:
196,248,111462,5,0,1:0:0:0:
196,248,111662,1,0,1:0:0:0:
68,348,111862,5,0,1:0:0:0:
96,352,111962,1,0,1:0:0:0:
124,356,112062,1,0,1:0:0:0:
152,360,112162,1,0,1:0:0:0:
224,368,112262,5,4,1:0:0:0:
196,248,112462,1,2,0:0:0:0:
164,124,112662,1,0,1:0:0:0:
196,248,112862,1,2,0:0:0:0:
196,248,112962,1,0,0:0:0:0:
196,248,113062,2,0,L|304:260,1,87.5,4|2,1:2|0:0,0:0:0:0:
282,257,113362,1,2,0:0:0:0:
282,257,113462,1,0,1:0:0:0:
428,276,113662,1,2,0:0:0:0:
264,276,113862,6,0,L|177:266,1,87.5,4|0,1:1|0:0,0:0:0:0:
240,76,114262,2,0,L|230:162,1,87.5,4|0,1:2|0:0,0:0:0:0:
44,100,114662,2,0,L|130:109,1,87.5,4|0,1:2|0:0,0:0:0:0:
68,300,115062,2,0,L|77:213,1,87.5,4|0,1:2|0:0,0:0:0:0:
360,248,115462,5,4,1:2:0:0:
336,356,115662,1,0,1:0:0:0:
176,356,115862,1,4,1:2:0:0:
152,248,116062,1,0,1:0:0:0:
336,28,116262,5,4,1:2:0:0:
360,136,116462,1,0,1:0:0:0:
152,136,116662,1,4,1:2:0:0:
176,28,116862,1,0,1:0:0:0:
256,192,117062,5,0,1:0:0:0:
172,252,117262,1,0,1:0:0:0:
196,108,117462,1,0,1:0:0:0:
340,132,117662,1,0,1:0:0:0:
316,276,117862,5,0,1:0:0:0:
312,284,117962,1,0,1:0:0:0:
308,292,118062,1,2,1:2:0:0:
288,312,118162,5,0,1:0:0:0:
292,320,118262,1,2,1:2:0:0:
296,328,118362,1,0,1:0:0:0:
312,356,118462,5,2,1:2:0:0:
308,364,118562,1,2,3:2:0:0:
