osu file format v14

[General]
AudioFilename: BRAVE OUT.mp3
AudioLeadIn: 0
PreviewTime: 92162
Countdown: 0
SampleSet: Soft
StackLeniency: 0.2
Mode: 0
LetterboxInBreaks: 0
WidescreenStoryboard: 0

[Editor]
DistanceSpacing: 0.6
BeatDivisor: 4
GridSize: 4
TimelineZoom: 1.6

[Metadata]
Title:BRAVE OUT
TitleUnicode:BRAVE OUT
Artist:nomico / DOWNFORCE
ArtistUnicode:nomico / DOWNFORCE
Creator:yf_bmp
Version:fanzhen's Another
Source:beatmania IIDX 21 SPADA
Tags:Masayoshi Minoshima Alstroemeria Records electrance fanzhen0019 Gyro Zeppeli Rizia ZZHBOY [Emiria] LunaSaika Pata-Mon NeilPerry
BeatmapID:1138666
BeatmapSetID:332201

[Difficulty]
HPDrainRate:8
CircleSize:4.5
OverallDifficulty:8
ApproachRate:9
SliderMultiplier:1.6
SliderTickRate:1

[Events]
//Background and Video events
0,0,"BRAVE OUT.png",0,0
//Break Periods
//Storyboard Layer 0 (Background)
//Storyboard Layer 1 (Fail)
//Storyboard Layer 2 (Pass)
//Storyboard Layer 3 (Foreground)
//Storyboard Sound Samples

[TimingPoints]
262,400,4,2,0,70,1,0
1862,-133.333333333333,4,2,0,70,0,0
24262,-50,4,2,0,70,0,0
25862,-200,4,2,0,70,0,0
27462,-100,4,2,0,70,0,0
40262,-133.333333333333,4,2,0,70,0,0
51462,-50,4,2,0,70,0,0
51862,-200,4,2,0,70,0,0
53062,-100,4,2,0,70,0,0
78662,-133.333333333333,4,2,0,70,0,0
80662,-66.6666666666667,4,2,0,70,0,0
81262,-133.333333333333,4,2,0,70,0,0
82662,-66.6666666666667,4,2,0,70,0,0
83062,-133.333333333333,4,2,0,70,0,0
89862,-400,4,2,0,70,0,0
91762,-400,4,2,0,50,0,0
92062,-400,4,2,0,25,0,0
92262,-50,4,2,0,70,0,0
93062,-76.9230769230769,4,2,0,70,0,1
118562,-76.9230769230769,4,2,0,70,0,0

[Colours]
Combo1 : 255,192,98
Combo2 : 255,255,89
Combo3 : 255,139,83
Combo4 : 255,155,205

[HitObjects]
408,344,1062,5,0,0:0:0:0:
400,332,1462,1,0,0:0:0:0:
388,320,1862,2,0,P|384:264|484:204,1,180.000006866455
468,284,2662,5,0,1:0:0:0:
452,296,3062,1,0,0:0:0:0:
436,308,3462,2,0,L|256:296,1,180.000006866455
176,332,4262,5,0,1:0:0:0:
188,224,4462,1,0,0:0:0:0:
160,320,4662,1,0,0:0:0:0:
168,212,4862,1,0,0:0:0:0:
144,308,5062,2,0,P|84:356|12:288,1,180.000006866455,4|0,0:0|0:0,0:0:0:0:
56,236,5862,5,0,1:0:0:0:
68,244,6262,1,0,0:0:0:0:
80,256,6662,2,0,L|88:76,1,180.000006866455
80,68,7362,1,0,1:0:0:0:
68,64,7462,6,0,P|56:104|64:136,1,60.0000022888184,0|0,1:0|0:0,0:0:0:0:
168,52,7862,2,0,P|169:22|164:8,2,30.0000011444092,0|0|0,1:0|1:0|0:0,0:0:0:0:
156,144,8262,6,0,L|336:140,1,180.000006866455
396,192,9062,1,0,1:0:0:0:
408,176,9462,1,0,0:0:0:0:
424,160,9862,6,0,P|452:192|428:268,1,120.000004577637
272,276,10662,2,0,P|244:244|268:168,1,120.000004577637,0|0,1:0|1:0,0:0:0:0:
260,173,11262,1,0,0:0:0:0:
328,336,11462,6,0,B|240:372|240:316|144:348,1,180.000006866455,4|0,1:2|0:0,0:0:0:0:
72,268,12262,1,0,1:0:0:0:
172,224,12462,1,0,0:0:0:0:
64,248,12662,1,0,0:0:0:0:
180,244,12862,1,0,1:0:0:0:
56,228,13062,2,0,L|44:368,1,120.000004577637
112,176,13662,5,0,0:0:0:0:
116,160,13762,1,0,0:0:0:0:
120,144,13862,1,0,1:0:0:0:
208,128,14062,1,0,0:0:0:0:
48,96,14262,5,0,1:0:0:0:
44,112,14362,1,0,1:0:0:0:
40,128,14462,1,0,0:0:0:0:
140,76,14662,6,0,P|112:28|80:16,1,90.0000034332277,4|0,1:2|0:0,0:0:0:0:
72,24,15062,2,0,L|168:28,1,90.0000034332277,0|0,1:0|0:0,0:0:0:0:
152,36,15462,2,0,P|184:48|208:40,1,60.0000022888184,0|0,1:0|0:0,0:0:0:0:
280,88,15862,2,0,P|312:76|336:84,1,60.0000022888184,0|0,1:0|1:0,0:0:0:0:
424,68,16262,6,0,L|416:180,1,90.0000034332277,0|0,1:0|0:0,0:0:0:0:
408,164,16662,2,0,P|428:204|400:252,1,90.0000034332277,0|0,1:0|0:0,0:0:0:0:
400,248,17062,2,0,L|340:244,1,60.0000022888184,2|2,1:2|1:2,0:0:0:0:
264,208,17462,2,0,L|260:268,1,60.0000022888184,2|2,1:2|1:2,0:0:0:0:
252,276,17762,1,0,0:0:0:0:
244,284,17862,6,0,B|272:320|272:320|232:368,1,90.0000034332277,0|0,1:0|0:0,0:0:0:0:
232,348,18262,2,0,L|132:356,1,90.0000034332277,0|0,1:0|0:0,0:0:0:0:
132,352,18662,2,0,P|112:320|112:292,1,60.0000022888184,0|0,1:0|0:0,0:0:0:0:
56,208,19062,2,0,P|52:237|34:261,1,60.0000022888184,0|0,1:0|1:0,0:0:0:0:
136,216,19462,6,0,L|240:208,1,90.0000034332277,0|0,1:0|0:0,0:0:0:0:
236,200,19862,2,0,P|292:228|332:208,1,90.0000034332277,0|0,1:0|0:0,0:0:0:0:
320,212,20262,2,0,L|392:208,1,60.0000022888184,0|0,1:0|0:0,0:0:0:0:
504,260,20662,2,0,L|432:256,1,60.0000022888184,0|0,1:0|0:0,0:0:0:0:
304,128,21062,5,0,1:0:0:0:
312,56,21262,1,0,1:0:0:0:
384,64,21462,1,0,1:0:0:0:
376,136,21662,1,0,1:0:0:0:
297,121,21862,5,0,1:0:0:0:
318,48,22062,1,0,1:0:0:0:
391,69,22262,1,0,1:0:0:0:
370,143,22462,1,0,1:0:0:0:
293,115,22662,5,0,1:0:0:0:
328,42,22862,1,0,1:0:0:0:
401,77,23062,1,0,1:0:0:0:
366,152,23262,1,0,1:0:0:0:
291,105,23462,5,0,1:0:0:0:
343,31,23662,1,0,1:0:0:0:
417,84,23862,1,0,1:0:0:0:
363,158,24062,1,0,1:0:0:0:
208,136,24262,6,0,L|40:128,1,160,4|0,0:0|1:0,0:0:0:0:
48,144,24662,6,0,L|207:151,1,160,4|0,0:0|1:0,0:0:0:0:
208,136,25062,6,0,L|40:128,1,160,4|0,0:0|1:0,0:0:0:0:
48,144,25462,6,0,L|207:151,1,160,4|0,0:0|1:0,0:0:0:0:
284,316,25862,5,0,3:0:0:0:
280,324,25962,1,0,3:0:0:0:
276,332,26062,1,0,3:0:0:0:
272,340,26162,1,0,3:0:0:0:
268,348,26262,2,0,L|220:352,1,40,2|2,3:2|3:2,0:0:0:0:
84,332,26662,5,0,0:0:0:0:
91,331,26762,1,0,0:0:0:0:
98,330,26862,1,2,0:3:0:0:
105,329,26962,1,0,0:0:0:0:
112,328,27062,5,8,3:0:0:0:
84,332,27162,1,8,3:0:0:0:
56,327,27262,1,4,3:0:0:0:
32,311,27362,1,4,3:0:0:0:
16,257,27462,5,4,1:2:0:0:
72,120,27662,1,2,0:1:0:0:
72,120,27862,2,0,L|76:208,1,80,2|0,1:1|0:0,0:0:0:0:
208,116,28262,6,2,P|244:88|256:48,1,80,2|0,1:1|0:0,0:1:0:0:
179,47,28562,2,0,P|182:86|208:116,1,80,2|0,0:1|0:0,0:0:0:0:
255,56,28862,1,2,0:1:0:0:
332,136,29062,5,0,1:0:0:0:
428,76,29262,1,2,0:1:0:0:
428,76,29462,2,0,L|512:68,1,80,2|0,1:1|0:0,0:0:0:0:
432,200,29862,6,2,L|416:280,1,80,2|0,1:1|0:0,0:1:0:0:
456,348,30162,2,0,L|416:278,1,80,2|0,1:1|0:0,0:0:0:0:
316,296,30462,1,2,1:1:0:0:
416,278,30662,5,0,1:0:0:0:
316,296,30862,1,2,0:1:0:0:
316,296,31062,2,0,L|224:292,1,80,2|0,1:1|0:0,0:0:0:0:
132,256,31462,2,2,P|91:258|56:304,1,80,2|0,1:1|0:0,0:0:0:0:
127,331,31762,2,2,P|141:294|132:256,1,80,2|0,0:1|0:0,0:1:0:0:
63,283,32062,1,2,0:1:0:0:
44,172,32262,5,0,1:0:0:0:
144,124,32462,1,2,0:1:0:0:
144,124,32662,2,0,L|136:28,1,80,2|0,1:0|0:0,0:0:0:0:
16,80,33062,6,0,L|64:96,1,40,2|0,1:0|1:0,0:0:0:0:
144,124,33262,1,2,1:0:0:0:
260,60,33462,1,0,0:0:0:0:
144,124,33662,1,2,1:0:0:0:
376,108,33862,5,0,0:0:0:0:
512,144,34062,1,2,0:1:0:0:
512,144,34262,2,0,P|476:168|436:168,1,80,2|0,1:0|0:0,0:0:0:0:
304,164,34662,2,0,P|264:176|248:212,1,80,2|0,1:0|0:0,0:0:0:0:
175,227,34962,2,0,P|208:206|248:208,1,80,2|0,0:1|0:0,0:0:0:0:
364,224,35262,1,2,0:1:0:0:
188,312,35462,5,0,1:0:0:0:
304,312,35662,1,2,0:1:0:0:
304,312,35862,2,0,P|344:336|388:332,1,80,2|0,1:1|0:0,0:0:0:0:
464,244,36262,2,0,L|440:168,1,80,2|0,0:1|0:0,0:0:0:0:
488,104,36562,2,0,L|439:167,1,80,2|0,0:1|0:0,0:0:0:0:
348,152,36862,1,2,0:1:0:0:
300,52,37062,5,4,0:0:0:0:
112,64,37262,1,0,1:0:0:0:
52,104,37462,5,4,0:0:0:0:
240,92,37662,1,0,1:0:0:0:
300,52,37862,5,4,0:0:0:0:
112,64,38062,1,0,1:0:0:0:
52,104,38262,5,4,0:0:0:0:
240,92,38462,1,0,1:0:0:0:
300,52,38662,5,4,0:0:0:0:
112,64,38862,1,4,0:0:0:0:
124,232,39062,1,4,0:0:0:0:
312,220,39262,1,4,0:0:0:0:
388,104,39462,5,4,0:0:0:0:
392,116,39562,1,4,0:0:0:0:
396,128,39662,1,0,1:0:0:0:
300,52,39862,1,4,0:0:0:0:
396,128,40062,1,0,1:0:0:0:
312,220,40262,6,0,P|256:236|204:200,1,120.000004577637,4|0,1:0|0:0,0:0:0:0:
206,204,40862,1,0,1:0:0:0:
84,352,41062,5,0,1:0:0:0:
96,336,41462,1,0,0:0:0:0:
108,320,41862,2,0,P|164:336|216:300,1,120.000004577637,0|0,1:0|0:0,0:0:0:0:
213,304,42462,1,0,1:0:0:0:
320,352,42662,5,0,1:0:0:0:
340,344,43062,1,0,1:0:0:0:
360,336,43462,2,0,P|412:336|456:384,1,120.000004577637,0|0,1:0|0:0,0:0:0:0:
455,383,44062,1,0,1:0:0:0:
484,216,44262,5,0,1:0:0:0:
480,232,44662,1,0,1:0:0:0:
476,248,45062,2,0,L|468:144,1,90.0000034332277,0|0,1:0|1:0,0:0:0:0:
456,152,45462,2,0,P|448:112|464:80,1,60.0000022888184,0|0,1:0|1:0,0:0:0:0:
464,88,45762,1,0,1:0:0:0:
480,88,45862,6,0,L|484:48,1,30.0000011444092,0|0,1:0|0:0,0:0:0:0:
348,144,46162,1,0,1:0:0:0:
364,144,46262,6,0,L|368:76,1,60.0000022888184,0|0,1:0|1:0,0:0:0:0:
236,44,46662,6,0,P|212:96|228:156,1,120.000004577637,4|0,1:2|0:0,0:0:0:0:
227,154,47262,1,0,1:0:0:0:
152,188,47462,2,0,L|16:192,1,120.000004577637,0|0,1:0|0:0,0:0:0:0:
276,340,48262,6,0,P|300:288|284:228,1,120.000004577637,0|0,1:0|0:0,0:0:0:0:
284,229,48862,1,0,1:0:0:0:
360,196,49062,2,0,L|496:192,1,120.000004577637,0|0,1:0|1:0,0:0:0:0:
328,96,49862,5,0,1:0:0:0:
184,288,50262,1,0,1:0:0:0:
360,196,50662,5,2,1:3:0:0:
256,192,50862,1,2,1:3:0:0:
152,188,51062,1,2,1:3:0:0:
152,188,51162,1,2,1:3:0:0:
152,188,51262,1,0,1:0:0:0:
28,212,51462,6,0,L|40:376,1,160,4|0,0:0|0:0,0:0:0:0:
64,292,51862,6,0,P|96:280|128:364,1,140
220,308,52662,5,0,3:0:0:0:
216,336,52762,1,0,3:0:0:0:
212,364,52862,1,0,3:0:0:0:
304,352,53062,6,0,L|384:360,1,80,4|0,0:0|0:0,0:0:0:0:
492,208,53462,2,0,L|404:216,1,80,8|0,1:0|0:0,0:0:0:0:
344,248,53862,2,0,P|296:196|304:124,1,120,0|0,1:0|0:0,0:0:0:0:
276,156,54262,2,0,P|268:100|280:76,1,80,8|0,1:0|0:0,0:0:0:0:
352,48,54662,5,0,1:0:0:0:
496,104,54862,2,0,L|404:96,1,80,0|8,0:0|1:0,0:0:0:0:
276,156,55262,1,0,0:0:0:0:
192,104,55462,2,0,P|128:100|76:132,1,120,0|0,1:0|1:0,0:0:0:0:
72,144,55862,1,8,1:0:0:0:
104,32,56062,1,0,1:0:0:0:
192,104,56262,6,0,P|194:147|192:192,1,80,0|0,1:0|0:0,0:0:0:0:
72,224,56662,2,0,P|69:180|72:136,1,80,8|0,1:0|0:0,0:0:0:0:
256,264,57062,2,0,P|204:280|128:260,1,120,0|0,1:0|0:0,0:0:0:0:
125,274,57462,2,0,P|89:262|73:218,1,80,8|0,1:0|0:0,0:0:0:0:
40,340,57862,5,2,1:2:0:0:
56,352,57962,1,0,0:0:0:0:
72,364,58062,2,0,L|164:352,1,80,2|8,1:2|1:0,0:0:0:0:
168,368,58362,1,0,0:0:0:0:
184,380,58462,2,0,L|276:368,1,80,2|2,0:2|1:2,0:0:0:0:
328,332,58762,6,0,L|336:384,1,40,0|0,1:0|0:0,0:0:0:0:
492,260,59062,1,8,1:0:0:0:
448,376,59262,1,0,1:0:0:0:
372,220,59462,6,0,P|360:168|368:144,1,80,4|0,1:2|0:0,0:0:0:0:
464,24,59862,1,8,1:0:0:0:
432,96,60062,2,0,P|380:112|308:76,1,120,2|0,0:0|0:0,0:0:0:0:
308,72,60462,6,0,P|256:60|224:76,1,80,0|8,0:0|1:0,0:0:0:0:
40,96,60862,1,0,0:0:0:0:
112,136,61062,6,0,L|212:136,1,80,0|0,1:0|0:0,0:0:0:0:
232,224,61462,2,0,L|152:224,1,80,8|0,1:0|0:0,0:0:0:0:
76,212,61862,2,0,P|32:248|40:328,1,120,0|0,1:0|0:0,0:0:0:0:
48,300,62262,2,0,P|28:332|40:372,1,80,8|0,1:0|0:0,0:0:0:0:
120,344,62662,6,0,P|158:346|200:328,1,80,0|0,1:0|0:0,0:0:0:0:
340,316,63062,1,8,1:0:0:0:
260,264,63262,1,0,0:0:0:0:
260,264,63362,1,0,0:0:0:0:
260,264,63462,2,0,L|280:384,1,120,0|0,1:0|0:0,0:0:0:0:
296,372,63862,2,0,P|348:368|384:388,1,80,8|0,1:0|0:0,0:0:0:0:
468,240,64262,5,0,1:0:0:0:
368,212,64462,1,0,0:0:0:0:
396,112,64662,1,8,1:0:0:0:
496,140,64862,1,0,0:0:0:0:
468,240,65062,6,0,P|417:226|328:240,1,120,0|0,1:0|1:0,0:0:0:0:
368,212,65462,1,8,1:0:0:0:
268,188,65662,1,0,1:0:0:0:
496,140,65862,5,0,1:2:0:0:
268,188,66062,1,4,1:2:0:0:
40,236,66262,2,0,P|20:196|24:160,1,80,4|0,1:2|0:0,0:0:0:0:
96,184,66662,6,0,P|116:232|88:300,1,120,0|0,1:0|0:0,0:0:0:0:
112,304,67062,2,0,P|80:320|32:312,1,80,8|0,1:0|0:0,0:0:0:0:
208,336,67462,5,0,1:0:0:0:
296,292,67662,1,0,0:0:0:0:
296,292,67862,2,8,P|312:240|304:208,1,80,8|0,1:0|0:0,0:0:0:0:
240,156,68262,2,0,L|364:164,1,120,0|0,1:0|0:0,0:0:0:0:
376,172,68662,2,0,P|420:156|432:128,1,80,8|0,1:0|0:0,0:0:0:0:
456,44,69062,5,0,1:0:0:0:
328,32,69262,1,0,0:0:0:0:
328,32,69462,2,0,P|312:76|324:112,1,80,8|0,1:0|0:0,0:0:0:0:
236,64,69862,2,0,L|112:68,1,120,0|0,1:0|0:0,0:0:0:0:
96,60,70262,2,0,P|56:76|40:112,1,80,8|0,1:0|0:0,0:0:0:0:
124,160,70662,5,2,1:2:0:0:
112,176,70762,1,0,0:0:0:0:
100,192,70862,2,0,L|116:276,1,80,2|8,0:2|1:0,0:0:0:0:
100,284,71162,1,0,0:0:0:0:
88,300,71262,2,0,L|104:384,1,80,2|2,0:2|1:2,0:0:0:0:
20,356,71662,1,0,0:0:0:0:
172,356,71862,5,8,1:0:0:0:
268,244,72062,1,2,1:2:0:0:
312,380,72262,1,0,1:0:0:0:
256,324,72462,5,0,0:0:0:0:
256,324,72662,2,0,P|296:304|340:308,1,80,8|0,1:0|0:0,0:0:0:0:
396,360,73062,2,0,P|448:340|480:276,1,120,0|0,1:0|0:0,0:0:0:0:
464,272,73462,2,0,P|448:228|456:192,1,80,8|0,1:0|0:0,0:0:0:0:
464,72,73862,6,0,P|424:88|396:132,1,80,0|0,1:0|0:0,0:0:0:0:
312,8,74262,2,0,P|284:48|256:56,1,80,8|0,1:0|0:0,0:0:0:0:
196,8,74662,2,0,P|132:48|116:100,1,120,0|0,1:0|0:0,0:0:0:0:
110,116,75062,2,0,P|85:85|48:72,1,80,8|0,1:0|0:0,0:0:0:0:
36,196,75462,5,0,1:0:0:0:
132,192,75662,1,0,0:0:0:0:
132,192,75862,2,0,L|216:188,1,80,8|0,1:0|0:0,0:0:0:0:
406,199,76262,2,0,L|284:204,1,120,0|0,1:0|0:0,0:0:0:0:
280,224,76662,2,0,L|364:220,1,80,8|0,1:0|0:0,0:0:0:0:
479,214,77062,5,0,1:0:0:0:
456,304,77262,1,0,0:0:0:0:
364,352,77462,2,0,P|320:360|284:344,1,80,8|0,1:0|0:0,0:0:0:0:
216,292,77862,2,0,L|88:304,1,120,0|0,1:0|0:0,0:0:0:0:
20,312,78262,5,2,1:3:0:0:
28,264,78362,1,2,1:3:0:0:
36,216,78462,1,2,1:3:0:0:
44,168,78562,1,2,1:3:0:0:
28,100,78662,6,0,B|60:112|60:112|156:100,1,120.000004577637,4|0,1:2|0:0,0:0:0:0:
145,101,79262,1,0,1:0:0:0:
248,28,79462,6,0,P|268:24|292:32,1,40.000001525879,8|0,1:0|0:0,0:0:0:0:
336,88,79728,2,0,P|340:108|332:132,1,40.000001525879
276,184,79995,2,0,P|256:188|232:180,1,40.000001525879
168,204,80262,6,0,L|68:204,1,90.0000034332277,0|0,1:0|0:0,0:0:0:0:
64,188,80662,6,0,P|28:244|112:300,1,180.000006866455
112,288,81062,1,8,1:0:0:0:
248,360,81262,6,0,B|219:340|192:336|192:336|164:340|139:360,1,120.000004577637,0|0,1:0|1:0,0:0:0:0:
272,288,81862,6,0,B|308:304|308:304|392:288,1,120.000004577637,0|0,1:0|0:0,0:0:0:0:
387,288,82462,1,0,1:0:0:0:
488,216,82662,6,0,L|496:152,1,60.0000022888184,8|0,1:0|0:0,0:0:0:0:
400,204,82862,2,0,L|408:140,1,60.0000022888184,8|0,1:0|0:0,0:0:0:0:
312,196,83062,2,0,L|326:91,1,90.0000034332277,0|0,1:0|0:0,0:0:0:0:
328,84,83462,6,0,P|280:100|240:68,1,90.0000034332277,0|0,1:0|0:0,0:0:0:0:
260,88,83862,2,0,P|212:104|172:72,1,90.0000034332277,0|0,1:0|0:0,0:0:0:0:
196,92,84262,5,8,1:0:0:0:
48,156,84462,1,0,1:0:0:0:
192,208,84662,2,0,L|144:236,1,30.0000011444092,8|8,1:0|1:0,0:0:0:0:
64,284,84862,1,0,1:0:0:0:
160,360,85062,6,0,P|204:364|240:340,1,90.0000034332277,4|0,1:2|0:0,0:0:0:0:
320,360,85462,2,0,P|324:316|300:280,1,90.0000034332277,4|0,1:2|0:0,0:0:0:0:
320,200,85862,2,0,P|276:196|240:220,1,90.0000034332277,4|0,1:2|0:0,0:0:0:0:
160,200,86262,2,0,P|156:244|180:280,1,90.0000034332277,4|0,1:2|0:0,0:0:0:0:
320,360,86662,6,0,P|360:336|376:292,1,90.0000034332277,4|0,1:2|0:0,0:0:0:0:
472,256,87062,2,0,P|448:216|404:200,1,90.0000034332277,4|0,1:2|0:0,0:0:0:0:
360,100,87462,2,0,P|320:124|304:168,1,90.0000034332277,4|0,1:2|0:0,0:0:0:0:
208,204,87862,2,0,P|232:244|276:260,1,90.0000034332277,4|0,1:2|0:0,0:0:0:0:
472,256,88262,5,0,1:0:0:0:
500,72,88462,1,0,1:0:0:0:
296,44,88662,1,0,1:0:0:0:
268,228,88862,1,0,1:0:0:0:
384,184,89062,5,0,1:0:0:0:
388,164,89162,1,0,1:0:0:0:
324,136,89262,5,0,1:0:0:0:
328,116,89362,1,0,1:0:0:0:
248,152,89462,5,0,1:0:0:0:
252,132,89562,1,0,1:0:0:0:
188,104,89662,5,0,1:0:0:0:
192,84,89762,1,0,1:0:0:0:
120,124,89862,6,0,P|100:48|52:60,1,140,2|0,0:0|0:0,0:0:0:0:
32,144,91462,5,8,0:0:0:0:
56,172,91762,1,8,0:0:0:0:
60,184,92062,1,8,0:0:0:0:
40,280,92262,6,0,P|32:320|48:360,1,80,0|0,1:0|0:0,0:0:0:0:
216,344,92462,2,0,P|224:304|208:264,1,80,0|0,1:0|0:0,0:0:0:0:
132,240,92662,1,0,1:0:0:0:
124,272,92762,1,0,1:0:0:0:
124,304,92862,1,0,1:0:0:0:
136,336,92962,1,0,1:0:0:0:
216,344,93062,6,0,L|324:348,1,103.999995239258,6|2,1:2|0:1,0:0:0:0:
340,356,93362,1,0,0:0:0:0:
416,340,93462,2,0,P|440:300|432:244,1,103.999995239258,2|0,1:0|0:0,0:0:0:0:
416,232,93762,1,0,0:0:0:0:
372,172,93862,6,0,B|392:68|392:68|444:132,1,155.999992858887,2|2,1:0|0:1,0:0:0:0:
484,68,94262,2,0,P|492:132|460:172,1,103.999995239258,0|2,1:0|0:1,0:0:0:0:
308,116,94662,6,0,L|192:108,1,103.999995239258,0|2,1:0|0:1,0:0:0:0:
188,96,94962,1,0,0:0:0:0:
112,88,95062,2,0,P|76:124|80:184,1,103.999995239258,2|0,1:0|0:0,0:0:0:0:
84,192,95362,1,0,0:0:0:0:
56,264,95462,6,0,L|116:268,1,51.999997619629,2|0,1:1|0:0,0:0:0:0:
184,312,95662,2,0,L|244:316,1,51.999997619629,0|2,0:0|0:1,0:0:0:0:
180,364,95862,2,0,L|184:304,1,51.999997619629,0|0,1:0|0:0,0:0:0:0:
228,236,96062,2,0,L|232:176,1,51.999997619629,2|0,0:1|0:0,0:0:0:0:
280,120,96262,6,0,P|332:104|384:128,1,103.999995239258,0|2,1:0|0:1,0:0:0:0:
388,140,96562,1,0,0:0:0:0:
472,156,96662,2,0,L|464:264,1,103.999995239258,2|0,1:1|0:0,0:0:0:0:
448,272,96962,1,0,0:0:0:0:
380,316,97062,6,0,B|356:372|356:372|316:280,1,155.999992858887,2|2,1:1|0:1,0:0:0:0:
336,292,97462,2,0,P|304:336|260:328,1,103.999995239258,0|2,1:1|0:1,0:0:0:0:
184,256,97862,6,0,L|80:260,1,103.999995239258,0|2,1:0|0:1,0:0:0:0:
68,276,98162,1,0,0:0:0:0:
16,208,98262,2,0,P|8:156|64:116,1,103.999995239258,2|0,1:1|0:0,0:0:0:0:
60,132,98562,1,0,0:0:0:0:
132,92,98662,6,0,B|208:124|208:124|292:104,1,155.999992858887,2|2,1:1|0:1,0:0:0:0:
300,100,99062,1,0,1:0:0:0:
220,36,99262,1,2,0:1:0:0:
300,100,99462,6,0,L|416:96,1,103.999995239258,4|2,1:2|0:1,0:0:0:0:
420,108,99762,1,0,0:0:0:0:
500,120,99862,2,0,P|512:168|484:224,1,103.999995239258,2|0,1:1|0:0,0:0:0:0:
472,224,100162,1,0,0:0:0:0:
416,276,100262,6,0,B|376:236|376:236|368:340,1,155.999992858887,2|2,1:1|0:1,0:0:0:0:
384,348,100662,2,0,P|336:376|296:356,1,103.999995239258,0|2,1:0|0:1,0:0:0:0:
40,304,101062,6,0,P|96:276|144:296,1,103.999995239258,0|2,1:0|0:1,0:0:0:0:
148,300,101362,1,0,0:0:0:0:
204,360,101462,6,0,P|232:304|212:256,1,103.999995239258,2|0,1:1|0:0,0:0:0:0:
208,252,101762,1,0,0:0:0:0:
188,176,101862,6,0,P|132:204|84:184,1,103.999995239258,2|0,1:1|0:0,0:0:0:0:
80,180,102162,1,2,0:1:0:0:
24,120,102262,6,0,P|-4:176|16:224,1,103.999995239258,0|2,1:0|0:1,0:0:0:0:
20,228,102562,1,0,0:0:0:0:
80,180,102662,6,0,P|123:153|172:163,1,103.999995239258,0|2,1:0|0:1,0:0:0:0:
187,176,102962,1,0,0:0:0:0:
264,156,103062,2,0,P|272:120|264:96,1,51.999997619629,2|0,1:1|0:0,0:0:0:0:
336,64,103262,2,0,P|328:28|336:4,1,51.999997619629
420,80,103462,6,0,L|416:192,1,103.999995239258,2|0,1:1|0:0,0:0:0:0:
336,224,103862,2,0,L|340:336,1,103.999995239258,2|0,1:0|0:0,0:0:0:0:
332,348,104162,1,2,0:0:0:0:
420,356,104262,6,0,B|484:312|484:312|392:296,1,155.999992858887,2|2,1:1|0:1,0:0:0:0:
388,288,104662,2,0,P|333:266|280:288,1,103.999995239258,0|2,1:0|0:1,0:0:0:0:
72,200,105062,6,0,L|80:260,1,51.999997619629,0|0,1:0|1:0,0:0:0:0:
92,332,105262,1,0,1:0:0:0:
208,204,105462,1,0,1:0:0:0:
92,332,105662,1,0,1:0:0:0:
60,84,105862,6,0,B|140:82|140:82|116:104,1,103.999995239258,4|0,1:2|0:0,0:0:0:0:
252,28,106162,2,0,B|212:98|212:98|206:66,1,103.999995239258,4|0,1:2|0:0,0:0:0:0:
208,204,106462,1,4,1:2:0:0:
52,204,106662,6,0,L|108:204,1,51.999997619629,2|0,1:1|1:0,0:0:0:0:
208,204,106862,1,0,1:0:0:0:
348,204,107062,2,0,L|504:204,1,155.999992858887,2|0,1:1|0:0,0:0:0:0:
496,324,107462,6,0,B|415:325|415:325|440:304,1,103.999995239258,4|0,1:2|0:0,0:0:0:0:
304,380,107762,2,0,B|343:309|343:309|349:341,1,103.999995239258,4|0,1:2|0:0,1:0:0:0:
348,204,108062,1,4,1:2:0:0:
348,204,108262,5,2,1:1:0:0:
328,36,108462,1,0,1:0:0:0:
328,36,108662,2,0,L|336:104,1,51.999997619629,2|0,1:1|1:0,0:0:0:0:
348,204,108862,1,0,1:0:0:0:
24,312,109062,6,0,B|104:313|104:313|80:292,1,103.999995239258,4|0,1:2|0:0,0:0:0:0:
216,368,109362,2,0,B|176:297|176:297|170:329,1,103.999995239258,4|0,1:2|0:0,0:0:0:0:
172,192,109662,2,0,L|136:244,1,51.999997619629,4|0,1:2|1:2,0:0:0:0:
24,312,109862,5,2,1:1:0:0:
216,368,110062,1,2,1:1:0:0:
172,192,110262,2,0,P|128:248|148:336,1,155.999992858887,2|0,1:1|0:0,0:0:0:0:
216,368,110662,5,0,1:0:0:0:
296,272,110862,1,0,1:0:0:0:
172,192,111062,2,0,L|224:168,1,51.999997619629,0|0,1:0|1:0,0:0:0:0:
340,72,111262,2,0,L|288:48,1,51.999997619629,0|0,1:0|1:0,0:0:0:0:
144,8,111462,5,0,1:0:0:0:
144,8,111662,1,2,1:1:0:0:
340,72,111862,2,0,L|327:122,1,51.999997619629,0|0,1:0|1:0,0:0:0:0:
172,192,112063,2,0,L|182:242,1,51.999997619629,2|0,1:1|1:0,0:0:0:0:
296,272,112262,6,0,L|416:276,1,103.999995239258,0|2,1:0|0:1,0:0:0:0:
416,288,112562,1,0,0:0:0:0:
488,252,112662,2,0,P|496:180|472:156,1,103.999995239258,2|0,1:1|0:0,0:0:0:0:
456,160,112962,1,0,0:0:0:0:
384,120,113062,6,0,B|364:212|364:212|316:172,1,155.999992858887,2|2,1:1|0:1,0:0:0:0:
244,184,113462,2,0,P|252:132|296:104,1,103.999995239258,0|2,1:0|0:1,0:0:0:0:
112,24,113862,6,0,L|104:132,1,103.999995239258,4|2,1:2|0:1,0:0:0:0:
84,136,114162,1,0,0:0:0:0:
12,188,114262,6,0,L|20:80,1,103.999995239258,2|0,1:1|0:0,0:0:0:0:
40,76,114562,1,0,0:0:0:0:
176,76,114662,6,0,L|168:184,1,103.999995239258,2|0,1:1|0:0,0:0:0:0:
148,188,114962,1,2,0:1:0:0:
76,240,115062,6,0,L|84:132,1,103.999995239258,0|2,1:1|0:1,0:0:0:0:
104,128,115362,1,0,0:0:0:0:
244,124,115462,5,4,1:2:0:0:
264,292,115662,1,0,1:0:0:0:
320,344,115862,5,4,0:0:0:0:
300,176,116062,1,0,1:0:0:0:
244,124,116262,5,4,0:0:0:0:
264,292,116462,1,0,1:0:0:0:
320,344,116662,5,4,0:0:0:0:
300,176,116862,1,0,1:0:0:0:
300,176,117062,5,0,1:0:0:0:
480,160,117262,1,0,1:0:0:0:
500,328,117462,1,0,1:0:0:0:
320,344,117662,1,0,1:0:0:0:
396,216,117862,5,0,1:0:0:0:
424,228,117962,1,0,1:0:0:0:
440,256,118062,1,0,1:0:0:0:
428,284,118162,1,0,1:0:0:0:
400,300,118262,1,0,1:0:0:0:
372,288,118362,1,0,1:0:0:0:
356,260,118462,1,0,1:0:0:0:
388,144,118562,5,4,0:0:0:0:
