osu file format v14

[General]
AudioFilename: BRAVE OUT.mp3
AudioLeadIn: 0
PreviewTime: 92162
Countdown: 0
SampleSet: Soft
StackLeniency: 0.4
Mode: 0
LetterboxInBreaks: 0
WidescreenStoryboard: 1

[Editor]
Bookmarks: 1862,14662,27462,40262,53062,78662,93062,118662
DistanceSpacing: 1.3
BeatDivisor: 4
GridSize: 4
TimelineZoom: 0.9

[Metadata]
Title:BRAVE OUT
TitleUnicode:BRAVE OUT
Artist:nomico / DOWNFORCE
ArtistUnicode:nomico / DOWNFORCE
Creator:yf_bmp
Version:Saika's Hyper
Source:beatmania IIDX 21 SPADA
Tags:Masayoshi Minoshima Alstroemeria Records electrance fanzhen0019 Gyro Zeppeli Rizia ZZHBOY [Emiria] LunaSaika Pata-Mon NeilPerry
BeatmapID:1150460
BeatmapSetID:332201

[Difficulty]
HPDrainRate:5
CircleSize:3.5
OverallDifficulty:6.5
ApproachRate:8
SliderMultiplier:1.4
SliderTickRate:1

[Events]
//Background and Video events
0,0,"BRAVE OUT.png",0,0
//Break Periods
//Storyboard Layer 0 (Background)
//Storyboard Layer 1 (Fail)
//Storyboard Layer 2 (Pass)
//Storyboard Layer 3 (Foreground)
//Storyboard Sound Samples

[TimingPoints]
262,400,4,2,0,70,1,0
1062,-133.333333333333,4,2,0,60,0,0
1862,-100,4,2,0,70,0,0
14662,-100,4,2,0,75,0,0
25862,-100,4,2,0,65,0,0
27462,-90.9090909090909,4,2,0,70,0,1
27662,-90.9090909090909,4,2,0,70,0,0
40262,-100,4,2,0,55,0,0
51462,-133.333333333333,4,2,0,45,0,0
53062,-100,4,2,0,60,0,0
78662,-100,4,2,0,65,0,0
91362,-100,4,2,0,55,0,0
93062,-90.9090909090909,4,2,0,75,0,1
105062,-90.9090909090909,4,2,0,75,0,0
105862,-90.9090909090909,4,2,0,75,0,1
118562,-90.9090909090909,4,2,0,75,0,0

[Colours]
Combo1 : 255,255,0
Combo2 : 255,128,192
Combo3 : 128,128,255
Combo4 : 128,255,128
Combo5 : 255,255,128
Combo6 : 255,0,255
Combo7 : 128,0,255
Combo8 : 0,255,64

[HitObjects]
427,175,1062,6,0,B|439:135|479:118|479:118|513:143|512:187,1,157.500006008148,2|0,0:0|0:0,0:0:0:0:
448,246,1862,6,0,P|381:234|354:168,1,140,6|0,1:2|0:0,0:0:0:0:
353,173,2462,1,8,0:3:0:0:
274,126,2662,2,0,P|269:160|260:194,1,70,0|0,1:0|0:0,0:0:0:0:
189,252,3062,2,0,P|180:217|175:183,1,70,2|0,3:2|0:0,0:0:0:0:
102,128,3462,6,0,P|97:186|80:248,1,105,0|0,1:0|0:0,0:0:0:0:
85,231,3862,2,0,L|8:239,1,70,2|4,3:2|0:3,0:0:0:0:
35,327,4262,1,0,1:0:0:0:
35,327,4462,2,0,B|144:343,1,105,4|0,0:3|0:0,0:0:0:0:
138,342,4862,1,2,3:2:0:0:
228,338,5062,6,0,B|251:287|228:240|228:240|205:273,1,140,4|2,1:2|0:0,0:0:0:0:
205,271,5662,1,8,0:3:0:0:
291,302,5862,2,0,P|332:302|374:292,1,70,0|0,1:0|0:0,0:0:0:0:
377,206,6262,2,0,P|336:206|294:216,1,70,2|0,0:0|0:0,0:0:0:0:
236,153,6662,6,0,P|249:99|253:28,1,105,0|0,1:0|0:0,0:0:0:0:
242,5,7062,1,2,3:2:0:0:
329,30,7262,1,4,0:3:0:0:
242,5,7462,2,0,P|202:6|167:15,1,70,0|4,1:0|0:3,0:0:0:0:
116,84,7862,1,2,1:2:0:0:
81,83,7962,1,2,1:2:0:0:
47,76,8062,1,4,3:0:0:0:
47,76,8262,6,0,P|98:56|115:132,1,140,6|2,1:2|0:0,0:0:0:0:
43,166,8862,1,4,0:3:0:0:
121,211,9062,2,0,P|159:202|200:199,1,70,0|0,1:0|0:0,0:0:0:0:
274,231,9462,1,2,0:0:0:0:
278,141,9662,1,4,0:3:0:0:
274,231,9862,6,0,L|270:338,1,105,0|0,1:0|0:0,0:0:0:0:
270,335,10262,1,2,3:2:0:0:
184,366,10462,1,4,0:3:0:0:
168,276,10662,1,2,1:2:0:0:
99,336,10862,1,4,0:3:0:0:
11,312,11062,2,0,P|9:272|4:226,1,70,2|0,1:2|0:0,0:0:0:0:
34,155,11462,6,0,P|96:143|99:212,1,140,6|2,1:2|0:0,0:0:0:0:
105,204,12062,1,8,0:3:0:0:
195,188,12262,1,0,1:0:0:0:
195,188,12662,2,0,L|272:169,1,70,2|0,0:0|0:0,0:0:0:0:
320,100,13062,6,0,P|264:87|206:71,1,105,2|0,1:2|0:0,0:0:0:0:
180,48,13462,1,2,3:2:0:0:
102,96,13662,1,4,0:3:0:0:
103,5,13862,1,2,1:2:0:0:
179,47,14062,1,4,0:3:0:0:
102,96,14262,1,2,1:2:0:0:
84,94,14362,1,2,1:2:0:0:
67,92,14462,1,4,3:0:0:0:
67,92,14662,6,0,L|60:209,1,105,4|0,1:2|0:0,0:0:0:0:
82,237,15062,2,0,P|127:235|161:217,1,70,0|0,1:0|0:0,0:0:0:0:
232,187,15462,2,0,P|192:145|142:134,1,105,2|0,1:2|0:0,0:0:0:0:
192,126,15862,2,0,P|230:121|279:108,1,70,2|0,1:2|0:0,0:0:0:0:
328,53,16262,6,0,P|379:55|388:107,1,105,0|0,1:0|0:0,0:0:0:0:
365,138,16662,2,0,L|361:214,1,70,0|0,1:0|0:0,0:0:0:0:
278,246,17062,2,0,L|274:170,1,70,2|2,1:2|3:2,0:0:0:0:
196,127,17462,2,0,L|192:203,1,70,2|2,1:2|3:2,0:0:0:0:
204,287,17862,6,0,P|151:284|108:326,1,105,6|0,1:2|0:0,0:0:0:0:
106,361,18262,1,0,1:0:0:0:
106,361,18462,1,0,3:0:0:0:
195,375,18662,2,0,L|290:365,1,70,2|0,1:2|0:0,0:0:0:0:
315,292,19062,2,0,L|220:282,1,70,2|0,1:2|0:0,0:0:0:0:
296,209,19462,6,0,L|414:193,1,105,0|0,1:0|3:0,0:0:0:0:
444,203,19862,2,0,P|451:163|446:125,1,70,2|0,1:2|1:0,0:0:0:0:
358,117,20262,2,0,P|351:157|356:195,1,70,2|0,1:2|1:0,0:0:0:0:
390,269,20662,1,2,1:2:0:0:
390,269,21062,6,0,L|307:261,1,70,6|0,1:2|1:0,0:0:0:0:
233,288,21462,2,0,L|150:280,1,70,0|0,1:0|1:0,0:0:0:0:
75,305,21862,2,0,P|72:271|65:224,2,70,2|0|0,1:2|1:0|1:0,0:0:0:0:
139,369,22462,1,0,3:0:0:0:
163,281,22662,6,0,P|166:247|173:200,1,70,2|0,1:2|1:0,0:0:0:0:
191,122,23062,2,0,P|218:141|256:171,1,70,0|0,1:0|1:0,0:0:0:0:
316,222,23462,2,0,P|285:236|240:253,1,70,2|0,1:2|1:0,0:0:0:0:
175,300,23862,2,0,P|207:313|239:327,1,70,2|0,1:2|1:0,0:0:0:0:
239,327,24262,5,6,1:2:0:0:
165,380,24462,1,4,3:0:0:0:
78,353,24662,2,0,P|74:314|73:278,1,70,6|4,1:2|3:0,0:0:0:0:
59,193,25062,5,6,1:2:0:0:
133,140,25262,1,4,3:0:0:0:
220,167,25462,2,0,P|224:206|225:242,1,70,6|4,1:2|3:0,0:0:0:0:
256,192,25862,12,4,27062,3:2:0:0:
264,323,27462,6,0,L|340:316,1,77.0000023498536,6|0,1:2|0:0,0:0:0:0:
315,219,27862,2,0,L|231:212,1,77.0000023498536,2|0,1:0|0:0,0:0:0:0:
137,206,28262,2,0,P|126:153|152:88,1,115.50000352478,2|2,1:0|0:1,0:0:0:0:
145,96,28662,1,2,1:2:0:0:
240,64,28862,1,2,3:1:0:0:
240,64,28962,1,0,3:0:0:0:
240,64,29062,6,0,L|325:56,1,77.0000023498536,2|0,1:0|0:0,0:0:0:0:
412,24,29462,2,0,P|402:67|394:110,1,77.0000023498536,2|0,1:0|0:0,0:0:0:0:
384,198,29862,2,0,P|373:141|354:86,1,115.50000352478,2|2,1:0|0:1,0:0:0:0:
354,86,30262,1,2,1:2:0:0:
266,135,30462,1,2,3:1:0:0:
266,135,30562,1,0,3:0:0:0:
266,135,30662,6,0,L|257:218,1,77.0000023498536,2|0,1:0|0:0,0:0:0:0:
180,275,31062,2,0,L|171:192,1,77.0000023498536,2|0,1:0|0:0,0:0:0:0:
264,237,31462,2,0,P|317:253|376:264,1,115.50000352478,2|2,1:0|0:1,0:0:0:0:
376,264,31862,1,2,1:2:0:0:
310,339,32062,1,2,3:1:0:0:
310,339,32162,1,0,3:0:0:0:
310,339,32262,6,0,P|267:345|233:354,1,77.0000023498536,2|2,1:0|0:1,0:0:0:0:
137,328,32662,2,0,P|126:285|123:252,1,77.0000023498536,2|0,1:0|0:0,0:0:0:0:
200,189,33062,5,2,1:2:0:0:
210,226,33162,1,2,1:2:0:0:
214,264,33262,1,4,3:0:0:0:
285,193,33462,1,2,1:2:0:0:
312,289,33662,1,4,3:0:0:0:
214,264,33862,6,0,L|127:239,1,77.0000023498536,6|0,1:2|0:0,0:0:0:0:
69,170,34262,2,0,L|143:148,1,77.0000023498536,2|0,1:0|0:0,0:0:0:0:
230,98,34662,2,0,L|219:216,1,115.50000352478,2|2,1:0|0:1,0:0:0:0:
219,213,35062,1,2,1:2:0:0:
286,287,35262,1,2,3:1:0:0:
286,287,35362,1,0,3:0:0:0:
286,287,35462,6,0,L|363:274,1,77.0000023498536,2|0,1:0|0:0,0:0:0:0:
294,200,35862,2,0,L|217:213,1,77.0000023498536,2|0,1:0|0:0,0:0:0:0:
118,227,36262,2,0,P|100:284|101:339,1,115.50000352478,2|2,1:0|0:1,0:0:0:0:
101,339,36662,1,2,1:2:0:0:
193,377,36862,1,2,3:1:0:0:
193,377,36962,1,0,3:0:0:0:
193,377,37062,5,6,1:2:0:0:
245,291,37262,1,4,3:0:0:0:
334,334,37462,2,0,L|424:326,1,77.0000023498536,6|4,1:2|3:0,0:0:0:0:
441,231,37862,5,6,1:2:0:0:
341,238,38062,1,4,3:0:0:0:
241,246,38262,2,0,L|151:254,1,77.0000023498536,6|4,1:2|3:0,0:0:0:0:
73,208,38662,6,0,P|59:168|62:122,1,77.0000023498536,6|4,1:2|3:2,0:0:0:0:
152,96,39062,2,0,P|166:136|163:182,1,77.0000023498536,6|4,1:2|3:2,0:0:0:0:
99,245,39462,1,6,1:2:0:0:
61,241,39562,1,2,1:2:0:0:
23,237,39662,1,4,3:0:0:0:
70,149,39862,1,6,1:2:0:0:
99,245,40062,1,4,3:0:0:0:
70,149,40262,6,0,P|134:121|172:172,1,140,6|2,1:2|0:0,0:0:0:0:
171,168,40862,1,8,3:0:0:0:
260,148,41062,2,0,P|250:221|246:294,1,140,0|2,1:0|3:2,0:0:0:0:
418,345,41862,6,0,P|418:288|412:236,1,105,4|0,1:3|0:0,0:0:0:0:
412,240,42262,1,2,0:0:0:0:
342,298,42462,1,4,3:0:0:0:
257,264,42662,2,0,B|212:261|212:261|186:271|186:271|110:264,1,140,2|0,1:2|1:0,0:0:0:0:
89,85,43462,6,0,P|152:72|149:142,1,140,2|0,1:2|3:0,0:0:0:0:
79,175,44062,1,8,3:0:0:0:
89,85,44262,2,0,B|164:76|143:109|227:101,1,140,2|4,1:2|3:0,0:0:0:0:
408,92,45062,6,0,P|355:87|316:125,1,105,0|4,1:0|3:0,0:0:0:0:
318,119,45462,1,2,1:2:0:0:
318,210,45662,2,0,L|315:272,2,35,0|4|2,1:0|3:0|1:2,0:0:0:0:
297,250,45962,2,0,P|259:236|219:236,1,70,8|0,3:0|0:0,0:0:0:0:
187,251,46262,1,2,1:2:0:0:
147,332,46462,1,4,3:0:0:0:
68,285,46662,6,0,P|63:226|65:133,1,140,4|2,1:2|0:0,0:0:0:0:
64,145,47262,1,4,3:0:0:0:
143,190,47462,1,2,1:2:0:0:
143,190,47862,1,0,3:0:0:0:
224,27,48262,6,0,P|286:25|301:101,1,140,0|0,1:0|3:0,0:0:0:0:
256,166,48862,1,4,3:0:0:0:
165,162,49062,1,2,1:2:0:0:
256,166,49462,1,0,1:0:0:0:
165,162,49862,6,0,P|143:230|160:298,1,140,0|0,1:0|1:0,0:0:0:0:
158,295,50662,5,6,1:2:0:0:
248,301,50862,1,2,1:2:0:0:
338,306,51062,1,6,1:2:0:0:
355,307,51162,1,2,1:2:0:0:
373,308,51262,1,4,3:0:0:0:
394,309,51462,6,0,P|341:207|239:308,1,288.750011014939,4|0,0:0|3:0,0:0:0:0:
236,313,52662,2,0,L|238:352,2,26.2500010013581,8|8|8,3:0|3:0|3:0,0:0:0:0:
154,354,53062,6,0,L|76:346,1,70,6|0,1:2|0:0,0:0:0:0:
33,271,53462,1,8,1:2:0:0:
123,260,53662,2,0,L|201:252,1,70,2|0,3:2|1:0,0:0:0:0:
161,167,54062,2,0,L|83:159,1,70,2|10,3:0|1:2,0:0:0:0:
65,72,54462,1,2,3:2:0:0:
65,72,54662,6,0,L|186:57,1,105,0|0,1:0|0:0,0:0:0:0:
208,35,55062,1,10,1:2:0:0:
241,119,55262,1,0,3:0:0:0:
325,85,55462,2,0,P|338:135|338:202,1,105,2|0,1:3|1:0,0:0:0:0:
324,231,55862,1,8,1:2:0:0:
415,228,56062,1,4,3:0:0:0:
324,231,56262,6,0,L|203:235,1,105,6|0,1:2|0:0,0:0:0:0:
219,234,56662,1,8,1:2:0:0:
131,211,56862,1,2,3:2:0:0:
131,211,57062,2,0,L|133:283,1,70,2|2,1:3|0:0,0:0:0:0:
220,303,57462,2,0,L|218:231,1,70,10|0,1:2|0:0,0:0:0:0:
210,142,57862,6,0,B|263:139|254:166|311:161,1,105,0|0,1:0|0:0,0:0:0:0:
355,149,58262,1,10,1:2:0:0:
350,58,58462,1,4,3:0:0:0:
259,63,58662,5,2,1:2:0:0:
259,63,58762,1,2,1:2:0:0:
259,63,58862,1,6,3:0:0:0:
264,154,59062,2,0,L|267:247,1,70,10|0,1:2|1:0,0:0:0:0:
287,312,59462,6,0,P|234:308|192:339,1,105,6|0,1:2|0:0,0:0:0:0:
193,336,59862,1,8,3:2:0:0:
103,350,60062,2,0,P|63:337|32:316,1,70,2|0,3:2|1:0,0:0:0:0:
13,235,60462,2,0,P|43:217|76:207,1,70,2|10,3:0|1:2,0:0:0:0:
159,245,60862,1,0,3:0:0:0:
209,169,61062,6,0,P|251:194|319:220,1,105,0|0,1:0|0:0,0:0:0:0:
348,212,61462,1,10,1:2:0:0:
320,298,61662,1,0,3:0:0:0:
394,350,61862,2,0,P|402:315|404:274,1,70,2|0,1:2|3:0,0:0:0:0:
330,229,62262,2,0,P|322:264|320:305,1,70,8|0,1:2|0:0,0:0:0:0:
240,343,62662,6,0,P|187:330|130:321,1,105,4|0,1:2|0:0,0:0:0:0:
91,327,63062,1,10,1:2:0:0:
41,250,63262,2,0,P|92:241|143:228,1,105,2|0,3:2|0:0,0:0:0:0:
182,204,63662,1,0,3:0:0:0:
166,114,63862,2,0,P|130:102|90:94,1,70,8|0,1:2|0:0,0:0:0:0:
9,112,64262,6,0,L|15:235,1,105,2|0,1:2|0:0,0:0:0:0:
14,216,64662,1,8,1:2:0:0:
62,294,64862,2,0,P|99:301|134:295,1,70,2|0,3:2|1:0,0:0:0:0:
197,233,65262,2,0,P|231:228|265:235,1,70,2|10,3:0|1:2,0:0:0:0:
307,316,65662,1,2,3:2:0:0:
307,316,65762,1,0,3:0:0:0:
307,316,65862,5,6,1:2:0:0:
218,337,66062,1,2,1:2:0:0:
307,316,66262,2,0,L|424:294,1,105,4|0,1:2|0:0,0:0:0:0:
447,270,66662,6,0,P|451:226|447:182,1,70,2|0,1:2|0:0,0:0:0:0:
399,123,67062,1,10,1:2:0:0:
319,167,67262,2,0,L|241:157,1,70,2|0,3:0|1:0,0:0:0:0:
189,89,67662,2,0,L|267:79,1,70,2|8,3:2|1:2,0:0:0:0:
345,50,68062,1,0,3:0:0:0:
399,123,68262,2,0,P|408:174|402:229,1,105,2|0,1:3|1:0,0:0:0:0:
374,262,68662,1,10,1:2:0:0:
283,256,68862,1,4,3:0:0:0:
192,250,69062,6,0,L|108:243,1,70,6|0,1:2|0:0,0:0:0:0:
36,214,69462,2,0,L|105:219,1,70,10|0,1:2|0:0,0:0:0:0:
195,205,69862,2,0,L|90:196,1,105,2|0,1:3|0:0,0:0:0:0:
90,196,70262,1,8,1:2:0:0:
103,106,70462,1,0,3:0:0:0:
115,15,70662,6,0,P|126:67|129:143,1,105,0|0,1:0|0:0,0:0:0:0:
129,118,71062,1,8,1:2:0:0:
208,72,71262,1,0,3:0:0:0:
291,35,71462,2,0,P|339:29|378:28,1,70,2|2,1:2|0:3,0:0:0:0:
405,107,71862,2,0,P|357:113|318:114,1,70,10|4,1:2|3:0,0:0:0:0:
252,152,72262,6,0,P|323:155|329:228,1,140,4|8,1:2|1:2,0:0:0:0:
282,286,72862,1,0,3:0:0:0:
282,286,73062,2,0,P|227:281|174:265,1,105,2|0,1:2|3:0,0:0:0:0:
149,232,73462,1,10,1:2:0:0:
118,317,73662,1,2,3:2:0:0:
149,232,73862,6,0,P|172:203|209:172,1,70,0|0,1:0|0:0,0:0:0:0:
263,119,74262,2,0,P|276:153|284:200,1,70,8|0,1:2|0:3,0:3:0:0:
304,274,74662,2,0,P|267:268|222:252,1,70,2|0,1:2|0:3,0:3:0:0:
283,185,75062,2,0,P|316:174|350:169,1,70,10|0,1:2|0:3,0:3:0:0:
437,197,75462,6,0,P|384:189|312:115,1,140,4|8,1:2|1:2,0:0:0:0:
244,83,76062,1,0,3:0:0:0:
249,173,76262,2,0,P|199:221|132:236,1,140,2|8,1:2|1:2,0:0:0:0:
43,213,76862,1,0,0:0:0:0:
43,213,77062,6,0,L|50:63,2,140,0|8|0,1:0|1:2|1:0,0:0:0:0:
40,303,78062,1,0,3:0:0:0:
105,365,78262,1,6,1:2:0:0:
122,363,78362,1,0,1:0:0:0:
139,361,78462,1,6,1:2:0:0:
157,360,78562,1,2,1:2:0:0:
174,358,78662,6,0,P|195:294|167:227,1,140,6|4,1:2|3:0,0:0:0:0:
168,229,79262,1,2,3:2:0:0:
79,247,79462,2,0,L|15:256,2,46.6666666666667,0|2|0,1:0|0:0|0:0,0:0:0:0:
84,186,79862,2,0,L|20:195,2,46.6666666666667,8|2|0,3:0|0:0|0:0,0:0:0:0:
92,125,80262,6,0,L|205:112,1,105,4|0,3:0|0:0,0:0:0:0:
237,93,80662,1,2,0:0:0:0:
261,180,80862,1,4,3:0:0:0:
237,93,81062,1,2,1:2:0:0:
325,115,81262,1,4,3:0:0:0:
261,180,81462,1,0,0:0:0:0:
325,115,81662,1,2,3:2:0:0:
359,110,81762,1,0,3:0:0:0:
394,110,81862,6,0,P|405:157|408:221,1,105,2|0,1:2|0:0,0:0:0:0:
394,256,82262,2,0,L|319:263,1,70,2|4,0:0|3:0,0:0:0:0:
239,297,82662,1,2,1:2:0:0:
223,208,82862,1,2,1:2:0:0:
162,276,83062,2,0,P|165:310|173:344,1,70,8|0,3:0|0:0,0:0:0:0:
87,373,83462,6,0,P|109:316|121:234,1,140,0|0,1:0|0:0,1:0:0:0:
43,190,84062,1,4,3:0:0:0:
120,238,84262,2,0,P|164:248|204:250,1,70,2|4,1:2|3:0,0:0:0:0:
232,169,84662,1,2,1:2:0:0:
198,160,84762,1,2,1:2:0:0:
163,157,84862,1,8,3:0:0:0:
163,157,85062,6,0,L|170:305,1,140,6|4,1:2|1:2,0:0:0:0:
345,346,85862,2,0,L|351:206,1,140,4|4,1:2|1:2,0:0:0:0:
387,27,86662,6,0,P|321:12|246:25,1,140,6|4,1:2|1:2,0:0:0:0:
215,202,87462,2,0,P|281:217|356:204,1,140,4|4,1:2|1:2,0:0:0:0:
285,35,88262,6,0,P|276:73|269:111,1,70,6|4,1:2|3:0,0:0:0:0:
196,157,88662,2,0,P|187:119|180:81,1,70,4|4,1:2|3:0,0:0:0:0:
108,33,89062,5,6,1:2:0:0:
103,49,89162,1,2,1:2:0:0:
99,67,89262,1,0,1:0:0:0:
96,84,89362,1,0,1:0:0:0:
93,101,89462,2,0,L|89:138,4,35,6|2|0|0|2,1:2|1:2|1:0|1:0|0:0,0:0:0:0:
256,192,89962,12,8,91462,3:2:0:0:
358,114,92262,5,0,1:0:0:0:
351,204,92462,1,0,1:0:0:0:
263,179,92662,1,2,1:2:0:0:
245,177,92762,1,0,3:0:0:0:
228,177,92862,1,2,3:2:0:0:
210,180,92962,1,0,3:0:0:0:
193,184,93062,6,0,P|180:245|185:313,1,115.50000352478,6|0,1:2|0:0,0:0:0:0:
207,341,93462,1,2,1:0:0:0:
306,335,93662,1,0,3:0:0:0:
306,335,93862,2,0,L|423:324,1,115.50000352478,2|2,1:0|0:1,0:0:0:0:
470,332,94262,2,0,P|473:287|468:254,1,77.0000023498536,2|2,1:2|3:1,0:0:0:0:
448,209,94562,1,0,3:0:0:0:
448,209,94662,6,0,L|353:218,1,77.0000023498536,2|2,1:0|3:2,0:0:0:0:
302,143,95062,2,0,L|378:135,1,77.0000023498536,2|0,1:0|0:0,0:0:0:0:
465,84,95462,2,0,P|449:32|396:34,1,115.50000352478,2|2,1:0|0:1,0:0:0:0:
396,33,95862,1,2,1:2:0:0:
296,26,96062,1,2,3:1:0:0:
296,26,96162,1,0,3:0:0:0:
296,26,96262,6,0,L|298:114,1,77.0000023498536,2|2,1:0|3:2,0:0:0:0:
265,198,96662,2,0,L|263:121,1,77.0000023498536,2|0,1:0|0:0,0:0:0:0:
195,46,97062,2,0,P|135:46|77:60,1,115.50000352478,2|2,1:0|0:1,0:0:0:0:
81,58,97462,1,2,1:2:0:0:
82,158,97662,1,2,3:1:0:0:
82,158,97762,1,0,3:0:0:0:
82,158,97862,6,0,L|76:243,1,77.0000023498536,2|2,1:0|3:1,0:0:0:0:
38,327,98262,2,0,L|117:313,1,77.0000023498536,2|0,1:0|0:0,0:0:0:0:
214,321,98662,2,0,L|329:331,1,115.50000352478,2|2,1:0|0:1,0:0:0:0:
329,331,99062,1,2,1:2:0:0:
417,378,99262,1,2,3:1:0:0:
417,378,99362,1,0,3:0:0:0:
417,378,99462,6,0,P|427:339|421:297,1,77.0000023498536,6|2,1:2|3:2,0:0:0:0:
334,255,99862,2,0,P|324:294|330:336,1,77.0000023498536,2|0,1:0|0:0,0:0:0:0:
230,354,100262,2,0,P|240:297|231:241,1,115.50000352478,2|2,1:0|0:1,0:0:0:0:
194,205,100662,2,0,L|106:213,1,77.0000023498536,2|2,1:2|3:1,0:0:0:0:
93,167,100962,1,0,3:0:0:0:
93,167,101062,6,0,L|169:160,1,77.0000023498536,2|0,1:0|0:0,0:0:0:0:
342,160,101462,2,0,L|419:167,1,77.0000023498536,2|0,1:0|3:0,0:0:0:0:
394,211,101762,1,2,0:1:0:0:
394,211,101862,2,0,L|318:205,1,77.0000023498536,2|2,1:2|3:1,0:0:0:0:
256,128,102262,1,0,1:0:0:0:
256,128,102362,2,0,L|256:36,1,77.0000023498536,2|0,3:1|0:0,0:0:0:0:
233,5,102662,6,0,P|154:10|137:81,1,154.000004699707,6|2,1:2|1:0,0:0:0:0:
164,169,103262,1,2,3:2:0:0:
256,128,103462,2,0,L|350:123,1,77.0000023498536,2|0,1:0|0:0,0:0:0:0:
374,215,103862,2,0,L|280:210,1,77.0000023498536,2|2,1:0|3:2,0:0:0:0:
246,209,104162,1,0,3:0:0:0:
246,209,104262,6,0,P|235:254|242:296,1,77.0000023498536,2|2,1:0|3:1,0:0:0:0:
327,331,104662,2,0,P|338:286|331:244,1,77.0000023498536,2|0,1:0|0:0,0:0:0:0:
298,162,105062,5,2,1:2:0:0:
259,164,105162,1,2,1:2:0:0:
221,166,105262,1,4,3:0:0:0:
136,113,105462,1,2,1:2:0:0:
93,203,105662,1,4,3:0:0:0:
93,203,105862,6,0,P|91:160|84:119,1,77.0000023498536,6|0,1:2|0:0,0:0:0:0:
61,170,106162,2,0,P|55:208|53:246,1,77.0000023498536,6|0,1:2|0:0,0:0:0:0:
64,295,106462,1,4,3:0:0:0:
159,265,106662,2,0,B|161:218,2,38.5000011749268,6|2|8,1:2|1:2|3:0,0:0:0:0:
195,358,107062,2,0,P|249:350|313:347,1,115.50000352478,4|0,1:2|0:0,0:0:0:0:
358,356,107462,6,0,P|369:317|371:265,1,77.0000023498536,6|0,1:2|0:0,0:0:0:0:
403,241,107762,2,0,P|413:277|416:316,1,77.0000023498536,6|0,1:2|0:0,0:0:0:0:
408,366,108062,1,4,3:0:0:0:
309,346,108262,1,4,1:2:0:0:
299,246,108462,2,0,P|299:201|305:156,1,77.0000023498536,4|6,3:0|1:2,0:0:0:0:
302,169,108762,1,2,1:2:0:0:
302,169,108862,1,4,3:0:0:0:
389,119,109062,6,0,L|470:116,1,77.0000023498536,6|0,1:2|0:0,0:0:0:0:
507,144,109362,2,0,L|430:146,1,77.0000023498536,6|0,1:2|0:0,0:0:0:0:
379,149,109662,1,8,3:0:0:0:
375,48,109862,1,6,0:2:0:0:
274,52,110062,1,4,3:0:0:0:
278,153,110262,2,0,L|283:269,1,115.50000352478,4|0,1:2|0:0,0:0:0:0:
261,314,110662,6,0,P|205:316|165:297,1,77.0000023498536,6|8,1:2|3:0,0:0:0:0:
152,214,111062,2,0,L|149:168,3,38.5000011749268,4|4|2|2,1:2|1:3|1:3|1:3,0:0:0:0:
148,125,111462,1,6,1:2:0:0:
164,26,111662,1,4,3:0:0:0:
234,97,111862,2,0,L|236:135,3,38.5000011749268,4|4|2|2,1:2|1:3|1:3|1:3,0:0:0:0:
262,178,112262,6,0,P|324:142|408:161,1,154.000004699707,6|8,1:2|1:2,0:0:0:0:
401,156,112862,1,0,3:0:0:0:
457,239,113062,2,0,P|454:283|448:321,1,77.0000023498536,2|0,1:2|0:0,0:0:0:0:
362,365,113462,2,0,P|359:321|353:283,1,77.0000023498536,8|0,1:2|0:0,0:0:0:0:
267,238,113862,6,0,P|248:292|237:358,1,115.50000352478,2|0,1:2|0:0,0:0:0:0:
210,307,114262,2,0,P|176:282|143:269,1,77.0000023498536,8|0,1:2|0:0,0:0:0:0:
43,271,114662,2,0,P|78:256|109:233,1,77.0000023498536,0|0,1:0|0:0,0:0:0:0:
156,144,115062,2,0,L|150:24,1,115.50000352478,10|0,1:2|0:0,0:0:0:0:
150,28,115462,5,6,1:2:0:0:
233,83,115662,1,4,3:0:0:0:
328,52,115862,2,0,P|367:47|409:45,1,77.0000023498536,4|4,1:2|3:0,0:0:0:0:
458,129,116262,5,6,1:2:0:0:
375,183,116462,1,4,3:0:0:0:
280,152,116662,2,0,P|241:147|199:145,1,77.0000023498536,4|4,1:2|3:0,0:0:0:0:
105,167,117062,6,0,L|108:266,1,77.0000023498536,6|4,1:2|3:0,0:0:0:0:
196,288,117462,2,0,L|199:189,1,77.0000023498536,6|4,1:2|3:0,0:0:0:0:
280,152,117862,6,0,L|286:201,7,38.5000011749268,6|2|4|4|2|0|8|0,1:2|0:0|3:0|3:0|1:2|3:0|3:0|3:0,0:0:0:0:
