osu file format v14

[General]
AudioFilename: BRAVE OUT.mp3
AudioLeadIn: 0
PreviewTime: 92162
Countdown: 0
SampleSet: Soft
StackLeniency: 0.7
Mode: 0
LetterboxInBreaks: 0
WidescreenStoryboard: 0

[Editor]
DistanceSpacing: 1.3
BeatDivisor: 2
GridSize: 16
TimelineZoom: 0.9

[Metadata]
Title:BRAVE OUT
TitleUnicode:BRAVE OUT
Artist:nomico / DOWNFORCE
ArtistUnicode:nomico / DOWNFORCE
Creator:yf_bmp
Version:Pata-Mon's Normal
Source:beatmania IIDX 21 SPADA
Tags:Masayoshi Minoshima Alstroemeria Records electrance fanzhen0019 Gyro Zeppeli Rizia ZZHBOY [Emiria] LunaSaika Pata-Mon NeilPerry
BeatmapID:1154099
BeatmapSetID:332201

[Difficulty]
HPDrainRate:4
CircleSize:3.5
OverallDifficulty:4
ApproachRate:5
SliderMultiplier:1.2
SliderTickRate:1

[Events]
//Background and Video events
0,0,"BRAVE OUT.png",0,0
//Break Periods
//Storyboard Layer 0 (Background)
//Storyboard Layer 1 (Fail)
//Storyboard Layer 2 (Pass)
//Storyboard Layer 3 (Foreground)
//Storyboard Sound Samples

[TimingPoints]
262,400,4,2,0,80,1,0
262,-125,4,2,0,80,0,0
14662,-100,4,2,0,80,0,0
40262,-125,4,2,0,80,0,0
53062,-100,4,2,0,80,0,0
78662,-125,4,2,0,80,0,0
85062,-100,4,2,0,80,0,0
93062,-100,4,2,0,90,0,1
118562,-100,4,2,0,80,0,0

[Colours]
Combo1 : 255,255,0
Combo2 : 255,128,192
Combo3 : 128,128,255
Combo4 : 128,255,128
Combo5 : 255,255,128
Combo6 : 255,0,255
Combo7 : 128,0,255
Combo8 : 0,255,64

[HitObjects]
271,182,1862,6,0,P|352:202|436:201,1,144,0|4,1:2|0:3,0:0:0:0:
451,135,2662,2,0,P|440:179|441:287,1,144,0|4,1:0|0:3,0:0:0:0:
472,347,3462,2,0,P|391:367|307:366,1,144,0|4,1:0|0:3,0:0:0:0:
254,351,4262,1,0,1:0:0:0:
250,347,4462,2,0,L|243:226,1,96,4|4,0:3|0:3,0:0:0:0:
203,185,5062,6,0,L|211:41,1,144,4|4,1:2|0:3,0:0:0:0:
288,38,5862,2,0,L|280:182,1,144,0|4,1:0|0:3,0:0:0:0:
244,251,6662,1,4,0:3:0:0:
32,151,7262,1,4,0:3:0:0:
36,155,7462,2,0,L|129:143,1,48,0|4,1:0|0:3,0:0:0:0:
140,203,7862,2,0,L|233:191,1,48,0|4,1:0|0:3,0:0:0:0:
244,251,8262,6,0,L|430:227,1,144,4|4,1:2|0:3,0:0:0:0:
453,274,9062,2,0,P|412:241|412:113,1,144,0|4,1:0|0:3,0:0:0:0:
408,78,9862,2,0,P|356:67|221:66,1,144,4|4,0:3|0:3,0:0:0:0:
204,110,10662,2,0,L|146:114,1,48,0|4,1:0|0:3,0:0:0:0:
88,74,11062,2,0,L|30:78,1,48,0|4,1:0|0:3,0:0:0:0:
0,144,11462,6,0,P|2:222|27:323,1,144,4|4,0:0|0:3,0:0:0:0:
61,348,12262,2,0,P|63:270|88:169,1,144,0|4,1:0|0:3,0:0:0:0:
118,139,13062,1,4,0:3:0:0:
352,135,13662,1,4,0:3:0:0:
356,139,13862,2,0,L|268:151,1,48,0|4,1:0|0:3,0:0:0:0:
237,113,14262,2,0,L|149:101,1,48,0|0,1:0|1:0,0:0:0:0:
118,139,14662,6,0,L|134:311,1,120,4|0,1:2|1:0,0:0:0:0:
234,375,15462,1,2,1:2:0:0:
282,226,15862,1,2,1:2:0:0:
386,342,16262,2,0,P|495:336|576:259,1,120,0|0,1:2|1:2,0:0:0:0:
434,193,17062,1,2,1:2:0:0:
282,226,17462,1,2,1:2:0:0:
130,193,17862,6,0,P|81:109|98:1,1,120,2|0,1:2|1:0,0:0:0:0:
234,77,18662,1,2,1:2:0:0:
282,226,19062,1,2,1:2:0:0:
178,342,19462,2,0,P|92:344|-9:264,1,120,2|0,1:2|1:0,0:0:0:0:
130,193,20262,1,2,1:2:0:0:
282,226,20662,1,2,1:2:0:0:
315,74,21062,6,0,B|376:87|411:139|411:139|510:127,1,180,2|0,1:2|1:0,0:0:0:0:
484,54,21862,2,0,B|467:174|467:174|491:261,1,180,2|0,1:2|1:0,0:0:0:0:
508,305,22662,2,0,L|359:323,1,120,2|2,1:2|1:2,0:0:0:0:
333,374,23262,1,0,1:0:0:0:
329,378,23462,2,0,L|180:360,1,120,2|2,1:2|1:2,0:0:0:0:
133,349,24062,1,0,1:0:0:0:
129,353,24262,6,0,P|111:302|110:240,1,60,4|2,0:0|1:2,0:0:0:0:
115,218,24662,2,0,P|147:156|190:117,1,60,4|2,0:0|1:2,0:0:0:0:
199,112,25062,2,0,P|254:91|313:90,1,60,4|2,0:0|1:2,0:0:0:0:
333,94,25462,2,0,P|381:114|429:156,1,60,4|0,0:0|1:0,0:0:0:0:
387,118,27462,6,0,P|333:94|254:91,1,120,4|0,1:2|1:0,0:0:0:0:
179,214,28262,2,0,P|233:238|312:241,1,120,0|0,1:0|1:0,0:0:0:0:
371,234,28862,1,0,0:1:0:0:
375,238,29062,2,0,L|365:378,1,120,0|0,1:0|1:0,0:0:0:0:
210,341,29862,2,0,P|162:342|101:355,2,90,0|0|0,1:0|1:1|1:1,0:0:0:0:
288,348,30662,5,0,1:0:0:0:
412,254,31062,1,0,1:0:0:0:
269,193,31462,2,0,P|214:187|111:200,1,120,0|0,1:0|1:0,0:0:0:0:
73,206,32062,1,0,0:1:0:0:
69,210,32262,2,0,L|65:283,2,60,0|0|0,1:0|0:0|1:0,0:0:0:0:
147,74,33062,2,0,L|143:1,1,60,0|4,1:0|0:3,0:0:0:0:
66,20,33462,2,0,L|70:93,1,60,0|4,1:0|0:3,0:0:0:0:
113,144,33862,6,0,P|193:137|213:32,1,120,4|0,1:2|1:0,0:0:0:0:
330,3,34662,2,0,P|400:9|488:40,1,120,0|0,1:0|1:0,0:0:0:0:
510,69,35262,1,0,0:1:0:0:
506,73,35462,2,0,L|504:198,1,120,0|0,1:0|1:0,0:0:0:0:
500,349,36262,1,0,1:0:0:0:
367,268,36662,1,0,1:0:0:0:
234,349,37062,6,0,P|176:355|95:337,1,120,4|4,0:0|0:0,0:0:0:0:
49,303,37662,1,0,1:0:0:0:
53,299,37862,2,0,L|65:160,1,120,4|4,0:0|0:0,0:0:0:0:
73,101,38462,1,0,1:0:0:0:
77,97,38662,2,0,P|109:87|149:88,1,60,4|0,1:2|1:0,0:0:0:0:
190,143,39062,2,0,P|222:152|262:152,1,60,4|0,1:2|1:0,0:0:0:0:
303,97,39462,2,0,P|335:87|375:88,1,60,0|0,1:0|1:0,0:0:0:0:
416,143,39862,2,0,P|448:152|488:152,1,60,0|4,1:0|0:3,0:0:0:0:
511,84,40262,6,0,L|499:248,1,144,4|4,1:2|0:3,0:0:0:0:
492,305,41062,1,0,1:0:0:0:
346,248,41462,1,2,0:0:0:0:
200,305,41862,2,0,P|119:301|88:214,1,144,2|4,1:2|0:3,0:0:0:0:
39,191,42662,2,0,P|31:245|-10:310,1,96,0|4,1:0|0:3,0:0:0:0:
163,236,43462,6,0,P|163:173|142:75,1,144,2|4,1:2|0:3,0:0:0:0:
108,25,44262,1,2,1:2:0:0:
262,53,44662,1,4,0:3:0:0:
416,81,45062,2,0,L|427:220,1,96,2|0,0:2|1:0,0:0:0:0:
482,229,45662,1,0,1:0:0:0:
486,233,45862,2,0,L|475:372,1,96,2|2,1:2|1:2,0:0:0:0:
420,381,46462,1,4,0:3:0:0:
416,377,46662,6,0,B|367:380|324:355|324:355|251:363,1,144,6|4,1:2|0:3,0:0:0:0:
198,361,47462,2,0,P|154:360|65:337,1,96,2|0,1:2|0:0,0:0:0:0:
2,230,48262,2,0,P|22:162|26:53,1,144,2|4,1:2|0:3,0:0:0:0:
25,11,49062,1,2,1:2:0:0:
154,98,49462,1,4,0:3:0:0:
283,11,49862,6,0,P|343:15|397:29,1,96,0|0,1:0|1:0,0:0:0:0:
443,165,50662,2,0,L|439:241,1,48,0|0,1:0|1:0,0:0:0:0:
375,256,51062,2,0,L|379:332,1,48,0|0,1:0|1:0,0:0:0:0:
420,369,51462,1,4,0:0:0:0:
420,369,53062,6,0,P|470:296|462:183,2,120,4|8|0,0:0|1:0|1:0,0:0:0:0:
321,249,54262,2,0,L|232:248,1,60,8|2,1:0|0:0,0:0:0:0:
204,302,54662,2,0,P|95:317|8:264,2,120,0|8|0,1:0|1:0|1:0,0:0:0:0:
129,165,55862,2,0,L|40:164,1,60,8|0,1:0|1:0,0:0:0:0:
57,87,56262,6,0,L|235:89,1,120,0|8,1:0|1:0,0:0:0:0:
263,218,57062,2,0,L|441:216,1,120,0|8,1:0|1:0,0:0:0:0:
461,215,57662,1,2,0:2:0:0:
465,211,57862,2,0,P|469:155|448:77,1,120,2|8,1:2|1:0,0:0:0:0:
303,56,58662,2,0,L|215:65,1,60,2|0,1:2|1:0,0:0:0:0:
190,120,59062,2,0,L|102:111,1,60,8|0,1:0|1:0,0:0:0:0:
87,49,59462,6,0,P|86:110|67:188,2,120,4|8|0,1:2|1:0|1:0,0:0:0:0:
243,62,60662,2,0,L|331:53,1,60,8|2,1:0|0:0,0:0:0:0:
380,49,61062,2,0,P|381:110|400:188,1,120,0|8,1:0|1:0,0:0:0:0:
432,235,61662,1,2,0:0:0:0:
428,239,61862,2,0,P|379:249|267:244,1,120,0|8,1:0|1:0,0:0:0:0:
197,141,62662,6,0,P|137:141|78:152,1,120,2|8,1:2|1:0,0:0:0:0:
0,288,63462,1,0,1:0:0:0:
150,332,63862,2,0,L|263:321,1,60,8|2,1:0|0:0,0:0:0:0:
258,265,64262,2,0,P|325:274|398:306,1,120,0|8,1:0|1:0,0:0:0:0:
505,377,65062,1,0,1:0:0:0:
512,221,65462,2,0,L|502:128,1,60,8|0,1:0|1:0,0:0:0:0:
449,108,65862,6,0,L|459:15,2,60,0|4|4,1:0|1:2|0:0,0:0:0:0:
337,216,66662,2,0,P|275:233|175:224,1,120,2|8,1:2|1:0,0:0:0:0:
147,205,67262,1,2,0:0:0:0:
143,209,67462,2,0,L|157:361,2,120,0|8|0,1:2|1:0|1:0,0:0:0:0:
43,88,68662,1,8,1:0:0:0:
197,62,69062,6,0,P|265:71|332:95,1,120,0|4,1:0|1:2,0:0:0:0:
313,243,69862,2,0,P|255:260|196:267,1,120,0|8,1:0|1:0,0:0:0:0:
123,238,70462,1,2,0:0:0:0:
127,234,70662,2,0,L|127:75,1,120,0|8,1:0|1:0,0:0:0:0:
272,56,71462,2,0,L|272:215,1,120,0|8,1:0|1:0,0:0:0:0:
313,243,72062,1,0,1:0:0:0:
317,247,72262,6,0,P|382:275|463:266,1,120,0|8,1:0|1:0,0:0:0:0:
473,125,73062,2,0,P|408:97|327:106,1,120,0|8,1:0|1:0,0:0:0:0:
209,135,73862,1,0,1:0:0:0:
317,247,74262,1,8,1:0:0:0:
360,97,74662,1,0,1:0:0:0:
209,135,75062,1,8,1:0:0:0:
166,285,75462,6,0,P|79:221|54:113,2,120,2|8|0,1:2|1:0|1:0,0:0:0:0:
317,247,76662,1,8,1:0:0:0:
360,97,77062,2,0,P|317:23|217:-21,2,120,2|8|2,1:2|1:0|1:2,0:0:0:0:
209,135,78262,2,0,L|123:126,1,60,2|0,1:2|1:0,0:0:0:0:
94,72,78662,6,0,B|106:122|106:122|94:218,1,144,4|4,0:0|0:3,0:0:0:0:
38,268,79462,2,0,B|88:256|88:256|184:268,1,144,0|4,1:3|0:3,0:0:0:0:
246,309,80262,2,0,L|405:290,1,144,0|4,1:0|0:3,0:0:0:0:
466,279,81062,1,0,1:0:0:0:
470,275,81262,2,0,P|474:220|456:171,1,96,0|0,1:0|1:0,0:0:0:0:
401,131,81862,6,0,L|242:150,1,144,0|4,1:0|0:3,0:0:0:0:
195,101,82662,2,0,L|206:35,2,48,0|0|4,1:0|1:0|0:3,0:0:0:0:
79,206,83462,2,0,P|169:255|245:249,1,144,0|4,1:0|0:3,0:0:0:0:
279,223,84262,2,0,L|364:232,1,48,0|4,1:0|0:3,0:0:0:0:
388,275,84662,2,0,L|473:266,1,48,0|0,1:0|1:0,0:0:0:0:
491,215,85062,6,0,P|503:164|495:48,1,120,4|4,1:2|1:2,0:0:0:0:
377,6,85862,1,4,1:2:0:0:
250,97,86262,1,4,1:2:0:0:
123,6,86662,2,0,P|96:118|138:205,1,120,4|4,1:2|1:2,0:0:0:0:
194,242,87462,1,4,1:2:0:0:
250,97,87862,1,4,1:2:0:0:
348,219,88262,6,0,L|342:312,1,60,0|0,1:0|1:0,0:0:0:0:
285,330,88662,2,0,L|192:324,1,60,0|0,1:0|1:0,0:0:0:0:
174,267,89062,2,0,L|180:174,1,60,0|0,1:0|1:0,0:0:0:0:
237,156,89462,2,0,L|330:162,1,60,0|0,1:0|1:0,0:0:0:0:
256,192,89862,12,8,91462,0:0:0:0:
199,87,92262,6,0,L|259:87,1,60,0|0,1:0|1:0,0:0:0:0:
325,45,92662,2,0,L|385:45,1,60,0|0,1:0|1:0,0:0:0:0:
451,3,93062,6,0,P|429:37|431:146,1,120,4|0,1:0|1:0,0:0:0:0:
451,268,93862,1,0,1:1:0:0:
303,218,94262,2,0,P|264:210|198:217,1,60,0|0,1:0|0:1,0:0:0:0:
168,228,94662,2,0,P|229:151|222:30,1,120,4|0,1:2|1:0,0:0:0:0:
82,98,95462,1,0,1:1:0:0:
12,237,95862,2,0,P|27:295|59:340,1,60,0|0,1:0|0:1,0:0:0:0:
77,355,96262,6,0,P|130:379|185:383,2,60,4|0|0,1:2|0:1|1:0,0:0:0:0:
168,228,97062,1,0,1:1:0:0:
313,285,97462,2,0,P|267:348|242:365,1,60,0|0,1:0|0:1,0:0:0:0:
342,383,97862,2,0,P|403:377|469:332,1,120,0|0,1:1|1:1,0:0:0:0:
512,204,98662,1,0,1:1:0:0:
453,59,99062,2,0,P|417:45|338:44,1,60,0|0,1:0|1:0,0:0:0:0:
335,89,99462,6,0,P|274:102|200:95,1,120,4|0,1:1|1:0,0:0:0:0:
133,231,100262,2,0,P|194:218|268:225,1,120,0|0,1:1|1:0,0:0:0:0:
390,293,101062,1,4,1:2:0:0:
502,184,101462,1,0,1:0:0:0:
432,45,101862,1,0,1:1:0:0:
278,69,102262,1,0,1:0:0:0:
251,221,102662,6,0,P|190:234|116:227,1,120,4|0,1:2|1:0,0:0:0:0:
0,148,103462,1,0,1:1:0:0:
112,40,103862,2,0,L|201:49,1,60,0|0,1:0|0:1,0:0:0:0:
249,46,104262,2,0,L|427:28,1,120,4|0,1:2|1:1,0:0:0:0:
484,138,105062,2,0,L|395:129,1,60,0|0,1:0|1:0,0:0:0:0:
360,176,105462,2,0,L|271:185,1,60,0|4,1:0|0:3,0:0:0:0:
234,140,105862,6,0,P|199:135|124:150,2,90,4|4|4,1:2|1:2|1:2,0:0:0:0:
304,104,106662,2,0,P|306:74|297:18,2,60,0|0|4,1:0|1:0|1:2,0:0:0:0:
209,228,107462,2,0,P|204:263|219:338,2,90,4|4|4,1:2|1:2|1:2,0:0:0:0:
267,176,108262,2,0,L|342:182,1,60,4|0,1:2|1:0,0:0:0:0:
375,242,108662,2,0,L|450:236,1,60,4|0,1:2|1:0,0:0:0:0:
503,198,109062,6,0,P|512:253|480:301,2,90,4|4|4,1:2|1:2|1:2,0:0:0:0:
435,159,109862,2,0,P|421:129|423:82,2,60,4|0|4,1:2|1:0|1:2,0:0:0:0:
354,293,110662,2,0,P|302:296|231:284,1,120,4|0,1:2|1:3,0:0:0:0:
164,252,111262,1,0,1:3:0:0:
160,256,111462,2,0,L|65:265,1,60,0|0,1:0|1:0,0:0:0:0:
113,339,111862,2,0,L|208:330,1,60,0|0,1:0|1:0,0:0:0:0:
235,285,112262,6,0,P|245:234|240:149,1,120,4|0,1:0|1:0,0:0:0:0:
190,19,113062,1,4,1:2:0:0:
344,46,113462,2,0,P|381:48|447:28,1,60,0|0,1:0|0:0,0:0:0:0:
472,7,113862,2,0,P|445:49|435:128,1,120,4|4,1:1|1:2,0:0:0:0:
473,268,114662,1,4,1:2:0:0:
323,227,115062,2,0,P|301:222|240:227,1,60,4|0,1:2|0:0,0:0:0:0:
195,258,115462,6,0,L|103:256,1,60,4|0,1:2|1:0,0:0:0:0:
138,178,115862,2,0,L|230:180,1,60,4|0,1:2|1:0,0:0:0:0:
201,101,116262,2,0,L|109:99,1,60,4|0,1:2|1:0,0:0:0:0:
144,21,116662,2,0,L|236:23,1,60,4|0,1:2|1:0,0:0:0:0:
270,65,117062,2,0,P|339:69|415:39,1,120,0|0,1:0|1:0,0:0:0:0:
454,14,117662,1,0,1:0:0:0:
458,18,117862,2,0,L|467:122,1,60,0|0,1:0|1:2,0:0:0:0:
407,133,118262,2,0,L|398:237,1,60,0|0,1:2|1:2,0:0:0:0:
