osu file format v14

[General]
AudioFilename: BRAVE OUT.mp3
AudioLeadIn: 0
PreviewTime: 92162
Countdown: 0
SampleSet: None
StackLeniency: 0.2
Mode: 0
LetterboxInBreaks: 0
WidescreenStoryboard: 1

[Editor]
DistanceSpacing: 1.6
BeatDivisor: 3
GridSize: 32
TimelineZoom: 4.099998

[Metadata]
Title:BRAVE OUT
TitleUnicode:BRAVE OUT
Artist:nomico / DOWNFORCE
ArtistUnicode:nomico / DOWNFORCE
Creator:yf_bmp
Version:NeilPerry's Another
Source:beatmania IIDX 21 SPADA
Tags:Masayoshi Minoshima Alstroemeria Records electrance fanzhen0019 Gyro Zeppeli Rizia ZZHBOY [Emiria] LunaSaika Pata-Mon NeilPerry
BeatmapID:1544934
BeatmapSetID:332201

[Difficulty]
HPDrainRate:7
CircleSize:4.8
OverallDifficulty:8
ApproachRate:9
SliderMultiplier:1.92
SliderTickRate:1

[Events]
//Background and Video events
0,0,"BRAVE OUT.png",0,0
//Break Periods
//Storyboard Layer 0 (Background)
//Storyboard Layer 1 (Fail)
//Storyboard Layer 2 (Pass)
//Storyboard Layer 3 (Foreground)
//Storyboard Sound Samples

[TimingPoints]
262,400,4,2,0,70,1,0
1862,-133.333333333333,4,2,1,80,0,0
2662,-100,4,2,1,80,0,0
3462,-76.9230769230769,4,2,1,80,0,0
4062,-100,4,2,1,80,0,0
5062,-133.333333333333,4,2,1,80,0,0
5862,-100,4,2,1,80,0,0
6662,-133.333333333333,4,2,1,80,0,0
9062,-100,4,2,1,80,0,0
9862,-76.9230769230769,4,2,1,80,0,0
11462,-133.333333333333,4,2,1,80,0,0
12262,-100,4,2,1,80,0,0
13062,-100,4,2,1,70,0,0
14762,-100,4,2,0,70,0,0
24262,-66.6666666666667,4,2,1,70,0,0
25862,-200,4,2,0,50,0,0
26662,-100,4,2,0,70,0,0
27462,-83.3333333333333,4,2,1,70,0,0
27662,-83.3333333333333,4,2,1,70,0,0
27862,-83.3333333333333,4,2,1,70,0,0
28262,-83.3333333333333,4,2,1,70,0,0
28562,-83.3333333333333,4,2,1,70,0,0
28862,-83.3333333333333,4,2,1,70,0,0
29062,-83.3333333333333,4,2,1,70,0,0
29262,-83.3333333333333,4,2,1,70,0,0
29462,-83.3333333333333,4,2,1,70,0,0
29862,-83.3333333333333,4,2,1,70,0,0
30162,-83.3333333333333,4,2,1,70,0,0
30462,-83.3333333333333,4,2,1,70,0,0
30662,-83.3333333333333,4,2,1,70,0,0
31162,-83.3333333333333,4,2,1,70,0,0
31462,-83.3333333333333,4,2,1,70,0,0
31762,-83.3333333333333,4,2,1,70,0,0
32062,-83.3333333333333,4,2,1,70,0,0
32262,-83.3333333333333,4,2,1,70,0,0
32762,-83.3333333333333,4,2,1,70,0,0
34062,-83.3333333333333,4,2,1,70,0,0
34262,-83.3333333333333,4,2,1,70,0,0
34662,-83.3333333333333,4,2,1,70,0,0
34962,-83.3333333333333,4,2,1,70,0,0
35262,-83.3333333333333,4,2,1,70,0,0
35462,-83.3333333333333,4,2,1,70,0,0
35862,-83.3333333333333,4,2,1,70,0,0
36262,-83.3333333333333,4,2,1,70,0,0
36562,-83.3333333333333,4,2,1,70,0,0
36862,-83.3333333333333,4,2,1,70,0,0
37062,-66.6666666666667,4,2,1,70,0,0
38662,-83.3333333333333,4,2,1,70,0,0
39662,-83.3333333333333,4,2,1,70,0,0
40262,-111.111111111111,4,2,1,70,0,0
51462,-111.111111111111,4,2,1,70,0,0
51662,-66.6666666666667,4,2,1,20,0,0
51762,-133.333333333333,4,2,1,30,0,0
52462,-133.333333333333,4,2,0,70,0,0
53062,-100,4,2,1,70,0,0
59462,-90.9090909090909,4,2,1,70,0,0
60062,-100,4,2,1,70,0,0
65462,-66.6666666666667,4,2,1,70,0,0
65862,-100,4,2,1,70,0,0
66062,-66.6666666666667,4,2,1,70,0,0
66262,-100,4,2,1,70,0,0
73862,-100,4,2,1,70,0,0
78662,-133.333333333333,4,2,1,70,0,0
79562,-133.333333333333,4,2,0,70,0,0
80262,-83.3333333333333,4,2,1,70,0,0
80662,-66.6666666666667,4,2,1,70,0,0
81862,-133.333333333333,4,2,1,70,0,0
84262,-100,4,2,1,70,0,0
85062,-133.333333333333,4,2,1,70,0,0
85362,-133.333333333333,4,2,1,5,0,0
85462,-133.333333333333,4,2,1,70,0,0
85762,-133.333333333333,4,2,1,5,0,0
85862,-133.333333333333,4,2,1,70,0,0
86162,-133.333333333333,4,2,1,5,0,0
86262,-133.333333333333,4,2,1,70,0,0
86562,-133.333333333333,4,2,1,5,0,0
86662,-133.333333333333,4,2,1,70,0,0
86962,-133.333333333333,4,2,1,5,0,0
87062,-133.333333333333,4,2,1,70,0,0
87362,-133.333333333333,4,2,1,5,0,0
87462,-133.333333333333,4,2,1,70,0,0
87762,-133.333333333333,4,2,1,5,0,0
87862,-133.333333333333,4,2,1,70,0,0
88162,-133.333333333333,4,2,1,5,0,0
88262,-100,4,2,1,70,0,0
89862,-200,4,2,1,70,0,0
89887,-200,4,2,1,20,0,0
90062,-200,4,2,0,30,0,0
90262,-200,4,2,1,40,0,0
90462,-133.333333333333,4,2,0,50,0,0
90662,-133.333333333333,4,2,1,60,0,0
90762,-133.333333333333,4,2,1,5,0,0
90862,-133.333333333333,4,2,0,70,0,0
91062,-133.333333333333,4,2,1,80,0,0
91262,-133.333333333333,4,2,1,20,0,0
91462,-133.333333333333,4,2,1,80,0,0
91762,-166.666666666667,4,2,0,40,0,0
92062,-166.666666666667,4,2,0,20,0,0
92262,-50,4,2,1,70,0,0
93062,-71.4285714285714,4,2,1,80,0,1
96262,-71.4285714285714,4,2,1,80,0,1
97862,-71.4285714285714,4,2,1,80,0,1
99462,-71.4285714285714,4,2,1,80,0,1
102662,-71.4285714285714,4,2,1,80,0,1
104262,-71.4285714285714,4,2,1,80,0,1
105462,-71.4285714285714,4,2,1,80,0,1
105862,-71.4285714285714,4,2,1,80,0,1
107462,-71.4285714285714,4,2,1,80,0,1
109062,-71.4285714285714,4,2,1,80,0,1
109462,-71.4285714285714,4,2,1,80,0,1
109662,-71.4285714285714,4,2,1,80,0,1
109862,-71.4285714285714,4,2,1,80,0,1
110262,-71.4285714285714,4,2,1,80,0,1
110462,-71.4285714285714,4,2,1,80,0,1
112262,-71.4285714285714,4,2,1,80,0,1
114262,-71.4285714285714,4,2,1,80,0,1
114662,-71.4285714285714,4,2,1,80,0,1
115062,-71.4285714285714,4,2,1,80,0,1
115462,-55.5555555555556,4,2,1,80,0,1
115859,-55.5555555555556,4,2,1,70,0,1
116262,-55.5555555555556,4,2,1,70,0,1
116662,-55.5555555555556,4,2,1,70,0,1
118562,-55.5555555555556,4,2,0,70,0,0

[Colours]
Combo1 : 255,255,0
Combo2 : 255,128,192
Combo3 : 128,128,255
Combo4 : 128,255,128
Combo5 : 255,255,128
Combo6 : 255,0,255
Combo7 : 128,0,255
Combo8 : 0,255,64

[HitObjects]
123,315,1062,5,0,0:0:0:0:
73,175,1462,1,2,0:0:0:0:
8,318,1862,6,0,B|137:311|50:375|225:352,1,216.000008239746,4|0,3:2|3:3,0:0:0:0:
264,303,2662,6,0,B|257:193|306:251|309:117,1,192,8|0,0:1|0:0,0:0:0:0:
268,31,3262,1,0,3:3:0:0:
446,53,3462,6,0,B|495:80|495:80|394:68|265:143,1,249.599988574219,0|0,3:0|0:0,0:0:0:0:
130,161,4062,69,0,3:3:0:0:
59,111,4262,2,0,P|30:74|27:27,1,96,8|0,0:1|3:3,0:0:0:0:
200,13,4662,2,0,P|147:64|146:118,1,96,0|0,0:0|3:3,0:0:0:0:
159,231,5062,6,0,B|120:245|85:222|85:222|119:245|127:258|127:258|144:283|143:350,1,216.000008239746,4|0,3:2|3:3,0:0:0:0:
49,291,5862,6,0,P|121:298|235:384,1,192,8|0,0:1|0:0,0:0:0:0:
130,163,6462,1,0,3:3:0:0:
236,237,6662,6,0,P|306:259|403:246,1,144.000005493164,0|0,3:0|0:0,0:0:0:0:
467,40,7262,69,0,3:0:0:0:
400,114,7462,2,0,P|430:143|445:183,1,72.0000027465821,8|0,0:1|3:0,0:0:0:0:
362,332,7862,5,8,0:1:0:0:
304,279,7962,1,8,0:1:0:0:
376,255,8062,1,0,3:3:0:0:
500,358,8262,6,0,B|416:364|449:318|346:334,1,144.000005493164,4|0,3:2|0:0,0:0:0:0:
140,361,8862,1,0,3:3:0:0:
129,196,9062,6,0,B|167:205|191:231|165:302|135:270|126:321|142:371,1,192,8|0,0:1|0:0,0:0:0:0:
238,251,9662,1,0,3:3:0:0:
95,50,9862,70,0,B|116:94|111:154|18:105|16:206|65:231|104:228|130:193,1,249.599988574219,0|0,3:0|0:0,0:0:0:0:
290,364,10462,1,0,3:3:0:0:
187,150,10662,5,8,0:1:0:0:
284,268,10862,1,0,3:3:0:0:
458,153,11062,5,8,0:1:0:0:
359,276,11262,1,0,3:3:0:0:
344,162,11462,6,0,B|265:281|363:250|289:363,1,216.000008239746,4|0,3:1|3:0,0:0:0:0:
140,380,12262,70,0,P|88:380|15:253,1,192,8|0,0:1|0:0,0:0:0:0:
105,293,12862,1,0,3:3:0:0:
68,212,13062,2,0,P|120:212|193:339,1,192,0|0,3:0|0:0,0:0:0:0:
101,124,13662,5,0,3:3:0:0:
187,95,13862,2,0,L|205:-7,1,96,8|0,0:1|3:3,0:0:0:0:
281,174,14262,5,8,0:1:0:0:
251,245,14362,1,8,0:1:0:0:
276,317,14462,1,0,3:3:0:0:
475,203,14662,6,0,P|466:129|414:45,1,144,4|0,1:2|0:0,0:0:0:0:
475,203,15062,2,0,P|420:152|326:121,1,144,0|0,1:0|0:0,0:0:0:0:
362,36,15462,70,0,L|203:72,1,144,2|0,1:2|0:0,0:0:0:0:
202,141,15862,2,0,L|61:109,1,144,2|2,1:2|0:2,0:0:0:0:
26,194,16262,6,0,P|35:268|87:352,1,144,0|0,1:2|0:0,0:0:0:0:
26,194,16662,2,0,P|81:245|175:276,1,144,0|0,1:2|0:0,0:0:0:0:
150,365,17062,6,0,L|309:329,1,144,2|0,1:2|0:0,0:0:0:0:
310,260,17462,2,0,L|450:291,1,144,2|0,1:2|0:0,0:0:0:0:
455,187,17862,6,0,B|437:96|500:132|481:17,1,144,2|0,1:2|0:0,0:0:0:0:
455,187,18262,2,0,B|377:135|447:116|353:48,1,144,2|0,1:2|0:0,0:0:0:0:
333,139,18662,70,0,P|275:163|204:114,1,144,2|0,1:2|0:0,0:0:0:0:
189,47,19062,2,0,P|131:23|60:72,1,144,2|0,1:2|0:0,0:0:0:0:
117,149,19462,6,0,B|99:240|162:204|143:319,1,144,2|0,1:2|0:0,0:0:0:0:
117,149,19862,2,0,B|39:200|109:219|15:287,1,144,0|0,1:0|0:0,0:0:0:0:
90,356,20262,6,0,P|148:380|219:331,1,144,2|0,1:2|0:0,0:0:0:0:
234,264,20662,2,0,P|292:240|363:289,1,144,0|0,1:2|0:0,0:0:0:0:
421,383,21062,5,2,1:2:0:0:
338,362,21262,1,0,1:0:0:0:
357,278,21462,1,0,1:0:0:0:
438,300,21662,1,0,1:0:0:0:
301,165,21862,69,2,1:2:0:0:
210,192,22062,1,0,1:0:0:0:
190,99,22262,1,0,1:0:0:0:
278,72,22462,1,0,1:0:0:0:
402,112,22662,5,2,1:2:0:0:
301,165,22862,1,0,1:0:0:0:
104,131,23062,1,2,1:2:0:0:
210,192,23262,1,0,1:0:0:0:
448,186,23462,5,2,1:2:0:0:
346,239,23662,1,0,1:0:0:0:
61,198,23862,1,2,1:2:0:0:
167,259,24062,1,0,1:0:0:0:
483,313,24262,22,0,B|397:305|430:357|330:346,1,144.000005493164,4|2,0:3|3:2,0:0:0:0:
459,25,24662,6,0,B|451:111|503:78|492:178,1,144.000005493164,4|2,0:3|3:2,0:0:0:0:
156,57,25062,6,0,B|242:65|209:13|309:24,1,144.000005493164,4|2,0:3|3:2,0:0:0:0:
193,336,25462,6,0,B|201:250|149:283|160:183,1,144.000005493164,4|2,0:3|3:2,0:0:0:0:
346,165,25862,53,2,0:0:0:0:
259,181,26062,2,0,L|235:211,1,24,0|0,0:0|0:0,0:0:0:0:
158,200,26262,1,0,0:0:0:0:
75,208,26462,2,0,L|51:238,1,24,0|0,0:0|0:0,0:0:0:0:
45,312,26662,69,2,3:2:0:0:
50,318,26762,1,0,3:2:0:0:
54,323,26862,1,0,3:2:0:0:
59,326,26962,1,0,3:2:0:0:
64,327,27062,5,2,3:2:0:0:
108,309,27162,1,2,0:1:0:0:
155,303,27262,1,2,3:1:0:0:
203,310,27362,1,2,0:0:0:0:
257,366,27462,6,0,B|316:357|293:390|370:378,1,115.199996484375,4|2,3:2|0:1,0:0:0:0:
478,197,27762,1,2,0:1:0:0:
401,216,27862,6,0,B|434:265|394:258|437:323,1,115.199996484375,8|0,1:0|0:0,0:0:0:0:
236,210,28162,1,0,0:0:0:0:
294,252,28262,70,0,B|343:218|336:258|401:215,1,115.199996484375,2|2,3:1|0:1,0:0:0:0:
398,49,28562,1,2,0:1:0:0:
437,109,28662,6,0,B|403:158|443:151|400:216,1,115.199996484375,0|2,0:0|0:1,0:0:0:0:
436,322,28962,1,0,0:0:0:0:
425,335,29062,1,0,3:2:0:0:
232,336,29262,1,2,0:1:0:0:
221,349,29362,1,2,0:1:0:0:
154,371,29462,6,0,B|110:306|150:313|117:263,1,115.199996484375,8|0,1:0|0:0,0:0:0:0:
16,155,29762,1,2,0:1:0:0:
10,227,29862,6,0,B|74:270|67:230|117:263,1,115.199996484375,2|2,3:1|0:1,0:0:0:0:
232,241,30162,1,2,3:1:0:0:
224,256,30262,1,0,0:0:0:0:
136,99,30462,1,2,3:1:0:0:
144,114,30562,1,0,0:0:0:0:
218,115,30662,70,0,B|262:50|222:57|255:7,1,115.199996484375,0|2,3:2|0:1,0:0:0:0:
431,16,30962,1,2,0:1:0:0:
360,44,31062,6,0,B|311:11|318:51|253:7,1,115.199996484375,8|0,1:0|0:0,0:0:0:0:
338,198,31362,1,2,0:1:0:0:
396,150,31462,6,0,B|363:101|403:108|359:43,1,115.199996484375,2|2,3:1|0:1,0:0:0:0:
486,269,31762,1,2,0:1:0:0:
445,208,31862,6,0,B|489:143|449:150|482:101,1,115.199996484375,0|2,0:0|0:1,0:0:0:0:
390,272,32162,1,0,0:0:0:0:
486,269,32262,2,0,L|471:346,2,57.5999982421876,0|0|2,3:2|0:0|0:1,0:0:0:0:
427,379,32662,70,0,B|383:314|423:321|390:272,1,115.199996484375,8|0,1:0|0:0,0:0:0:0:
205,189,33062,5,8,1:0:0:0:
239,265,33162,1,8,1:0:0:0:
197,189,33262,1,0,3:0:0:0:
208,347,33462,5,10,1:1:0:0:
233,113,33662,1,2,3:1:0:0:
125,12,33862,6,0,B|169:77|129:70|162:119,1,115.199996484375,4|2,3:2|0:1,0:0:0:0:
5,105,34162,1,2,0:1:0:0:
55,155,34262,70,0,B|120:111|113:151|162:118,1,115.199996484375,8|0,1:0|0:0,0:0:0:0:
323,108,34562,1,2,0:1:0:0:
268,154,34662,6,0,B|203:110|210:150|161:117,1,115.199996484375,2|2,3:1|0:1,0:0:0:0:
272,319,34962,1,2,0:1:0:0:
231,260,35062,6,0,B|275:195|235:202|268:153,1,115.199996484375,0|2,0:0|0:1,0:0:0:0:
323,108,35362,1,0,0:0:0:0:
334,95,35462,1,0,3:2:0:0:
491,331,35662,1,2,0:1:0:0:
480,344,35762,1,2,0:1:0:0:
406,339,35862,6,0,B|362:274|402:281|369:232,1,115.199996484375,8|0,1:0|0:0,0:0:0:0:
460,264,36162,1,2,0:1:0:0:
494,198,36262,70,0,B|429:154|436:194|387:161,1,115.199996484375,0|0,3:0|0:0,0:0:0:0:
506,110,36562,1,2,0:1:0:0:
483,35,36662,6,0,B|405:49|439:73|381:84,1,115.199996484375,0|2,0:0|0:1,0:0:0:0:
183,172,36962,1,0,0:0:0:0:
246,133,37062,38,0,B|248:43|195:82|205:-22,1,144.000005493164,4|2,1:3|3:1,0:0:0:0:
278,260,37462,2,0,B|276:171|329:210|320:128,1,144.000005493164,4|0,1:3|3:1,0:0:0:0:
62,29,37862,2,0,B|53:111|106:72|105:161,1,144.000005493164,4|0,1:3|3:0,0:0:0:0:
447,26,38262,2,0,B|456:109|403:70|405:158,1,144.000005493164,4|0,1:3|3:0,0:0:0:0:
421,331,38662,5,8,1:0:0:0:
302,205,38862,1,8,1:0:0:0:
158,301,39062,1,4,1:2:0:0:
16,201,39262,1,8,1:1:0:0:
27,287,39462,37,0,1:0:0:0:
34,306,39562,1,0,1:0:0:0:
40,325,39662,1,0,3:3:0:0:
140,116,39862,2,0,P|153:46|119:4,1,115.199996484375,8|0,1:0|3:3,0:0:0:0:
87,202,40262,6,0,B|134:289|76:269|144:378,1,172.799994726563,4|0,3:1|0:0,0:0:0:0:
87,202,40862,5,0,3:0:0:0:
179,205,41062,2,0,P|222:195|255:148,1,86.3999973632813,8|0,0:1|0:0,0:0:0:0:
392,81,41462,2,0,P|363:21|304:8,1,129.599996044922,2|0,0:0|0:0,0:0:0:0:
271,75,41862,6,0,B|318:162|260:142|328:251,1,172.799994726563,2|0,3:2|0:0,0:0:0:0:
500,166,42462,69,0,3:3:0:0:
468,244,42662,2,0,P|421:237|388:190,1,86.3999973632813,8|0,0:1|0:0,0:0:0:0:
165,151,43062,2,0,P|193:91|253:78,1,129.599996044922,2|0,3:2|0:0,0:0:0:0:
302,141,43462,22,0,B|244:221|304:215|245:317,1,172.799994726563,2|0,3:2|0:0,0:0:0:0:
461,89,44062,5,0,3:3:0:0:
407,21,44262,2,0,P|364:31|331:78,1,86.3999973632813,8|0,0:1|0:3,0:0:0:0:
208,183,44662,2,0,P|236:243|296:256,1,129.599996044922,0|0,3:3|0:0,0:0:0:0:
371,226,45062,70,0,B|339:183|369:182|324:120,1,86.3999973632813,2|0,3:2|0:0,0:0:0:0:
266,102,45362,1,0,3:0:0:0:
242,90,45462,1,0,3:0:0:0:
411,384,45662,5,0,3:0:0:0:
471,350,45762,1,0,3:0:0:0:
438,288,45862,1,8,0:1:0:0:
377,321,45962,1,0,3:0:0:0:
98,315,46162,5,0,3:1:0:0:
110,339,46262,1,8,0:1:0:0:
94,171,46462,1,0,3:3:0:0:
46,109,46662,6,0,B|-10:185|62:188|-10:284,1,172.799994726563,6|0,3:2|0:0,0:0:0:0:
92,38,47262,1,0,3:3:0:0:
188,268,47462,2,0,B|132:192|204:189|132:93,1,172.799994726563,8|0,0:1|0:0,0:0:0:0:
20,276,48262,70,0,B|110:304|89:235|203:271,1,172.799994726563,2|0,3:2|0:0,0:0:0:0:
57,200,48862,1,0,3:2:0:0:
186,374,49062,2,0,B|95:402|116:333|2:369,1,172.799994726563,8|0,0:1|3:0,0:0:0:0:
428,186,49862,5,0,3:0:0:0:
444,110,50262,1,0,3:0:0:0:
424,34,50662,5,8,0:1:0:0:
446,261,50862,1,8,0:1:0:0:
291,251,51062,1,8,0:1:0:0:
363,227,51162,1,8,0:1:0:0:
305,174,51262,1,0,3:3:0:0:
231,311,51462,1,4,3:3:0:0:
231,311,52262,85,0,0:0:0:0:
231,311,52562,5,0,0:0:0:0:
220,325,52662,1,2,3:0:0:0:
191,287,52762,1,2,3:0:0:0:
180,301,52862,1,2,3:0:0:0:
22,346,53062,6,0,P|67:345|133:380,1,96,4|0,3:2|0:0,0:0:0:0:
41,166,53462,2,0,B|59:219|29:201|46:260,2,96,8|2|0,1:0|0:2|3:0,0:0:0:0:
11,80,54062,1,2,0:2:0:0:
101,49,54262,1,8,1:0:0:0:
189,86,54462,1,2,0:0:0:0:
267,147,54662,6,0,B|300:194|261:190|299:257,1,96,0|2,3:0|2:0,0:0:0:0:
383,258,55062,2,0,B|407:205|423:241|462:175,1,96,8|2,1:0|2:0,0:0:0:0:
420,101,55462,2,0,B|362:106|385:74|308:73,1,96,0|0,3:0|0:0,0:0:0:0:
274,26,55762,1,0,3:0:0:0:
329,74,55862,1,8,1:0:0:0:
484,56,56062,1,0,3:0:0:0:
450,192,56262,70,0,B|493:228|453:230|503:291,1,96,0|0,3:0|0:0,0:0:0:0:
372,335,56662,2,0,B|410:289|370:287|405:244,1,96,8|2,1:0|0:2,0:0:0:0:
362,168,57062,5,0,3:0:0:0:
290,232,57262,1,2,0:2:0:0:
239,366,57462,5,8,1:0:0:0:
132,206,57662,1,2,0:0:0:0:
248,19,57862,5,2,3:2:0:0:
240,51,57962,1,2,0:0:0:0:
233,84,58062,1,2,0:0:0:0:
143,82,58262,69,8,1:0:0:0:
149,96,58362,1,2,0:0:0:0:
156,109,58462,1,2,0:0:0:0:
136,287,58662,5,8,1:1:0:0:
73,330,58762,1,8,1:1:0:0:
66,251,58862,1,0,3:0:0:0:
349,344,59062,6,0,P|319:349|281:375,1,64,8|0,1:0|0:0,0:0:0:0:
297,381,59262,2,0,P|327:376|365:350,1,64,0|0,1:0|0:0,0:0:0:0:
371,358,59462,6,0,B|360:298|391:315|380:229,1,105.600003222656,4|0,3:2|0:0,0:0:0:0:
512,140,59862,2,0,B|475:189|465:155|430:205,2,105.600003222656,8|2|0,1:0|0:0|3:0,0:0:0:0:
382,0,60462,69,2,0:0:0:0:
451,104,60662,2,0,P|461:53|470:-3,1,96,8|2,1:0|0:0,0:0:0:0:
314,99,61062,2,0,P|305:52|296:4,1,96,0|2,3:0|0:0,0:0:0:0:
394,149,61462,5,8,1:0:0:0:
382,244,61662,1,2,0:0:0:0:
419,332,61862,1,0,3:0:0:0:
454,242,62062,1,0,0:0:0:0:
314,259,62262,1,8,1:0:0:0:
285,265,62362,1,0,0:0:0:0:
258,274,62462,1,2,2:2:0:0:
232,286,62562,1,0,0:0:0:0:
178,251,62662,6,0,B|171:306|200:286|198:373,1,96,2|2,3:2|2:2,0:0:0:0:
34,358,63062,2,0,L|144:339,2,96,8|2|0,1:0|0:0|3:0,0:0:0:0:
16,216,63662,1,2,2:0:0:0:
105,221,63862,2,0,B|63:252|88:263|28:287,1,96,8|2,1:0|2:0,0:0:0:0:
3,123,64262,5,0,0:0:0:0:
15,97,64362,1,0,0:0:0:0:
23,69,64462,1,2,2:0:0:0:
28,40,64562,1,0,0:0:0:0:
96,35,64662,69,8,1:0:0:0:
101,63,64762,1,0,0:0:0:0:
109,91,64862,1,0,0:0:0:0:
121,117,64962,1,2,2:0:0:0:
169,175,65062,6,0,B|228:104|161:116|234:24,1,144,0|8,3:0|1:0,0:0:0:0:
289,28,65462,21,8,1:0:0:0:
303,223,65662,1,8,1:0:0:0:
289,28,65862,54,0,B|303:46|303:46|312:94,1,48,0|0,1:0|1:0,0:0:0:0:
321,180,66062,2,0,B|307:198|307:198|298:246,1,48,4|0,3:2|0:0,0:0:0:0:
366,384,66262,6,0,B|336:330|375:341|341:263,1,96,4|0,3:2|0:0,0:0:0:0:
418,221,66662,1,2,3:2:0:0:
447,129,66862,1,0,0:0:0:0:
218,35,67062,1,8,1:0:0:0:
247,127,67262,1,2,0:0:0:0:
283,292,67462,6,0,B|283:236|322:262|308:173,1,96,0|2,0:0|0:0,0:0:0:0:
136,373,67862,2,0,B|192:373|166:334|255:348,1,96,8|2,1:0|0:0,0:0:0:0:
198,252,68262,1,0,3:0:0:0:
124,190,68462,1,2,0:0:0:0:
126,94,68662,1,8,1:0:0:0:
188,21,68862,1,2,2:0:0:0:
24,54,69062,6,0,P|40:98|56:163,1,96,0|2,3:0|0:0,0:0:0:0:
122,272,69462,2,0,B|65:287|88:242|9:261,1,96,8|0,1:0|0:0,0:0:0:0:
65,346,69862,1,0,3:0:0:0:
160,343,70062,1,0,0:0:0:0:
216,265,70262,1,8,1:0:0:0:
160,343,70462,1,2,0:0:0:0:
200,175,70662,5,0,0:0:0:0:
192,143,70762,1,0,0:0:0:0:
185,110,70862,1,2,0:0:0:0:
107,78,71062,69,8,1:0:0:0:
112,56,71162,1,0,0:0:0:0:
117,33,71262,1,2,0:0:0:0:
31,27,71462,5,0,3:0:0:0:
28,14,71562,1,0,0:0:0:0:
25,0,71662,1,2,2:2:0:0:
116,234,71862,5,8,1:0:0:0:
427,154,72062,1,0,3:0:0:0:
356,344,72262,6,0,B|301:243|385:249|282:140,1,192,0|8,3:0|1:0,0:0:0:0:
267,232,72862,1,0,0:0:0:0:
167,348,73062,2,0,B|248:263|164:269|218:168,1,192,0|8,3:0|1:0,0:0:0:0:
267,232,73662,1,2,0:0:0:0:
428,154,73862,70,0,P|479:108|482:17,1,144,0|0,3:0|0:0,0:0:0:0:
363,34,74262,2,0,P|375:100|446:162,1,144,8|0,1:0|0:0,0:0:0:0:
440,223,74662,6,0,P|490:273|504:343,1,144,0|0,3:0|0:0,0:0:0:0:
380,342,75062,2,0,P|389:272|440:224,1,144,8|0,1:0|0:0,0:0:0:0:
341,152,75462,5,2,3:2:0:0:
320,178,75562,1,2,2:0:0:0:
349,181,75662,1,2,2:0:0:0:
203,212,75862,5,8,1:0:0:0:
210,234,75962,1,2,2:2:0:0:
222,217,76062,1,2,2:0:0:0:
110,150,76262,69,0,3:0:0:0:
123,153,76362,1,2,0:0:0:0:
118,140,76462,1,2,0:0:0:0:
18,277,76662,5,8,1:0:0:0:
45,268,76762,1,0,0:0:0:0:
73,271,76862,1,2,0:0:0:0:
102,267,76962,1,2,0:0:0:0:
171,303,77062,6,0,B|152:319|152:319|149:375,2,64,2|0|0,3:2|0:0|0:0,0:0:0:0:
222,245,77462,2,0,B|217:220|217:220|170:189,2,64,8|0|0,1:0|0:0|0:0,0:0:0:0:
246,313,77862,2,0,B|269:321|269:321|319:296,2,64,2|0|0,3:2|0:0|0:0,0:0:0:0:
321,234,78262,69,8,1:0:0:0:
385,283,78362,1,8,1:0:0:0:
466,273,78462,1,8,1:0:0:0:
507,197,78562,1,8,1:0:0:0:
491,117,78662,6,0,B|448:87|391:98|409:148|357:139,1,144.000005493164,4|0,3:2|0:0,0:0:0:0:
450,19,79262,1,0,3:3:0:0:
344,24,79462,6,0,B|355:42|355:42|343:84,1,48.0000018310548,8|0,1:0|0:0,0:0:0:0:
292,133,79728,2,0,B|270:133|270:133|240:102,1,48.0000018310548,0|0,3:0|0:0,0:0:0:0:
229,35,79995,2,0,B|239:16|239:16|281:5,1,48.0000018310548,0|0,3:0|0:0,0:0:0:0:
71,80,80262,6,0,P|35:46|119:16,1,172.799994726563,0|0,3:0|0:0,0:0:0:0:
146,73,80662,1,2,0:0:0:0:
111,231,80862,2,0,L|93:162,1,72.0000027465821,0|0,0:0|0:0,0:0:0:0:
75,347,81062,70,0,B|16:301|66:239|126:222|185:247|139:368|286:365|286:365|232:348|224:271,1,432.000016479493,8|0,0:1|3:0,0:0:0:0:
341,160,81862,6,0,B|289:224|347:228|296:314,1,144.000005493164,0|0,3:0|0:0,0:0:0:0:
368,375,82462,1,0,3:0:0:0:
435,143,82662,5,8,0:1:0:0:
192,218,82862,1,8,0:1:0:0:
252,36,83062,2,0,B|281:90|237:80|274:167,1,108.000004119873,0|0,3:0|0:0,0:0:0:0:
264,141,83462,5,0,3:0:0:0:
331,180,83662,1,2,0:1:0:0:
358,246,83862,1,0,0:0:0:0:
479,87,84062,5,2,3:1:0:0:
497,165,84262,2,0,P|456:173|395:194,1,96,8|2,0:1|3:1,0:0:0:0:
396,384,84662,69,8,0:1:0:0:
462,345,84762,1,8,0:1:0:0:
396,309,84862,1,0,3:0:0:0:
227,289,85062,6,0,L|109:312,1,108.000004119873,4|0,3:3|0:0,0:0:0:0:
123,323,85462,2,0,L|241:300,1,108.000004119873,4|0,3:3|0:0,0:0:0:0:
301,287,85862,6,0,L|324:169,1,108.000004119873,4|0,3:3|0:0,0:0:0:0:
335,183,86262,2,0,L|312:301,1,108.000004119873,4|0,3:3|0:0,0:0:0:0:
373,341,86662,6,0,L|491:364,1,108.000004119873,4|0,3:3|0:0,0:0:0:0:
477,375,87062,2,0,L|359:352,1,108.000004119873,4|0,3:3|0:0,0:0:0:0:
314,289,87462,70,0,L|335:183,1,108.000004119873,4|0,3:3|0:0,0:0:0:0:
321,180,87862,2,0,L|301:287,1,108.000004119873,4|0,3:3|0:0,0:0:0:0:
287,360,88262,5,0,3:0:0:0:
238,165,88462,1,0,3:0:0:0:
133,294,88662,5,8,0:1:0:0:
386,230,88862,1,0,3:0:0:0:
473,95,89062,21,0,3:0:0:0:
418,49,89162,1,0,3:0:0:0:
347,39,89262,1,0,3:0:0:0:
281,65,89362,1,0,3:0:0:0:
238,122,89462,1,0,3:0:0:0:
196,178,89562,1,0,3:0:0:0:
130,205,89662,1,0,3:0:0:0:
59,195,89762,1,0,3:0:0:0:
48,199,89862,54,0,L|34:141,2,48,2|0|0,0:0|0:0|0:0,0:0:0:0:
36,322,90462,6,0,B|103:329|77:292|152:301,1,108.000004119873,0|0,0:0|0:0,0:0:0:0:
208,301,90862,2,0,B|286:302|243:343|351:343,1,144.000005493164,0|0,0:0|0:0,0:0:0:0:
175,367,91462,1,8,0:0:0:0:
175,367,92262,5,8,0:1:0:0:
192,238,92462,1,0,0:1:0:0:
125,111,92662,5,8,0:1:0:0:
131,97,92762,1,8,0:1:0:0:
189,45,92862,69,8,0:1:0:0:
195,31,92962,1,8,0:1:0:0:
116,23,93062,6,0,B|138:106|178:44|213:183,1,134.399995898438,4|2,3:1|0:1,0:0:0:0:
309,203,93362,1,0,0:0:0:0:
267,130,93462,6,0,B|289:46|329:108|364:-30,1,134.399995898438,8|0,1:0|0:0,0:0:0:0:
419,96,93762,1,2,0:1:0:0:
390,173,93862,6,0,B|418:289|474:221|496:349,1,201.599993847656,2|2,3:1|0:1,0:0:0:0:
395,335,94262,2,0,B|423:218|479:286|501:159,1,201.599993847656,8|0,1:0|0:2,0:0:0:0:
390,173,94662,70,0,B|304:150|339:210|237:185,1,134.399995898438,0|2,3:2|0:1,0:0:0:0:
300,96,94962,1,2,0:1:0:0:
196,148,95062,6,0,B|257:85|188:85|261:9,1,134.399995898438,8|2,1:0|0:1,0:0:0:0:
300,96,95362,1,2,0:0:0:0:
343,3,95462,6,0,B|366:88|401:27|430:128,1,134.399995898438,2|2,3:1|0:0,0:0:0:0:
500,170,95762,1,2,0:1:0:0:
462,230,95862,6,0,B|464:266|480:251|478:301,1,67.1999979492188,8|2,1:0|0:0,0:0:0:0:
391,356,96062,2,0,B|393:320|409:335|407:285,1,67.1999979492188,2|2,0:1|0:0,0:0:0:0:
335,283,96262,70,0,B|247:291|300:335|196:347,1,134.399995898438,0|2,3:2|0:1,0:0:0:0:
109,256,96562,1,0,0:0:0:0:
152,154,96662,6,0,B|160:241|204:188|216:292,1,134.399995898438,8|0,1:0|0:0,0:0:0:0:
109,256,96962,1,2,0:2:0:0:
22,311,97062,6,0,B|141:323|96:247|223:270,1,201.599993847656,2|2,3:1|0:0,0:0:0:0:
219,343,97462,2,0,B|335:364|290:288|409:301,1,201.599993847656,8|2,1:0|0:2,0:0:0:0:
472,356,97862,6,0,B|471:278|516:321|511:209,1,134.399995898438,2|0,3:1|0:0,0:0:0:0:
484,127,98162,1,2,0:1:0:0:
396,224,98262,70,0,B|464:185|404:168|503:116,1,134.399995898438,8|0,1:0|0:0,0:0:0:0:
377,4,98562,1,2,0:1:0:0:
349,132,98662,6,0,B|388:64|328:79|388:-14,1,134.399995898438,2|0,3:1|0:0,0:0:0:0:
174,102,98962,1,2,0:1:0:0:
211,170,99062,6,0,B|247:168|232:152|282:154,1,67.1999979492188,8|2,1:1|0:1,0:0:0:0:
245,247,99262,2,0,B|281:249|266:265|316:263,1,67.1999979492188,0|2,3:0|0:1,0:0:0:0:
434,302,99462,6,0,B|356:303|399:258|287:263,1,134.399995898438,4|2,3:2|0:1,0:0:0:0:
501,261,99762,1,0,0:0:0:0:
425,229,99862,70,0,B|480:174|418:173|501:97,1,134.399995898438,8|0,1:0|0:0,0:0:0:0:
394,15,100162,1,2,0:1:0:0:
286,1,100262,6,0,B|389:80|292:77|394:178,1,201.599993847656,2|2,3:1|0:1,0:0:0:0:
384,168,100662,2,0,B|281:247|378:244|276:345,1,201.599993847656,8|0,1:0|0:2,0:0:0:0:
285,335,101062,2,0,B|182:256|279:259|177:158,1,201.599993847656,0|2,3:2|0:1,0:0:0:0:
186,167,101462,2,0,B|289:88|192:91|294:-10,1,201.599993847656,8|2,1:0|0:0,0:0:0:0:
157,39,101862,6,0,B|196:106|136:91|196:185,1,134.399995898438,2|2,3:1|0:0,0:0:0:0:
30,216,102162,1,2,0:1:0:0:
61,145,102262,6,0,B|129:183|69:200|168:252,1,134.399995898438,8|2,1:0|0:1,0:0:0:0:
315,312,102562,1,2,0:0:0:0:
257,359,102662,70,0,B|217:291|277:306|217:212,1,134.399995898438,0|2,3:2|0:1,0:0:0:0:
384,186,102962,1,0,0:0:0:0:
353,253,103062,6,0,B|284:214|344:197|245:145,1,134.399995898438,8|0,1:0|0:0,0:0:0:0:
427,45,103362,1,2,0:2:0:0:
434,117,103462,6,0,B|355:117|399:72|286:77,1,134.399995898438,2|2,3:1|0:0,0:0:0:0:
144,64,103762,1,2,0:0:0:0:
207,18,103862,6,0,B|228:47|204:50|239:95,1,67.1999979492188,8|2,1:0|0:1,0:0:0:0:
82,86,104062,2,0,B|110:65|113:89|159:54,1,67.1999979492188,2|2,0:1|0:2,0:0:0:0:
189,205,104262,70,0,B|188:126|233:170|228:57,1,134.399995898438,2|2,3:1|0:1,0:0:0:0:
41,164,104562,1,0,0:0:0:0:
112,199,104662,6,0,B|111:277|156:234|151:346,1,134.399995898438,8|0,1:1|0:0,0:0:0:0:
330,108,105062,5,10,1:0:0:0:
395,71,105162,1,8,1:0:0:0:
329,30,105262,1,0,3:1:0:0:
304,180,105462,2,0,B|322:211|299:208|328:260,1,67.1999979492188,8|0,1:1|0:0,0:0:0:0:
392,347,105662,2,0,B|410:316|387:319|416:267,1,67.1999979492188,0|0,3:1|0:0,0:0:0:0:
512,244,105862,6,0,B|435:246|475:206|376:213,1,134.399995898438,4|2,3:2|0:0,0:0:0:0:
320,244,106162,2,0,B|254:284|268:229|186:285,1,134.399995898438,4|2,3:3|0:0,0:0:0:0:
144,329,106462,1,4,3:0:0:0:
188,118,106662,69,8,1:0:0:0:
253,155,106762,1,8,1:0:0:0:
187,196,106862,1,2,3:2:0:0:
13,352,107062,2,0,B|113:263|96:372|213:260,1,201.599993847656,4|0,1:1|0:0,0:0:0:0:
187,196,107462,6,0,B|189:119|149:159|156:60,1,134.399995898438,4|2,3:2|0:0,0:0:0:0:
72,96,107762,2,0,B|112:162|57:148|113:230,1,134.399995898438,4|2,3:3|0:0,0:0:0:0:
187,196,108062,1,4,3:0:0:0:
272,293,108262,6,0,P|259:323|231:354,1,67.1999979492188,8|8,1:0|1:0,0:0:0:0:
254,160,108462,2,0,P|267:190|295:221,1,67.1999979492188,2|0,3:2|0:0,0:0:0:0:
422,290,108662,1,4,1:1:0:0:
348,270,108762,1,2,0:0:0:0:
424,296,108862,1,0,3:0:0:0:
479,52,109062,6,0,B|477:129|517:89|510:188,1,134.399995898438,4|2,1:2|0:0,0:0:0:0:
478,244,109362,2,0,B|438:310|493:296|437:378,1,134.399995898438,4|2,1:3|0:0,0:0:0:0:
362,362,109662,1,4,1:3:0:0:
288,382,109762,1,8,1:1:0:0:
364,356,109862,1,8,1:1:0:0:
441,160,110062,69,0,3:0:0:0:
394,272,110262,2,0,B|318:169|417:183|316:75,1,201.599993847656,4|0,2:3|0:0,0:0:0:0:
270,50,110662,5,4,1:2:0:0:
478,244,110862,1,2,0:0:0:0:
230,156,111062,5,2,0:3:0:0:
182,221,111162,1,2,0:3:0:0:
101,222,111262,1,2,0:3:0:0:
57,152,111362,1,2,0:3:0:0:
52,147,111462,5,0,1:0:0:0:
184,49,111662,1,0,1:0:0:0:
234,329,111862,69,0,1:1:0:0:
299,281,111962,1,0,1:1:0:0:
298,200,112062,1,0,1:1:0:0:
230,156,112162,1,0,1:1:0:0:
224,154,112262,6,0,B|222:77|262:117|255:18,1,134.399995898438,4|2,3:2|0:0,0:0:0:0:
132,155,112562,1,2,0:0:0:0:
138,153,112662,6,0,B|140:76|100:116|107:17,1,134.399995898438,8|2,1:0|0:0,0:0:0:0:
142,292,112962,1,0,0:0:0:0:
135,296,113062,6,0,B|74:248|131:243|50:184,1,134.399995898438,0|2,3:0|0:0,0:0:0:0:
221,292,113362,1,2,0:0:0:0:
228,290,113462,70,0,B|288:242|231:237|312:178,1,134.399995898438,8|2,1:0|0:0,0:0:0:0:
238,0,113862,6,0,B|314:103|215:89|316:197,1,201.599993847656,4|2,3:2|0:0,0:0:0:0:
303,183,114262,2,0,B|354:65|391:158|434:16,1,201.599993847656,8|2,1:0|0:0,0:0:0:0:
429,34,114662,2,0,B|301:48|363:-30|219:3,1,201.599993847656,0|2,3:0|0:0,0:0:0:0:
237,0,115062,2,0,B|109:-14|171:64|27:30,1,201.599993847656,8|2,1:0|0:0,0:0:0:0:
45,34,115462,6,0,B|97:146|34:112|85:231,1,172.799994726563,4|0,1:3|3:0,0:0:0:0:
327,372,115862,2,0,B|275:260|338:294|287:175,1,172.799994726563,4|0,1:3|3:0,0:0:0:0:
45,34,116262,6,0,B|97:146|34:112|85:231,1,172.799994726563,4|0,1:3|3:0,0:0:0:0:
327,372,116662,2,0,B|275:260|338:294|287:175,1,172.799994726563,4|0,1:3|3:0,0:0:0:0:
155,303,117062,5,0,3:0:0:0:
298,206,117262,1,0,3:0:0:0:
203,61,117462,1,0,3:0:0:0:
60,158,117662,1,0,3:0:0:0:
155,303,117862,5,0,3:0:0:0:
212,340,117962,1,0,3:0:0:0:
280,330,118062,1,2,3:2:0:0:
327,279,118162,1,0,3:0:0:0:
395,284,118262,1,2,3:2:0:0:
432,225,118362,1,0,3:0:0:0:
378,181,118462,1,2,3:2:0:0:
314,208,118562,1,2,1:2:0:0:
