osu file format v14

[General]
AudioFilename: BRAVE OUT.mp3
AudioLeadIn: 0
PreviewTime: 92162
Countdown: 0
SampleSet: Soft
StackLeniency: 0.4
Mode: 0
LetterboxInBreaks: 0
WidescreenStoryboard: 1

[Editor]
DistanceSpacing: 1.2
BeatDivisor: 4
GridSize: 4
TimelineZoom: 0.9

[Metadata]
Title:BRAVE OUT
TitleUnicode:BRAVE OUT
Artist:nomico / DOWNFORCE
ArtistUnicode:nomico / DOWNFORCE
Creator:yf_bmp
Version:Hyper
Source:beatmania IIDX 21 SPADA
Tags:Masayoshi Minoshima Alstroemeria Records electrance fanzhen0019 Gyro Zeppeli Rizia ZZHBOY [Emiria] LunaSaika Pata-Mon NeilPerry
BeatmapID:1192444
BeatmapSetID:332201

[Difficulty]
HPDrainRate:5
CircleSize:3.5
OverallDifficulty:6
ApproachRate:7
SliderMultiplier:1.4
SliderTickRate:1

[Events]
//Background and Video events
0,0,"BRAVE OUT.png",0,0
//Break Periods
//Storyboard Layer 0 (Background)
//Storyboard Layer 1 (Fail)
//Storyboard Layer 2 (Pass)
//Storyboard Layer 3 (Foreground)
//Storyboard Sound Samples

[TimingPoints]
262,400,4,2,0,70,1,0
1062,-133.333333333333,4,2,0,70,0,0
1862,-100,4,2,0,70,0,0
14662,-100,4,2,0,70,0,0
25862,-100,4,2,0,50,0,0
26662,-100,4,2,0,70,0,0
40262,-133.333333333333,4,2,0,70,0,0
51462,-133.333333333333,4,2,0,70,0,0
53062,-100,4,2,0,70,0,0
78662,-133.333333333333,4,2,0,70,0,0
85062,-100,4,2,0,70,0,0
89887,-100,4,2,1,20,0,0
90062,-100,4,2,0,30,0,0
90262,-100,4,2,1,40,0,0
90462,-100,4,2,0,50,0,0
90662,-100,4,2,1,60,0,0
90862,-100,4,2,0,70,0,0
91062,-100,4,2,1,80,0,0
91262,-100,4,2,1,20,0,0
91462,-100,4,2,0,80,0,0
92262,-100,4,2,0,70,0,0
93062,-100,4,2,0,80,0,1
105062,-100,4,2,0,80,0,0
105862,-83.3333333333333,4,2,0,80,0,1
112262,-100,4,2,0,80,0,1
118562,-90.9090909090909,4,2,0,70,0,0

[Colours]
Combo1 : 255,255,0
Combo2 : 255,128,192
Combo3 : 128,128,255
Combo4 : 128,255,128
Combo5 : 255,255,128
Combo6 : 255,0,255
Combo7 : 128,0,255
Combo8 : 0,255,64

[HitObjects]
426,58,1062,6,0,P|410:118|422:162,1,105.000004005432,0|0,0:0|0:0,0:0:0:0:
421,159,1862,6,0,P|392:97|321:88,1,140,4|0,1:2|0:0,0:0:0:0:
248,120,2462,1,4,0:3:0:0:
149,89,2662,2,0,P|137:69|133:25,2,46.6666666666667,0|2|2,0:0|0:3|0:3,0:0:0:0:
149,125,3062,2,0,P|143:147|131:167,2,46.6666666666667,0|2|2,0:0|0:3|0:3,0:0:0:0:
181,109,3462,6,0,L|271:121,1,70,0|0,1:2|0:0,0:0:0:0:
304,184,3862,2,0,P|306:223|292:268,1,70,0|4,0:0|0:3,0:0:0:0:
208,332,4262,1,0,1:3:0:0:
292,336,4462,2,0,P|366:304|380:240,1,140,4|4,0:3|0:3,0:0:0:0:
368,132,5062,1,4,1:2:0:0:
368,132,5462,1,0,0:0:0:0:
432,184,5662,1,4,0:3:0:0:
500,136,5862,2,0,P|512:104|505:66,1,70,0|0,1:0|0:0,0:0:0:0:
444,12,6262,2,0,L|361:22,1,70,0|4,0:0|0:3,0:0:0:0:
268,72,6662,6,0,P|185:71|148:20,1,140,4|2,0:3|0:2,0:0:0:0:
228,0,7262,1,4,0:3:0:0:
268,72,7462,2,0,L|256:152,1,70,0|4,1:0|0:3,0:0:0:0:
188,188,7862,1,0,1:0:0:0:
188,188,7962,1,0,1:0:0:0:
188,188,8062,1,0,1:0:0:0:
257,287,8262,6,0,B|380:268|308:360|448:337,1,210,4|4,1:2|0:3,0:0:0:0:
504,276,9062,2,0,P|512:244|511:205,1,70,0|0,1:0|0:0,0:0:0:0:
464,140,9462,1,0,0:0:0:0:
432,216,9662,1,4,0:3:0:0:
448,336,9862,6,0,B|372:320|396:376|314:360,1,140,4|0,0:3|0:0,0:0:0:0:
264,296,10462,1,4,0:3:0:0:
160,356,10662,1,0,1:0:0:0:
184,276,10862,1,4,0:3:0:0:
80,336,11062,2,0,P|68:300|68:256,1,70,0|4,1:0|0:3,0:0:0:0:
124,164,11462,6,0,P|204:240|300:208,1,210,4|4,0:0|0:3,0:0:0:0:
348,156,12262,1,0,1:0:0:0:
348,156,12662,2,0,P|312:136|272:136,1,70,0|4,0:3|0:3,0:0:0:0:
372,236,13062,6,0,P|441:232|500:196,1,140,0|0,1:0|0:0,0:0:0:0:
512,116,13662,1,4,0:3:0:0:
412,52,13862,1,0,1:0:0:0:
432,132,14062,1,4,0:3:0:0:
332,68,14262,1,0,1:0:0:0:
332,68,14362,1,0,1:0:0:0:
332,68,14462,1,4,0:3:0:0:
236,136,14662,6,0,P|162:135|104:88,1,140,4|0,1:2|1:0,0:0:0:0:
84,16,15262,1,0,0:0:0:0:
28,80,15462,2,0,P|30:121|48:156,1,70,2|0,1:2|0:0,0:0:0:0:
96,212,15862,2,0,L|184:224,1,70,2|2,1:2|0:2,0:0:0:0:
268,280,16262,6,0,P|341:279|400:232,1,140,0|0,1:2|1:0,0:0:0:0:
420,160,16862,1,0,0:0:0:0:
476,224,17062,2,0,P|473:265|456:300,1,70,0|2,1:0|0:2,0:0:0:0:
424,364,17462,2,0,L|340:364,1,70,2|2,1:2|0:2,0:0:0:0:
268,280,17862,6,0,P|249:216|264:124,1,140,2|0,1:2|1:0,0:0:0:0:
327,95,18462,1,0,0:0:0:0:
252,60,18662,2,0,L|157:50,1,70,2|0,1:2|0:0,0:0:0:0:
324,12,19062,2,0,L|419:2,1,70,2|0,1:2|0:0,0:0:0:0:
463,107,19462,6,0,P|393:114|327:95,1,140,2|0,1:2|1:0,0:0:0:0:
256,143,20062,1,0,0:0:0:0:
182,52,20262,5,2,1:2:0:0:
468,100,20662,1,2,1:2:0:0:
468,100,21062,5,2,1:2:0:0:
444,140,21262,1,0,1:0:0:0:
436,188,21462,1,2,1:2:0:0:
448,236,21662,1,0,1:0:0:0:
484,268,21862,5,2,1:2:0:0:
436,256,22062,1,0,1:0:0:0:
388,264,22262,1,2,1:2:0:0:
348,288,22462,1,0,1:0:0:0:
324,332,22662,6,0,L|245:311,1,70,2|0,1:2|1:0,0:0:0:0:
116,236,23062,2,0,L|192:206,1,70,2|0,1:2|1:0,0:0:0:0:
340,188,23462,2,0,L|295:256,1,70,2|0,1:2|1:0,0:0:0:0:
180,364,23862,2,0,L|175:282,1,70,2|0,1:2|1:0,0:0:0:0:
212,124,24262,6,0,L|263:187,1,70,4|4,0:0|0:3,0:0:0:0:
160,60,24662,2,0,L|109:-3,1,70,4|4,0:0|0:3,0:0:0:0:
148,176,25062,6,0,L|199:239,1,70,4|4,0:0|0:3,0:0:0:0:
96,112,25462,2,0,L|45:49,1,70,4|4,0:0|0:3,0:0:0:0:
256,192,25862,12,0,27062,0:0:0:0:
92,288,27462,5,4,1:2:0:0:
176,285,27662,1,2,0:1:0:0:
260,281,27862,2,0,L|340:301,1,70,2|2,1:0|0:0,0:0:0:0:
404,264,28262,2,0,B|464:256|444:296|508:288,2,105,2|2|2,1:1|0:1|0:1,0:0:0:0:
416,180,29062,5,0,1:1:0:0:
332,176,29262,1,2,0:1:0:0:
248,173,29462,2,0,L|168:193,1,70,2|2,1:0|0:0,0:0:0:0:
104,156,29862,2,0,B|43:148|63:188|0:180,2,105,2|2|2,1:1|1:1|1:1,0:0:0:0:
124,136,30562,1,0,3:0:0:0:
124,136,30662,5,2,1:0:0:0:
164,60,30862,1,2,0:1:0:0:
92,16,31062,2,0,L|0:5,1,70,2|0,1:0|0:0,0:0:0:0:
164,60,31462,2,0,L|308:44,1,140,2|0,1:0|1:1,0:0:0:0:
432,116,32062,1,2,0:1:0:0:
432,116,32162,1,0,3:0:0:0:
432,116,32262,6,0,P|458:78|464:44,1,70,2|2,1:0|0:1,0:0:0:0:
344,120,32662,2,0,P|354:153|375:180,1,70,2|0,1:1|0:1,0:0:0:0:
456,196,33062,1,0,1:0:0:0:
456,196,33162,1,2,1:1:0:0:
456,196,33262,1,0,1:0:0:0:
404,260,33462,2,0,P|408:294|400:328,1,70,2|0,1:0|1:0,0:0:0:0:
332,376,33862,5,4,0:0:0:0:
256,340,34062,1,2,0:1:0:0:
172,352,34262,2,0,P|137:354|104:342,1,70,2|0,1:0|0:0,0:0:0:0:
0,328,34662,2,0,L|104:342,1,105,2|2,1:0|0:1,0:0:0:0:
152,224,35262,1,2,0:1:0:0:
152,224,35362,1,0,3:0:0:0:
152,224,35462,5,2,1:0:0:0:
112,152,35662,1,2,0:1:0:0:
164,88,35862,2,0,L|160:-4,1,70,2|0,1:0|0:0,0:0:0:0:
61,5,36262,2,0,P|109:24|160:17,1,105,2|2,1:0|0:1,0:0:0:0:
284,44,36862,1,2,0:1:0:0:
284,44,36962,1,0,3:0:0:0:
284,44,37062,5,4,0:0:0:0:
368,56,37262,1,4,0:3:0:0:
316,124,37462,5,4,0:0:0:0:
400,136,37662,1,4,0:3:0:0:
284,44,37862,5,4,0:0:0:0:
368,56,38062,1,4,0:3:0:0:
316,124,38262,5,4,0:0:0:0:
400,136,38462,1,4,0:3:0:0:
284,44,38662,6,0,L|204:56,1,70,4|0,1:2|1:2,0:0:0:0:
152,112,39062,2,0,L|72:124,1,70,4|0,1:2|1:2,0:0:0:0:
8,84,39462,1,0,1:0:0:0:
8,84,39562,1,0,1:0:0:0:
8,84,39662,1,0,1:0:0:0:
82,122,39862,1,0,1:0:0:0:
92,204,40062,1,4,0:3:0:0:
28,256,40262,6,0,P|112:284|168:232,1,157.500006008148,6|0,1:2|0:0,0:0:0:0:
232,200,41062,2,0,P|244:248|216:308,1,105.000004005432,2|2,1:2|0:0,0:0:0:0:
365,209,41862,6,0,P|281:237|225:185,1,157.500006008148,2|4,1:2|0:3,0:0:0:0:
162,147,42662,2,0,P|146:196|161:246,1,105.000004005432,2|2,1:2|1:2,0:0:0:0:
29,137,43462,6,0,P|93:177|162:146,1,157.500006008148,2|4,1:2|0:3,0:0:0:0:
224,88,44262,2,0,B|340:76,1,105.000004005432,2|4,1:2|0:3,0:0:0:0:
488,28,45062,6,0,P|496:58|488:108,1,78.7500030040742,2|0,1:2|1:0,0:0:0:0:
476,128,45462,1,0,1:0:0:0:
392,136,45662,1,0,1:0:0:0:
400,160,45762,1,0,1:0:0:0:
400,188,45862,1,2,1:2:0:0:
392,212,45962,2,0,L|464:204,1,52.5000020027161,0|0,1:0|1:0,0:0:0:0:
468,216,46262,2,0,B|476:240|476:240|463:264,1,52.5000020027161,2|0,1:2|1:0,0:0:0:0:
388,300,46662,6,0,B|308:268|324:336|236:308,1,157.500006008148,6|4,1:2|0:3,0:0:0:0:
164,264,47462,1,2,1:2:0:0:
164,264,47862,1,0,0:0:0:0:
219,72,48262,6,0,P|246:146|240:224,1,157.500006008148,2|4,1:2|0:3,0:0:0:0:
164,264,49062,1,2,1:2:0:0:
164,264,49462,1,4,0:3:0:0:
4,208,49862,6,0,L|124:196,2,105.000004005432,0|0|0,1:0|1:0|1:0,0:0:0:0:
20,124,50862,1,0,1:0:0:0:
8,40,51062,1,0,1:0:0:0:
8,40,51162,1,0,1:0:0:0:
8,40,51262,1,0,1:0:0:0:
88,68,51462,6,0,L|316:76,1,210.000008010865,4|0,0:0|3:0,0:0:0:0:
412,132,52562,2,0,L|451:130,3,26.2500010013581,8|2|2|2,3:0|0:3|3:0|3:0,0:0:0:0:
328,156,53062,6,0,P|317:193|348:316,1,140,4|8,0:0|1:0,0:0:0:0:
400,340,53662,2,0,P|444:344|480:320,1,70,2|0,0:0|1:0,0:0:0:0:
320,372,54062,2,0,P|276:368|240:392,1,70,2|8,0:0|1:0,0:0:0:0:
176,344,54462,1,2,0:0:0:0:
104,300,54662,6,0,L|256:288,1,140,0|8,1:0|1:0,0:0:0:0:
332,291,55262,1,2,0:0:0:0:
292,212,55462,2,0,P|284:168|284:104,1,105,0|0,1:0|1:0,0:0:0:0:
292,80,55862,1,8,1:0:0:0:
368,48,56062,1,0,1:0:0:0:
300,0,56262,6,0,B|216:0|260:36|167:35,1,140,0|8,1:0|1:0,0:0:0:0:
88,16,56862,2,0,P|88:52|100:84,1,70,2|0,0:0|1:0,0:0:0:0:
188,184,57262,2,0,P|188:149|176:116,1,70,2|8,0:0|1:0,0:0:0:0:
108,164,57662,1,2,0:0:0:0:
172,264,57862,6,0,P|220:260|268:188,1,140,2|8,1:2|1:0,0:0:0:0:
92,244,58462,1,2,0:0:0:0:
112,324,58662,1,2,1:2:0:0:
112,324,58762,1,0,1:0:0:0:
112,324,58862,1,4,0:3:0:0:
192,348,59062,2,0,L|272:332,1,70,2|4,1:2|0:3,0:0:0:0:
380,348,59462,6,0,P|440:338|480:264,1,140,4|8,1:2|1:0,0:0:0:0:
468,192,60062,2,0,L|460:116,1,70,2|0,0:0|1:0,0:0:0:0:
396,68,60462,2,0,P|424:48|459:40,1,70,2|8,0:0|1:0,0:0:0:0:
384,148,60862,6,0,L|287:131,1,70,2|0,0:0|1:0,0:0:0:0:
260,72,61262,2,0,L|163:55,1,70,2|8,0:0|1:0,0:0:0:0:
116,100,61662,2,0,L|19:83,1,70,2|0,0:0|0:0,0:0:0:0:
63,172,62062,2,0,P|130:187|187:150,1,140,2|2,0:0|0:2,0:0:0:0:
244,212,62662,6,0,L|236:293,1,70,2|0,1:2|2:2,0:0:0:0:
176,336,63062,1,8,1:0:0:0:
116,276,63262,2,0,P|88:268|40:268,2,70,2|0|2,0:0|1:0|0:0,0:0:0:0:
176,336,63862,1,8,1:0:0:0:
256,360,64062,6,0,P|288:348|312:292,1,70,2|0,2:0|1:0,0:0:0:0:
344,184,64462,2,0,P|338:217|374:266,1,70,2|8,0:0|1:0,0:0:0:0:
452,348,64862,2,0,P|425:326|365:333,1,70,2|0,0:0|1:0,0:0:0:0:
264,252,65262,2,0,L|252:156,1,70,2|4,0:0|0:3,0:0:0:0:
244,100,65662,1,4,0:3:0:0:
244,100,65762,1,4,3:3:0:0:
244,100,65862,5,0,1:0:0:0:
255,182,66062,1,4,0:2:0:0:
268,264,66262,2,0,P|216:260|180:216,1,105,4|0,1:2|0:0,0:0:0:0:
172,200,66662,6,0,L|88:188,1,70,2|0,1:2|0:0,0:0:0:0:
40,136,67062,1,8,1:0:0:0:
124,44,67262,2,0,P|128:78|116:111,1,70,2|0,0:0|1:0,0:0:0:0:
200,124,67662,2,0,L|278:114,1,70,2|8,0:0|1:0,0:0:0:0:
344,156,68062,2,0,P|339:190|384:288,1,140,2|2,0:0|0:0,0:0:0:0:
448,336,68662,1,8,1:0:0:0:
372,368,68862,1,0,0:0:0:0:
268,284,69062,5,0,1:0:0:0:
257,202,69262,1,2,0:0:0:0:
244,120,69462,2,0,P|296:124|332:168,1,105,4|0,1:2|0:0,0:0:0:0:
340,184,69862,6,0,L|424:196,1,70,0|0,1:0|0:0,0:0:0:0:
472,248,70262,1,8,1:0:0:0:
388,340,70462,2,0,P|383:305|395:272,1,70,2|0,0:0|1:0,0:0:0:0:
312,260,70862,2,0,L|234:270,1,70,2|8,0:0|1:0,0:0:0:0:
188,204,71262,2,0,P|192:169|180:136,1,70,2|0,0:0|1:0,0:0:0:0:
128,68,71662,1,0,1:0:0:0:
128,68,71762,1,0,1:0:0:0:
128,68,71862,2,0,L|48:36,1,70,0|0,1:0|1:0,0:0:0:0:
4,156,72262,6,0,P|73:193|182:135,1,210,0|2,1:0|0:0,0:0:0:0:
128,68,73062,2,0,P|48:130|56:231,1,210,0|2,1:0|0:0,0:0:0:0:
124,284,73862,6,0,P|148:312|151:344,1,70,0|2,1:0|0:0,0:0:0:0:
232,316,74262,2,0,P|256:288|259:256,1,70,8|2,1:0|0:0,0:0:0:0:
340,276,74662,2,0,P|374:279|399:303,1,70,0|2,1:0|0:0,0:0:0:0:
444,232,75062,2,0,P|478:228|503:204,1,70,8|2,1:0|0:0,0:0:0:0:
440,84,75462,6,0,P|371:60|351:-3,1,140,2|8,1:2|1:0,0:0:0:0:
435,0,76062,1,0,0:0:0:0:
440,84,76262,2,0,L|448:177,1,70,0|2,1:0|0:0,0:0:0:0:
368,192,76662,1,8,1:0:0:0:
296,152,76862,1,2,0:2:0:0:
296,152,76962,1,0,0:0:0:0:
296,152,77062,6,0,L|146:159,2,140,0|8|0,1:0|1:0|1:0,0:0:0:0:
336,80,78062,1,0,3:0:0:0:
272,28,78262,2,0,L|236:36,3,35,0|0|0|0,1:0|1:0|1:0|1:0,0:0:0:0:
260,52,78662,6,0,B|168:28|196:88|109:68,1,157.500006008148,4|4,0:0|0:3,0:0:0:0:
36,112,79462,2,0,P|29:97|25:73,2,35.0000013351441,2|2|2,1:3|3:0|3:0,0:0:0:0:
32,136,79862,2,0,P|22:149|3:165,2,35.0000013351441,2|2|2,0:2|3:0|3:0,0:0:0:0:
52,128,80262,6,0,P|96:152|160:128,1,105.000004005432,0|2,1:0|0:0,0:0:0:0:
220,184,80862,1,4,0:3:0:0:
100,252,81062,1,0,1:0:0:0:
184,264,81262,1,0,1:0:0:0:
184,264,81662,1,0,1:0:0:0:
280,364,81862,6,0,B|372:340|344:400|430:380,1,157.500006008148,0|0,1:0|1:0,0:0:0:0:
404,300,82662,1,0,1:0:0:0:
456,164,82862,1,0,1:0:0:0:
371,171,83062,2,0,P|380:205|403:228,1,52.5000020027161,0|2,1:0|2:0,0:0:0:0:
472,244,83462,6,0,L|488:84,1,157.500006008148,0|2,1:0|1:1,1:0:0:0:
472,4,84262,1,0,1:0:0:0:
408,60,84462,1,4,2:3:0:0:
280,8,84662,1,0,1:0:0:0:
280,8,84762,1,0,1:0:0:0:
280,8,84862,1,4,0:3:0:0:
208,50,85062,6,0,P|262:91|328:76,1,140,4|4,1:2|1:2,0:0:0:0:
172,140,85862,2,0,P|106:124|52:165,1,140,4|4,1:2|1:2,0:0:0:0:
28,248,86462,1,0,0:0:0:0:
88,308,86662,6,0,L|172:300,1,70,4|0,1:2|0:0,0:0:0:0:
204,232,87062,2,0,L|288:240,1,70,4|0,1:2|0:0,0:0:0:0:
304,316,87462,2,0,L|388:308,1,70,4|0,1:2|0:0,0:0:0:0:
440,256,87862,2,0,L|524:264,1,70,4|0,1:2|0:0,0:0:0:0:
484,184,88262,5,0,1:0:0:0:
440,256,88462,1,0,1:0:0:0:
400,180,88662,1,0,1:0:0:0:
444,108,88862,1,0,1:0:0:0:
388,44,89062,6,0,L|376:4,3,35,0|0|0|0,1:0|1:0|1:0|1:0,0:0:0:0:
360,48,89462,2,0,L|348:8,3,35,0|0|0|0,1:0|1:0|1:0|1:0,0:0:0:0:
332,52,89862,1,2,0:0:0:0:
256,192,89962,12,8,91462,2:2:0:0:
0,288,92262,5,0,1:0:0:0:
80,264,92462,1,0,1:0:0:0:
148,312,92662,2,0,L|137:361,3,35,0|0|0|0,1:0|1:0|1:0|1:0,0:0:0:0:
160,296,93062,6,0,P|221:309|288:264,1,140,4|8,1:0|1:0,0:0:0:0:
284,184,93662,1,2,0:2:0:0:
204,156,93862,2,0,P|200:192|210:224,1,70,0|2,1:2|0:1,0:0:0:0:
284,270,94262,2,0,P|317:262|345:241,1,70,8|2,1:0|0:1,0:0:0:0:
488,176,94662,6,0,P|427:189|360:144,1,140,2|8,1:1|1:0,0:0:0:0:
364,64,95262,1,2,0:0:0:0:
444,36,95462,2,0,P|448:72|437:104,1,70,0|2,1:0|0:0,0:0:0:0:
364,150,95862,2,0,P|330:142|302:121,1,70,8|2,1:0|0:0,0:0:0:0:
288,104,96162,1,0,3:0:0:0:
288,104,96262,6,0,L|200:108,1,70,0|2,1:2|3:2,0:0:0:0:
224,16,96662,2,0,P|276:24|301:14,1,70,8|2,1:0|2:0,0:0:0:0:
152,60,97062,2,0,B|72:80|96:28|16:47,1,140,0|8,1:0|1:0,0:0:0:0:
44,128,97662,1,2,3:1:0:0:
44,128,97762,1,0,2:0:0:0:
44,128,97862,6,0,L|52:208,1,70,2|2,1:0|1:0,0:0:0:0:
24,276,98262,2,0,P|72:280|103:262,1,70,8|2,1:1|0:1,0:0:0:0:
136,200,98662,2,0,L|140:360,1,140,2|8,1:1|1:0,0:1:0:0:
216,372,99262,1,2,1:1:0:0:
308,264,99462,5,4,1:0:0:0:
236,220,99662,1,2,0:1:0:0:
236,220,99862,2,0,P|226:259|232:301,1,70,10|0,1:0|0:2,0:0:0:0:
292,344,100262,2,0,L|412:356,1,105,2|0,1:1|0:0,0:0:0:0:
408,368,100662,2,0,P|422:340|422:295,1,70,10|0,1:0|0:0,0:0:0:0:
416,220,101062,6,0,P|450:225|492:212,1,70,0|2,1:0|0:1,0:0:0:0:
388,108,101462,2,0,P|413:132|454:145,1,70,10|2,1:0|0:0,0:0:0:0:
444,0,101862,2,0,P|444:34|465:73,1,70,0|2,1:0|0:0,0:0:0:0:
344,180,102262,2,0,P|316:148|304:100,1,70,8|2,1:0|0:0,0:0:0:0:
320,8,102662,5,0,1:2:0:0:
252,60,102862,1,2,0:1:0:0:
251,60,103062,2,0,P|200:64|156:37,1,105,10|0,1:0|0:0,0:0:0:0:
144,24,103462,2,0,L|52:20,1,70,2|2,1:0|0:0,0:0:0:0:
108,104,103862,2,0,L|16:100,1,70,8|2,1:0|0:0,0:0:0:0:
8,180,104262,5,0,1:0:0:0:
76,232,104462,1,2,0:1:0:0:
76,232,104662,2,0,P|127:236|164:216,1,70,10|0,1:1|0:0,0:0:0:0:
212,180,105062,1,0,1:0:0:0:
212,180,105162,1,0,1:0:0:0:
212,180,105262,1,0,1:0:0:0:
220,264,105462,2,0,L|228:352,1,70,0|4,1:0|0:3,0:0:0:0:
308,348,105862,6,0,B|356:356|356:356|380:348|380:348|432:356,2,125.999996154785,4|4|4,1:2|1:2|1:2,0:0:0:0:
348,268,106662,2,0,B|304:260,2,41.9999987182618,0|0|4,1:0|1:0|0:3,0:0:0:0:
424,232,107062,2,0,B|440:208|440:208|436:152,1,83.9999974365235,4|0,1:2|0:0,0:0:0:0:
476,76,107462,6,0,B|428:68|428:68|404:76|404:76|352:68,2,125.999996154785,4|4|4,1:2|1:2|1:2,0:0:0:0:
436,152,108262,1,4,1:2:0:0:
356,184,108462,1,0,1:0:0:0:
292,128,108662,1,4,1:2:0:0:
292,128,108762,1,0,1:0:0:0:
292,128,108862,1,0,1:0:0:0:
228,75,109062,6,0,P|166:78|118:39,2,125.999996154785,4|4|4,1:2|0:0|1:2,0:0:0:0:
248,60,109762,1,0,1:0:0:0:
248,60,109862,1,4,0:0:0:0:
212,164,110062,1,4,0:3:0:0:
280,212,110262,2,0,P|292:280|264:348,1,125.999996154785,4|0,0:0|0:3,0:0:0:0:
256,352,110662,6,0,L|172:345,1,83.9999974365235,4|0,1:2|1:0,0:0:0:0:
80,252,111062,2,0,L|72:204,3,41.9999987182618,2|2|2|2,1:3|1:3|1:3|1:3,0:0:0:0:
96,264,111462,6,0,L|179:257,1,83.9999974365235,0|0,1:0|1:0,0:0:0:0:
228,152,111862,2,0,L|236:104,3,41.9999987182618,2|2|2|2,1:3|1:3|1:3|1:3,0:0:0:0:
212,164,112262,6,0,L|128:157,1,70,4|0,1:0|3:0,0:0:0:0:
64,128,112662,2,0,P|56:65|68:3,1,105,8|0,1:0|0:0,0:0:0:0:
76,8,113062,2,0,L|160:15,1,70,2|2,1:0|3:1,0:0:0:0:
228,28,113462,1,8,1:1:0:0:
234,110,113662,1,2,0:1:0:0:
234,110,113762,1,0,0:1:0:0:
234,110,113862,6,0,L|313:131,1,70,4|2,1:2|0:0,0:0:0:0:
442,206,114262,2,0,L|366:236,1,70,8|0,1:0|0:0,0:0:0:0:
218,254,114662,2,0,L|263:186,1,70,0|2,1:0|2:0,0:0:0:0:
378,78,115062,2,0,L|383:160,1,70,8|2,1:0|0:0,0:0:0:0:
346,318,115462,6,0,L|295:255,1,70,4|4,0:0|0:3,0:0:0:0:
298,382,115862,2,0,L|247:319,1,70,4|4,0:0|0:3,0:0:0:0:
142,290,116262,2,0,L|91:227,1,70,4|4,0:0|0:3,0:0:0:0:
94,354,116662,2,0,L|43:291,1,70,4|4,0:0|0:3,0:0:0:0:
44,172,117062,5,4,1:2:0:0:
97,235,117262,1,0,1:2:0:0:
180,244,117462,1,0,1:2:0:0:
244,188,117662,1,0,1:2:0:0:
240,104,117862,6,0,L|216:64,7,35,0|2|2|0|2|2|2|2,1:0|1:2|1:2|1:2|1:2|1:2|1:2|0:0,0:0:0:0:
