osu file format v14

[General]
AudioFilename: BRAVE OUT.mp3
AudioLeadIn: 0
PreviewTime: 92162
Countdown: 0
SampleSet: Soft
StackLeniency: 0.7
Mode: 0
LetterboxInBreaks: 0
WidescreenStoryboard: 1

[Editor]
DistanceSpacing: 1
BeatDivisor: 2
GridSize: 4
TimelineZoom: 0.9

[Metadata]
Title:BRAVE OUT
TitleUnicode:BRAVE OUT
Artist:nomico / DOWNFORCE
ArtistUnicode:nomico / DOWNFORCE
Creator:yf_bmp
Version:Gyro's Beginner
Source:beatmania IIDX 21 SPADA
Tags:Masayoshi Minoshima Alstroemeria Records electrance fanzhen0019 Gyro Zeppeli Rizia ZZHBOY [Emiria] LunaSaika Pata-Mon NeilPerry
BeatmapID:1150459
BeatmapSetID:332201

[Difficulty]
HPDrainRate:2
CircleSize:2.8
OverallDifficulty:2
ApproachRate:3.5
SliderMultiplier:0.8
SliderTickRate:1

[Events]
//Background and Video events
0,0,"BRAVE OUT.png",0,0
//Break Periods
//Storyboard Layer 0 (Background)
//Storyboard Layer 1 (Fail)
//Storyboard Layer 2 (Pass)
//Storyboard Layer 3 (Foreground)
//Storyboard Sound Samples

[TimingPoints]
262,400,4,2,0,70,1,0
93062,-100,4,2,0,80,0,1
118562,-100,4,2,0,70,0,0

[Colours]
Combo1 : 255,255,0
Combo2 : 255,128,192
Combo3 : 128,128,255
Combo4 : 128,255,128
Combo5 : 255,255,128
Combo6 : 255,0,255
Combo7 : 128,0,255
Combo8 : 0,255,64

[HitObjects]
176,104,1862,6,0,L|96:124,2,80,4|0|8,0:0|0:0|0:0,0:0:0:0:
256,96,3062,1,0,0:0:0:0:
336,108,3462,2,0,B|376:124|416:116|416:116|432:156|420:204,1,160,0|8,0:0|0:0,0:0:0:0:
416,272,4662,1,0,0:0:0:0:
348,316,5062,6,0,L|248:324,2,80,4|0|8,0:0|0:0|0:0,0:0:0:0:
336,236,6262,1,0,0:0:0:0:
340,156,6662,2,0,B|304:80|304:80|268:104|220:84,1,160,0|8,0:0|0:0,0:0:0:0:
152,80,7862,1,0,0:0:0:0:
76,108,8262,6,0,L|104:280,1,160,4|8,0:0|0:0,0:0:0:0:
168,312,9462,1,0,0:0:0:0:
248,328,9862,2,0,L|332:340,1,80
356,264,10662,2,0,L|440:276,1,80,8|0,0:0|0:0,0:0:0:0:
468,200,11462,6,0,P|480:124|404:68,1,160,4|8,0:0|0:0,0:0:0:0:
344,52,12662,1,0,0:0:0:0:
264,56,13062,2,0,B|220:64|180:60|180:60|148:76|140:132,1,160,0|8,0:0|0:0,0:0:0:0:
116,200,14262,1,0,0:0:0:0:
156,272,14662,6,4,B|196:296|196:296|225:300|256:316|256:316|301:316|332:324|332:324|385:320,1,240,4|12,0:0|0:0,0:0:0:0:
400,240,16262,2,0,B|360:216|360:216|331:212|300:196|300:196|255:196|224:188|224:188|171:192,1,240,8|8,0:0|0:0,0:0:0:0:
104,148,17862,6,0,B|128:112|124:76|124:76|164:48|212:64|212:64|252:88|292:60,1,240,8|8,0:0|0:0,0:0:0:0:
356,84,19462,2,0,B|390:107|426:103|426:103|454:143|438:191|438:191|414:231|435:259,1,240,8|8,0:0|0:0,0:0:0:0:
256,192,21062,12,0,25862,0:0:0:0:
432,88,27462,6,0,B|392:100|360:80|360:80|312:96|272:76|272:76|224:96|184:72,1,240,4|8,0:0|0:0,0:0:0:0:
124,108,29062,2,0,B|124:164|124:164|80:196|96:268,1,160,2|2,0:0|0:0,0:0:0:0:
172,276,30262,1,8,0:0:0:0:
252,268,30662,6,0,B|312:260|368:288|368:288|404:232|380:164,1,240,2|8,0:0|0:0,0:0:0:0:
340,104,32262,2,0,B|208:76|208:76|172:84,1,160,2|8,0:0|0:0,0:0:0:0:
132,144,33462,1,8,0:0:0:0:
100,216,33862,6,0,B|88:268|104:308|104:308|152:300|184:312,1,160,4|2,0:0|0:0,0:0:0:0:
248,300,35062,1,8,0:0:0:0:
328,312,35462,2,0,B|346:304|394:312|394:312|410:272|398:220,1,160,2|2,0:0|0:0,0:0:0:0:
404,140,36662,1,8,0:0:0:0:
340,88,37062,6,8,L|260:108,1,80
204,160,37862,2,8,L|124:180,1,80
60,228,38662,2,0,P|60:284|172:316,1,160
220,304,39862,1,0,0:0:0:0:
300,296,40262,6,8,B|344:292|384:304|384:304|412:276|400:228,1,160,4|8,0:0|0:0,0:0:0:0:
420,156,41462,1,0,0:0:0:0:
384,84,41862,2,0,B|340:88|300:76|300:76|272:104|284:152,1,160,0|8,0:0|0:0,0:0:0:0:
212,184,43062,1,0,0:0:0:0:
132,180,43462,6,0,P|84:156|104:64,1,160,0|8,0:0|0:0,0:0:0:0:
180,64,44662,1,0,0:0:0:0:
260,48,45062,2,0,B|348:40|348:40|412:80,1,160,0|8,0:0|0:0,0:0:0:0:
448,148,46262,1,0,0:0:0:0:
436,228,46662,6,0,B|440:276|420:304|420:304|384:292|328:312,3,160,4|0|0|8,0:0|0:0|0:0|0:0,0:0:0:0:
180,308,49862,6,0,P|184:260|168:232,1,80
116,172,50662,2,0,P|112:120|192:56,1,160,8|0,0:0|0:0,0:0:0:0:
440,256,53062,6,4,B|412:284|368:288|368:288|340:312|296:304|296:304|256:320|212:308,1,240,4|8,0:0|0:0,0:0:0:0:
136,288,54662,2,0,P|100:264|112:152,1,160,0|8,0:0|0:0,0:0:0:0:
176,120,55862,1,8,0:0:0:0:
236,68,56262,6,0,B|316:88|396:60|396:60|428:104|416:136,1,240,0|8,0:0|0:0,0:0:0:0:
416,212,57862,2,0,B|412:264|420:296|420:296|392:328|340:320,1,160
272,304,59062,1,8,0:0:0:0:
200,268,59462,6,0,P|132:212|240:216,1,240,0|8,0:0|0:0,0:0:0:0:
312,184,61062,2,0,P|332:100|280:64,1,160
200,80,62262,1,8,0:0:0:0:
124,56,62662,6,0,B|92:80|48:88|48:88|64:132|52:164|52:164|92:176|136:216,1,240,0|8,0:0|0:0,0:0:0:0:
196,232,64262,2,0,L|284:244,1,80,0|8,0:0|0:0,0:0:0:0:
348,280,65062,2,0,L|436:292,1,80,0|8,0:0|0:0,0:0:0:0:
464,220,65862,6,2,P|468:172|452:136,1,80,0|4,0:0|0:0,1:0:0:0:
388,104,66662,2,0,P|344:96|312:64,1,80,0|8,0:0|0:0,0:0:0:0:
240,52,67462,2,0,B|208:76|168:64|168:64|148:104|96:108|96:108|116:148|88:200,1,240,0|8,0:0|0:0,0:0:0:0:
100,260,69062,6,0,P|164:304|256:280,1,160
316,260,70262,1,8,0:0:0:0:
396,264,70662,2,0,P|432:228|440:196,1,80,0|8,0:0|0:0,0:0:0:0:
408,128,71462,2,0,P|404:88|412:48,1,80,0|8,0:0|0:0,0:0:0:0:
332,36,72262,6,0,P|284:56|172:48,1,160
136,120,73462,1,8,0:0:0:0:
80,176,73862,2,0,P|64:240|80:268,1,80,0|8,0:0|0:0,0:0:0:0:
124,308,74662,2,0,P|172:296|196:264,1,80,0|8,0:0|0:0,0:0:0:0:
232,204,75462,6,0,B|248:128|228:68|228:68|284:84|340:56,1,240,0|8,0:0|0:0,0:0:0:0:
400,28,77062,2,0,B|416:68|396:104|396:104|412:148|396:184|396:184|408:236|380:272,1,240,0|8,0:0|0:0,0:0:0:0:
320,304,78662,6,8,P|236:320|160:300,1,160,0|8,0:0|0:0,0:0:0:0:
96,260,79862,1,0,0:0:0:0:
68,184,80262,2,0,B|84:144|72:104|72:104|124:88|136:56,1,160,0|8,0:0|0:0,0:0:0:0:
212,48,81462,1,0,0:0:0:0:
284,80,81862,6,0,P|284:148|192:192,1,160,0|8,0:0|0:0,0:0:0:0:
132,188,83062,1,0,0:0:0:0:
56,212,83462,2,0,P|48:272|132:312,1,160,0|8,0:0|0:0,0:0:0:0:
204,308,84662,1,0,0:0:0:0:
280,328,85062,6,8,P|328:336|360:328,1,80
416,272,85862,2,8,P|424:224|416:192,1,80
360,136,86662,2,8,P|312:128|280:136,1,80
232,196,87462,2,8,P|224:244|232:276,1,80
256,192,88262,12,0,91462,0:0:0:0:
232,240,93062,6,0,P|288:248|348:160,1,160,4|8,0:0|0:0,0:0:0:0:
356,96,94262,1,2,0:0:0:0:
284,60,94662,2,0,P|236:76|200:72,2,80,0|2|8,0:0|0:0|0:0,0:0:0:0:
356,96,95862,1,2,0:0:0:0:
420,44,96262,6,0,P|436:116|364:180,1,160,8|8,0:0|0:0,0:0:0:0:
304,188,97462,1,2,0:0:0:0:
228,164,97862,2,0,L|144:140,2,80,8|2|8,0:0|0:0|0:0,0:0:0:0:
304,188,99062,1,2,0:0:0:0:
384,184,99462,6,0,P|372:240|256:248,1,160,4|8,0:0|0:0,0:0:0:0:
200,264,100662,1,2,0:0:0:0:
128,228,101062,2,0,L|48:196,1,80,8|2,0:0|0:0,0:0:0:0:
44,120,101862,2,0,L|128:88,1,80,8|2,0:0|0:0,0:0:0:0:
192,64,102662,6,0,P|268:40|348:60,1,160,4|8,0:0|0:0,0:0:0:0:
412,100,103862,1,2,0:0:0:0:
456,168,104262,2,0,P|460:248|416:320,1,160,8|8,0:0|0:0,0:0:0:0:
340,316,105462,1,2,0:0:0:0:
260,324,105862,6,0,B|216:327|196:291|196:291|204:259|196:207,1,160,4|8,0:0|0:0,0:0:0:0:
216,132,107062,1,2,0:0:0:0:
252,60,107462,2,0,B|304:68|336:60|336:60|372:80|369:123,1,160,4|8,0:0|0:0,0:0:0:0:
388,200,108662,1,2,0:0:0:0:
372,280,109062,6,8,B|375:323|339:343|339:343|307:335|255:343,1,160
176,332,110262,1,2,0:0:0:0:
96,344,110662,2,8,B|53:347|33:311|33:311|41:279|33:227,1,160
68,156,111862,1,2,0:0:0:0:
120,96,112262,6,8,P|196:84|260:152,1,160
280,212,113462,1,2,0:0:0:0:
340,264,113862,2,8,L|432:284,1,80,8|2,0:0|0:0,0:0:0:0:
460,212,114662,2,8,P|465:172|453:134,1,80,8|2,0:0|0:0,0:0:0:0:
256,192,115462,12,0,118562,0:0:0:0:
