osu file format v14

[General]
AudioFilename: BRAVE OUT.mp3
AudioLeadIn: 0
PreviewTime: 92162
Countdown: 0
SampleSet: Soft
StackLeniency: 0.5
Mode: 0
LetterboxInBreaks: 0
WidescreenStoryboard: 0

[Editor]
DistanceSpacing: 1.2
BeatDivisor: 4
GridSize: 4
TimelineZoom: 0.9

[Metadata]
Title:BRAVE OUT
TitleUnicode:BRAVE OUT
Artist:nomico / DOWNFORCE
ArtistUnicode:nomico / DOWNFORCE
Creator:yf_bmp
Version:Black Another
Source:beatmania IIDX 21 SPADA
Tags:Masayoshi Minoshima Alstroemeria Records electrance fanzhen0019 Gyro Zeppeli Rizia ZZHBOY [Emiria] LunaSaika Pata-Mon NeilPerry
BeatmapID:1107769
BeatmapSetID:332201

[Difficulty]
HPDrainRate:7
CircleSize:4.3
OverallDifficulty:8.5
ApproachRate:9.3
SliderMultiplier:1.6
SliderTickRate:1

[Events]
//Background and Video events
0,0,"BRAVE OUT.png",0,0
//Break Periods
//Storyboard Layer 0 (Background)
//Storyboard Layer 1 (Fail)
//Storyboard Layer 2 (Pass)
//Storyboard Layer 3 (Foreground)
//Storyboard Sound Samples

[TimingPoints]
262,400,4,2,0,70,1,0
1762,-100,4,2,0,10,0,0
1862,-125,4,2,1,80,0,0
13062,-111.111111111111,4,2,1,70,0,0
13862,-100,4,2,1,70,0,0
14662,-111.111111111111,4,2,1,70,0,0
14762,-111.111111111111,4,2,0,70,0,0
24262,-66.6666666666667,4,2,1,70,0,0
24462,-133.333333333333,4,2,1,70,0,0
24662,-66.6666666666667,4,2,1,70,0,0
24862,-133.333333333333,4,2,1,70,0,0
25062,-66.6666666666667,4,2,1,70,0,0
25262,-133.333333333333,4,2,1,70,0,0
25462,-66.6666666666667,4,2,1,70,0,0
25662,-133.333333333333,4,2,1,70,0,0
25862,-200,4,2,0,50,0,0
26662,-100,4,2,0,70,0,0
27462,-100,4,2,1,70,0,0
27662,-76.9230769230769,4,2,1,70,0,0
27862,-100,4,2,1,70,0,0
28262,-83.3333333333333,4,2,1,70,0,0
28562,-71.4285714285714,4,2,1,70,0,0
28862,-62.5,4,2,1,70,0,0
29062,-100,4,2,1,70,0,0
29262,-76.9230769230769,4,2,1,70,0,0
29462,-100,4,2,1,70,0,0
29862,-83.3333333333333,4,2,1,70,0,0
30162,-71.4285714285714,4,2,1,70,0,0
30462,-62.5,4,2,1,70,0,0
30662,-83.3333333333333,4,2,1,70,0,0
31162,-71.4285714285714,4,2,1,70,0,0
31462,-62.5,4,2,1,70,0,0
31762,-55.5555555555556,4,2,1,70,0,0
32062,-50,4,2,1,70,0,0
32262,-71.4285714285714,4,2,1,70,0,0
32762,-52.6315789473684,4,2,1,70,0,0
33462,-100,4,2,1,70,0,0
34062,-76.9230769230769,4,2,1,70,0,0
34262,-100,4,2,1,70,0,0
34662,-83.3333333333333,4,2,1,70,0,0
34962,-71.4285714285714,4,2,1,70,0,0
35262,-62.5,4,2,1,70,0,0
35462,-76.9230769230769,4,2,1,70,0,0
35862,-100,4,2,1,70,0,0
36262,-83.3333333333333,4,2,1,70,0,0
36562,-71.4285714285714,4,2,1,70,0,0
36862,-62.5,4,2,1,70,0,0
37062,-58.8235294117647,4,2,1,70,0,0
38662,-66.6666666666667,4,2,1,70,0,0
39662,-66.6666666666667,4,2,1,70,0,0
40262,-133.333333333333,4,2,1,70,0,0
51462,-66.6666666666667,4,2,1,70,0,0
51662,-66.6666666666667,4,2,1,20,0,0
51762,-133.333333333333,4,2,1,30,0,0
52462,-133.333333333333,4,2,0,70,0,0
53062,-100,4,2,1,70,0,0
54662,-133.333333333333,4,2,1,70,0,0
55462,-100,4,2,1,70,0,0
59462,-90.9090909090909,4,2,1,70,0,0
60062,-100,4,2,1,70,0,0
65462,-66.6666666666667,4,2,1,70,0,0
65862,-100,4,2,1,70,0,0
66062,-66.6666666666667,4,2,1,70,0,0
66262,-55.5555555555556,4,2,1,70,0,0
66662,-100,4,2,1,70,0,0
73062,-71.4285714285714,4,2,1,70,0,0
73862,-100,4,2,1,70,0,0
78662,-133.333333333333,4,2,1,70,0,0
79562,-133.333333333333,4,2,0,70,0,0
80262,-100,4,2,1,70,0,0
80662,-66.6666666666667,4,2,1,70,0,0
81862,-133.333333333333,4,2,1,70,0,0
84262,-100,4,2,1,70,0,0
85062,-166.666666666667,4,2,1,70,0,0
85362,-166.666666666667,4,2,1,5,0,0
85462,-166.666666666667,4,2,1,70,0,0
85762,-166.666666666667,4,2,1,5,0,0
85862,-166.666666666667,4,2,1,70,0,0
86162,-166.666666666667,4,2,1,5,0,0
86262,-166.666666666667,4,2,1,70,0,0
86562,-166.666666666667,4,2,1,5,0,0
86662,-125,4,2,1,70,0,0
86962,-125,4,2,1,5,0,0
87062,-125,4,2,1,70,0,0
87362,-125,4,2,1,5,0,0
87462,-125,4,2,1,70,0,0
87762,-125,4,2,1,5,0,0
87862,-125,4,2,1,70,0,0
88162,-125,4,2,1,5,0,0
88262,-100,4,2,1,70,0,0
89862,-200,4,2,1,70,0,0
89887,-200,4,2,1,20,0,0
90062,-200,4,2,0,30,0,0
90262,-200,4,2,1,40,0,0
90462,-200,4,2,0,50,0,0
90662,-133.333333333333,4,2,1,60,0,0
90862,-133.333333333333,4,2,0,70,0,0
91062,-133.333333333333,4,2,1,80,0,0
91262,-133.333333333333,4,2,1,20,0,0
91462,-133.333333333333,4,2,1,80,0,0
91762,-166.666666666667,4,2,0,40,0,0
92062,-166.666666666667,4,2,0,20,0,0
92262,-50,4,2,1,70,0,0
93062,-71.4285714285714,4,2,1,80,0,1
96262,-62.5,4,2,1,80,0,1
97862,-86.9565217391304,4,2,1,80,0,1
99462,-71.4285714285714,4,2,1,80,0,1
102662,-62.5,4,2,1,80,0,1
104262,-100,4,2,1,80,0,1
105462,-76.9230769230769,4,2,1,80,0,1
105862,-71.4285714285714,4,2,1,80,0,1
107462,-55.5555555555556,4,2,1,80,0,1
109062,-71.4285714285714,4,2,1,80,0,1
109462,-58.8235294117647,4,2,1,80,0,1
109662,-50,4,2,1,80,0,1
109862,-58.8235294117647,4,2,1,80,0,1
110262,-71.4285714285714,4,2,1,80,0,1
110462,-90.9090909090909,4,2,1,80,0,1
112262,-71.4285714285714,4,2,1,80,0,1
114262,-76.9230769230769,4,2,1,80,0,1
114662,-83.3333333333333,4,2,1,80,0,1
115062,-90.9090909090909,4,2,1,80,0,1
115462,-71.4285714285714,4,2,1,80,0,1
115859,-66.6666666666667,4,2,1,70,0,1
116262,-62.5,4,2,1,70,0,1
116662,-58.8235294117647,4,2,1,70,0,1
118562,-100,4,2,0,70,0,0

[Colours]
Combo1 : 255,255,0
Combo2 : 255,128,192
Combo3 : 128,128,255
Combo4 : 128,255,128
Combo5 : 255,255,128
Combo6 : 255,0,255
Combo7 : 128,0,255
Combo8 : 0,255,64

[HitObjects]
256,192,662,12,0,1762,0:0:0:0:
312,312,1862,6,0,B|264:308|264:308|248:336|248:336|200:332,1,128,4|0,3:2|0:0,0:0:0:0:
124,324,2462,1,0,3:3:0:0:
136,184,2662,2,0,L|140:140,1,42.6666666666667,8|2,0:1|0:3,0:0:0:0:
64,176,2928,2,0,L|68:132,1,42.6666666666667,2|2,0:3|0:3,0:0:0:0:
48,316,3262,1,0,3:3:0:0:
188,240,3462,6,0,L|251:233,1,64,0|0,3:0|0:0,0:0:0:0:
112,72,3862,2,0,L|118:5,1,64,0|0,0:3|3:3,0:0:0:0:
96,248,4262,1,8,0:1:0:0:
216,124,4462,2,0,B|264:128|264:128|280:100|280:100|328:104,1,128,0|0,3:2|0:0,0:0:0:0:
424,256,5062,6,0,B|456:264|456:264|483:251,1,64,4|0,3:2|0:0,0:0:0:0:
418,183,5362,2,0,B|449:190|449:190|477:178,1,64,2|2,0:3|0:3,0:0:0:0:
444,117,5662,1,0,3:3:0:0:
256,208,5862,5,8,0:1:0:0:
256,208,6262,1,0,0:0:0:0:
292,276,6462,1,0,3:3:0:0:
256,344,6662,70,0,B|116:344,1,128,0|0,3:0|0:0,0:0:0:0:
52,344,7262,1,0,3:0:0:0:
104,192,7462,6,0,P|108:160|104:120,1,64,8|0,0:1|3:0,0:0:0:0:
208,192,7862,2,0,L|176:184,1,32,8|8,0:1|0:1,0:0:0:0:
264,240,8062,1,0,3:3:0:0:
92,304,8262,6,0,P|134:260|200:268,1,128,4|0,3:2|0:0,0:0:0:0:
196,265,8862,1,0,3:3:0:0:
104,192,9062,2,0,P|87:175|80:116,1,64,8|0,0:1|0:0,0:0:0:0:
100,68,9462,1,0,0:0:0:0:
100,68,9662,1,0,3:3:0:0:
276,16,9862,6,0,P|234:60|168:52,1,128,0|0,3:0|0:0,0:0:0:0:
172,55,10462,1,0,3:3:0:0:
264,128,10662,2,0,P|280:144|288:204,1,64,8|0,0:1|3:3,0:0:0:0:
244,344,11062,1,8,0:1:0:0:
340,240,11262,1,0,3:3:0:0:
400,372,11462,70,0,P|468:384|512:344,1,128,4|0,3:1|0:0,0:0:0:0:
444,312,12062,1,0,3:0:0:0:
512,212,12262,2,0,L|508:292,1,64,8|0,0:1|0:0,0:0:0:0:
372,300,12662,1,0,0:0:0:0:
372,300,12862,1,0,3:3:0:0:
444,180,13062,6,0,B|460:132|460:132|444:76,1,107.999996704102,0|0,3:0|0:0,0:0:0:0:
428,64,13462,2,0,L|504:64,1,71.9999978027344,0|0,0:0|3:3,0:0:0:0:
368,16,13862,5,8,0:1:0:0:
356,88,14062,1,0,3:3:0:0:
176,44,14262,6,0,L|236:36,1,40,8|8,0:1|0:1,0:0:0:0:
368,16,14462,1,0,3:3:0:0:
307,172,14662,70,0,P|287:124|236:111,1,107.999996704102,4|0,1:2|0:0,0:0:0:0:
220,116,15062,2,0,P|188:157|203:208,1,107.999996704102,0|0,1:0|0:0,0:0:0:0:
244,264,15462,2,0,L|320:240,1,71.9999978027344,2|0,1:2|0:0,0:0:0:0:
224,384,15862,2,0,L|153:368,1,71.9999978027344,2|2,1:2|0:2,0:0:0:0:
137,380,16162,1,2,0:2:0:0:
137,380,16262,6,0,P|89:360|76:309,1,107.999996704102,0|0,1:2|0:0,0:0:0:0:
81,293,16662,2,0,P|122:261|173:276,1,107.999996704102,0|0,1:2|0:0,0:0:0:0:
164,292,17062,2,0,P|144:285|124:232,1,71.9999978027344,2|2,1:2|0:0,0:0:0:0:
148,164,17462,2,0,P|174:140|209:140,1,71.9999978027344,2|2,1:2|0:0,0:0:0:0:
76,4,17862,6,0,P|96:40|76:128,1,107.999996704102,2|0,1:2|0:0,0:0:0:0:
80,120,18262,2,0,P|54:144|19:144,1,71.9999978027344,2|0,1:2|0:0,0:0:0:0:
126,312,18662,2,0,P|118:277|122:241,1,71.9999978027344,2|0,1:2|0:0,0:0:0:0:
272,184,19062,2,0,P|307:191|343:187,1,71.9999978027344,2|0,1:2|0:0,0:0:0:0:
488,144,19462,6,0,L|476:24,1,107.999996704102,2|0,1:2|0:0,0:0:0:0:
492,52,19862,2,0,P|461:69|426:65,1,71.9999978027344,0|0,1:0|0:0,0:0:0:0:
316,4,20262,2,0,L|312:92,1,71.9999978027344,2|0,1:2|0:0,0:0:0:0:
380,200,20662,2,0,L|376:112,1,71.9999978027344,0|0,1:2|0:0,0:0:0:0:
256,128,21062,85,2,1:2:0:0:
220,192,21262,1,0,1:0:0:0:
256,256,21462,1,0,1:0:0:0:
292,192,21662,1,0,1:0:0:0:
256,136,21862,5,2,1:2:0:0:
212,192,22062,1,0,1:0:0:0:
256,248,22262,1,0,1:0:0:0:
300,192,22462,1,0,1:0:0:0:
256,144,22662,5,2,1:2:0:0:
140,192,22862,1,0,1:0:0:0:
256,240,23062,1,2,1:2:0:0:
372,192,23262,1,0,1:0:0:0:
256,152,23462,85,2,1:2:0:0:
132,192,23662,1,0,1:0:0:0:
256,232,23862,1,2,1:2:0:0:
380,192,24062,1,0,1:0:0:0:
256,159,24262,6,0,P|226:156|200:141,1,60.0000022888184,4|0,0:3|0:0,0:0:0:0:
184,124,24462,6,0,P|170:129|155:132,1,30.0000011444092,2|0,3:2|0:0,0:0:0:0:
336,128,24662,6,0,P|308:140|278:140,1,60.0000022888184,4|0,0:3|0:0,0:0:0:0:
180,216,24862,6,0,P|165:213|151:208,1,30.0000011444092,2|0,3:2|0:0,0:0:0:0:
376,8,25062,6,0,P|358:32|332:47,1,60.0000022888184,4|0,0:3|0:0,0:0:0:0:
192,280,25262,6,0,P|186:265|184:251,1,30.0000011444092,2|0,3:2|0:0,0:0:0:0:
248,0,25462,6,0,P|257:28|254:58,1,60.0000022888184,4|0,0:3|0:0,0:0:0:0:
260,320,25662,6,0,P|262:305|267:291,1,30.0000011444092,2|0,3:2|0:0,0:0:0:0:
388,104,25862,6,0,P|451:126|509:91,1,140,2|0,0:0|0:0,0:0:0:0:
452,44,26662,5,2,3:2:0:0:
436,72,26762,1,0,3:2:0:0:
436,104,26862,1,0,3:2:0:0:
448,136,26962,1,0,3:2:0:0:
509,91,27062,5,2,3:2:0:0:
468,60,27162,1,2,0:1:0:0:
416,56,27262,1,2,3:1:0:0:
372,80,27362,1,2,0:0:0:0:
336,152,27462,85,4,3:2:0:0:
208,232,27662,2,0,P|221:193|216:164,1,51.999997619629,2|2,0:1|0:1,0:0:0:0:
96,188,27862,1,8,1:0:0:0:
84,180,27962,2,0,P|65:139|73:93,1,80,2|2,0:1|0:1,0:0:0:0:
148,60,28262,6,0,P|181:77|144:87,1,95.9999970703126,2|2,3:1|0:1,0:0:0:0:
3,108,28562,2,0,P|-8:54|17:5,1,111.999996582031,2|2,0:1|0:1,0:0:0:0:
80,36,28862,2,0,L|72:116,1,64,2|0,0:1|0:0,0:0:0:0:
60,264,29062,5,0,3:2:0:0:
188,344,29262,2,0,P|174:305|180:276,1,51.999997619629,2|2,0:1|0:1,0:0:0:0:
300,300,29462,1,8,1:0:0:0:
312,292,29562,2,0,P|331:251|323:205,1,80,2|2,0:1|0:1,0:0:0:0:
244,176,29862,6,0,P|211:193|248:202,1,95.9999970703126,2|2,3:1|0:1,0:0:0:0:
393,220,30162,2,0,P|404:166|379:117,1,111.999996582031,2|2,3:1|0:1,0:0:0:0:
316,148,30462,2,0,P|312:176|332:216,1,64,2|0,3:1|0:0,0:0:0:0:
460,256,30662,69,0,3:2:0:0:
432,68,30862,2,0,P|417:49|394:44,1,47.9999985351563,2|2,0:1|0:1,0:0:0:0:
248,100,31062,1,8,1:0:0:0:
204,128,31162,1,2,0:1:0:0:
152,124,31262,1,0,0:0:0:0:
116,88,31362,1,2,0:1:0:0:
108,40,31462,6,0,B|52:8|52:8|17:61,1,128,2|2,3:1|0:1,0:0:0:0:
44,204,31762,2,0,B|106:239|106:239|145:180,1,143.999995605469,2|2,3:1|0:1,0:0:0:0:
116,112,32062,2,0,L|28:132,1,80,2|0,0:1|0:0,0:0:0:0:
40,292,32262,6,0,L|56:360,1,55.9999982910157,2|0,3:1|0:0,0:0:0:0:
200,316,32462,2,0,L|184:248,1,55.9999982910157,2|0,0:1|0:0,0:0:0:0:
132,368,32662,1,8,1:0:0:0:
280,340,32762,6,0,B|351:317|351:317|279:290,1,151.999995941162,2|2,0:1|0:1,0:0:0:0:
132,368,33062,5,8,1:0:0:0:
200,316,33162,1,8,1:0:0:0:
280,340,33262,1,0,3:0:0:0:
472,376,33462,70,0,L|512:376,1,40,10|2,1:1|0:1,0:0:0:0:
352,216,33662,2,0,L|312:216,1,40,0|2,3:1|0:1,0:0:0:0:
400,344,33862,5,4,3:2:0:0:
430,229,34062,2,0,P|456:227|480:216,1,51.999997619629,2|2,0:1|0:1,0:0:0:0:
436,104,34262,1,8,1:0:0:0:
428,92,34362,2,0,P|387:73|341:81,1,80,2|2,0:1|0:1,0:0:0:0:
335,152,34662,6,0,P|326:188|308:156,1,95.9999970703126,2|2,3:1|0:1,0:0:0:0:
253,24,34962,2,0,P|302:0|356:11,1,111.999996582031,2|2,0:1|0:1,0:0:0:0:
347,81,35262,2,0,P|315:94|284:88,1,64,2|0,0:1|0:0,0:0:0:0:
176,32,35462,5,0,3:2:0:0:
137,154,35662,2,0,P|111:156|88:168,1,51.999997619629,2|2,0:1|0:1,0:0:0:0:
132,280,35862,1,8,1:0:0:0:
140,292,35962,2,0,P|181:311|227:303,1,80,2|2,0:1|0:1,0:0:0:0:
232,231,36262,70,0,P|241:195|260:228,1,95.9999970703126,0|0,3:0|0:0,0:0:0:0:
314,359,36562,2,0,P|265:384|212:373,1,111.999996582031,2|2,0:1|0:1,0:0:0:0:
220,302,36862,2,0,P|252:289|284:296,1,64,2|0,0:1|0:0,0:0:0:0:
192,368,37062,54,0,B|128:384|128:384|76:336,1,136.000002593994,4|2,1:3|3:1,0:0:0:0:
352,296,37462,2,0,B|404:248|404:248|468:264,1,136.000002593994,4|0,1:3|3:1,0:0:0:0:
72,356,37862,6,0,L|104:176,1,136.000002593994,4|0,1:3|3:0,0:0:0:0:
464,244,38262,2,0,L|496:424,1,136.000002593994,4|0,1:3|3:0,0:0:0:0:
476,360,38562,1,2,0:1:0:0:
476,360,38662,6,0,L|400:348,1,60.0000022888184,8|0,1:0|0:0,0:0:0:0:
104,240,38862,2,0,L|180:228,1,60.0000022888184,8|0,1:0|0:0,0:0:0:0:
392,276,39062,6,0,L|316:288,1,60.0000022888184,4|0,1:2|0:0,0:0:0:0:
148,312,39262,2,0,L|224:324,1,60.0000022888184,8|0,1:1|0:0,0:0:0:0:
292,368,39462,1,0,1:0:0:0:
288,360,39562,1,0,1:0:0:0:
284,352,39662,1,0,3:3:0:0:
204,144,39862,1,8,1:0:0:0:
312,20,40062,1,0,3:3:0:0:
396,168,40262,6,0,P|453:179|503:149,1,120.000004577637,4|0,3:1|0:0,0:0:0:0:
503,149,40862,1,0,3:0:0:0:
440,104,41062,1,8,0:1:0:0:
396,168,41462,1,2,0:0:0:0:
216,72,41862,6,0,P|158:83|108:53,1,120.000004577637,2|0,3:2|0:0,0:0:0:0:
109,52,42462,1,0,3:3:0:0:
172,7,42662,1,8,0:1:0:0:
216,71,43062,1,2,3:2:0:0:
136,228,43462,6,0,P|160:180|152:116,1,120.000004577637,2|0,3:2|0:0,0:0:0:0:
109,52,44062,1,0,3:3:0:0:
72,272,44262,2,0,L|124:308,1,60.0000022888184,8|0,0:1|0:3,0:0:0:0:
196,280,44662,1,0,3:3:0:0:
196,280,45062,6,0,L|286:276,1,90.0000034332277,2|0,3:2|3:0,0:0:0:0:
296,292,45462,2,0,P|308:264|303:235,1,60.0000022888184,0|0,3:0|3:0,0:0:0:0:
296,216,45762,1,0,3:0:0:0:
260,200,45862,70,0,L|268:156,1,30.0000011444092,8|0,0:1|3:0,0:0:0:0:
196,280,46162,2,0,L|188:236,1,30.0000011444092,0|8,3:1|0:1,0:0:0:0:
224,360,46462,1,0,3:3:0:0:
32,364,46662,6,0,P|92:376|140:344,1,120.000004577637,6|0,3:2|0:0,0:0:0:0:
224,360,47262,1,0,3:3:0:0:
76,288,47462,2,0,L|61:169,1,120.000004577637,8|0,0:1|0:0,0:0:0:0:
330,349,48262,6,0,P|270:361|222:329,1,120.000004577637,2|0,3:2|0:0,0:0:0:0:
138,345,48862,1,0,3:2:0:0:
286,273,49062,2,0,L|301:154,1,120.000004577637,8|0,0:1|3:0,0:0:0:0:
424,180,49862,5,0,3:0:0:0:
256,192,50262,1,0,3:0:0:0:
88,204,50662,69,8,0:1:0:0:
256,192,50862,1,8,0:1:0:0:
424,180,51062,1,8,0:1:0:0:
428,168,51162,1,8,0:1:0:0:
432,156,51262,1,0,3:3:0:0:
352,20,51462,6,0,L|359:139,1,120.000004577637,4|0,3:3|0:0,0:0:0:0:
356,216,51762,6,0,P|431:165|461:251,1,210.000008010865
292,260,52662,5,2,3:0:0:0:
260,264,52762,1,2,3:0:0:0:
228,268,52862,1,2,3:0:0:0:
324,384,53062,70,0,P|368:320|340:264,1,120,4|0,3:2|0:0,0:0:0:0:
292,260,53462,1,8,1:0:0:0:
440,320,53662,2,0,P|479:321|512:299,1,80,2|0,0:2|3:0,0:0:0:0:
334,143,54062,2,0,P|333:182|355:215,1,80,2|8,0:2|1:0,0:0:0:0:
444,316,54462,1,2,0:0:0:0:
320,380,54662,6,0,L|240:373,1,60.0000022888184,0|2,3:0|2:0,0:0:0:0:
272,364,55062,2,0,L|278:284,1,60.0000022888184,8|2,1:0|2:0,0:0:0:0:
288,292,55462,6,0,L|162:281,1,120,0|0,3:0|3:0,0:0:0:0:
148,280,55862,1,8,1:0:0:0:
52,133,56062,1,0,3:0:0:0:
188,0,56262,86,0,P|144:64|172:120,1,120,0|0,3:0|0:0,0:0:0:0:
220,124,56662,1,8,1:0:0:0:
71,63,56862,2,0,P|32:63|0:83,1,80,2|0,0:2|3:0,0:0:0:0:
178,241,57262,2,0,P|179:202|157:169,1,80,2|8,0:2|1:0,0:0:0:0:
68,68,57662,1,2,0:0:0:0:
20,228,57862,5,2,3:2:0:0:
40,238,57962,1,2,0:0:0:0:
66,237,58062,2,0,P|85:233|104:224,1,40,2|2,0:0|0:0,0:0:0:0:
98,324,58262,5,8,1:0:0:0:
84,317,58362,1,2,0:0:0:0:
68,313,58462,2,0,P|48:314|28:320,1,40,2|2,0:0|0:0,0:0:0:0:
164,280,58662,5,8,1:1:0:0:
168,300,58762,1,8,1:1:0:0:
176,320,58862,1,0,3:0:0:0:
188,336,58962,1,2,2:0:0:0:
252,276,59062,69,8,1:1:0:0:
254,237,59162,1,8,1:1:0:0:
272,200,59262,1,2,3:2:0:0:
304,176,59362,1,2,2:0:0:0:
345,172,59462,6,0,P|398:213|331:207,1,176.000005371094,4|8,3:2|1:0,0:0:0:0:
208,64,60062,1,2,0:0:0:0:
336,28,60262,1,0,3:0:0:0:
436,116,60462,2,0,P|463:144|502:150,1,80,2|8,0:0|1:0,0:0:0:0:
260,184,60862,2,0,B|340:176,1,80,2|0,0:0|3:0,0:0:0:0:
432,120,61262,2,0,B|463:46,1,80,2|8,0:0|1:0,0:0:0:0:
428,208,61662,1,2,0:0:0:0:
288,108,61862,2,0,P|229:104|184:148,1,120,0|0,3:0|3:0,0:0:0:0:
175,160,62262,2,0,P|141:185|104:184,1,80,8|2,1:0|2:2,0:0:0:0:
0,24,62662,5,2,3:2:0:0:
0,24,62762,1,2,2:0:0:0:
0,24,62862,1,2,2:2:0:0:
76,64,63062,1,8,1:0:0:0:
36,236,63262,2,0,L|16:316,1,80,2|0,0:0|3:0,0:0:0:0:
168,356,63662,2,0,L|148:276,1,80,2|8,2:0|1:0,0:0:0:0:
12,308,64062,6,0,P|92:320|148:268,1,160,2|2,2:0|2:0,0:0:0:0:
152,192,64662,1,8,1:0:0:0:
197,351,64862,69,0,0:0:0:0:
181,356,64962,1,2,2:0:0:0:
168,368,65062,1,0,3:0:0:0:
344,368,65262,1,8,1:0:0:0:
331,356,65362,1,8,1:0:0:0:
314,352,65462,54,0,P|328:326|322:297,1,60.0000022888184,8|0,1:0|2:0,0:0:0:0:
189,297,65662,2,0,P|183:326|197:351,1,60.0000022888184,8|0,1:0|2:0,0:0:0:0:
256,244,65862,6,0,L|256:276,3,20,0|0|0|0,1:0|1:0|1:0|0:0,0:0:0:0:
256,244,66062,6,0,L|256:180,1,60.0000022888184,4|0,3:2|0:0,0:0:0:0:
256,0,66262,6,0,B|225:20|225:72|257:92|257:92|288:112|288:164|256:184,1,215.999993408203,4|0,3:2|0:0,0:0:0:0:
184,212,66662,6,0,L|60:200,1,120,2|0,3:2|0:0,0:0:0:0:
48,212,67062,1,8,1:0:0:0:
84,52,67262,1,2,0:0:0:0:
84,52,67662,5,2,0:0:0:0:
184,212,67862,1,8,1:0:0:0:
116,276,68062,5,2,0:0:0:0:
132,132,68262,1,0,3:0:0:0:
380,132,68462,6,0,L|388:200,1,40,2|0,0:0|3:0,0:0:0:0:
396,276,68662,1,8,1:0:0:0:
328,212,68862,70,0,L|368:156,1,40,2|0,2:0|3:0,0:0:0:0:
436,56,69062,1,0,3:0:0:0:
256,184,69262,1,2,0:0:0:0:
76,56,69462,6,0,B|100:72|100:72|216:60,1,120,8|0,1:0|0:0,0:0:0:0:
188,156,69862,2,0,B|164:140|164:140|48:152,1,120,0|0,3:0|0:0,0:0:0:0:
0,156,70262,1,8,1:0:0:0:
84,324,70462,1,2,0:0:0:0:
84,324,70862,5,2,0:0:0:0:
183,164,71062,1,8,1:0:0:0:
115,100,71262,5,2,0:0:0:0:
131,244,71462,1,0,3:0:0:0:
379,244,71662,70,0,L|387:176,1,40,2|0,2:2|3:0,0:0:0:0:
395,100,71862,1,8,1:0:0:0:
327,164,72062,1,0,3:0:0:0:
435,320,72262,6,0,P|392:280|280:316,1,160,0|8,3:0|1:0,0:0:0:0:
356,368,72862,1,0,0:0:0:0:
435,320,73062,6,0,B|384:296|378:228|378:228|352:288|298:295,1,223.999993164063,0|8,3:0|1:0,0:0:0:0:
208,164,73662,1,2,0:0:0:0:
352,104,73862,6,0,P|357:65|337:31,1,80,0|2,3:0|0:0,0:0:0:0:
419,146,74262,2,0,P|453:126|492:132,1,80,8|2,1:0|0:0,0:0:0:0:
368,260,74662,2,0,L|348:160,1,80,0|2,3:0|0:0,0:0:0:0:
435,68,75062,2,0,L|415:168,1,80,8|2,1:0|0:0,0:0:0:0:
288,244,75462,69,2,3:2:0:0:
276,236,75562,1,2,2:0:0:0:
264,232,75662,2,0,P|245:229|227:237,1,40,2|0,2:0|2:0,0:0:0:0:
136,164,75862,5,8,1:0:0:0:
156,172,75962,1,2,2:2:0:0:
176,172,76062,2,0,P|202:164|212:152,1,40,2|0,2:0|0:0,0:0:0:0:
244,84,76262,6,0,P|244:64|216:40,3,40,0|2|2|0,3:0|0:0|0:0|0:0,0:0:0:0:
168,92,76662,5,8,1:0:0:0:
164,88,76762,1,0,0:0:0:0:
160,84,76862,1,2,0:0:0:0:
156,80,76962,1,2,0:0:0:0:
152,76,77062,69,2,3:2:0:0:
132,108,77162,1,0,0:0:0:0:
100,120,77262,2,0,P|80:122|60:118,1,40,0|2,0:0|0:0,0:0:0:0:
104,208,77462,5,8,1:0:0:0:
124,240,77562,1,8,1:0:0:0:
156,252,77662,2,0,P|176:254|196:250,1,40,0|0,3:0|0:0,0:0:0:0:
152,340,77862,5,2,3:2:0:0:
132,336,77962,1,0,2:0:0:0:
112,328,78062,1,0,2:0:0:0:
96,316,78162,1,0,2:0:0:0:
156,252,78262,5,8,1:0:0:0:
195,250,78362,1,8,1:0:0:0:
232,232,78462,1,8,1:0:0:0:
256,200,78562,1,8,1:0:0:0:
260,159,78662,70,0,P|219:106|225:173,1,180.000006866455,4|0,3:2|3:3,0:0:0:0:
332,184,79462,5,8,1:0:0:0:
396,152,79595,1,2,3:0:0:0:
336,112,79728,1,2,3:0:0:0:
338,187,79862,5,2,0:3:0:0:
395,144,79995,1,2,3:0:0:0:
329,115,80128,1,2,3:0:0:0:
345,189,80262,6,0,B|464:178,1,120,0|0,3:0|0:0,0:0:0:0:
460,104,80662,6,2,P|515:24|418:25,1,240.000009155274,2|8,0:0|0:1,0:1:0:0:
225,159,81262,6,0,L|464:178,1,240.000009155274,0|0,3:0|3:0,0:0:0:0:
360,320,81862,70,0,P|319:373|325:306,1,180.000006866455,0|0,3:0|3:0,0:0:0:0:
432,295,82662,2,0,L|444:344,1,30.0000011444092,8|0,0:1|0:0,0:0:0:0:
380,216,82862,2,0,L|368:265,1,30.0000011444092,8|0,0:1|0:0,0:0:0:0:
396,144,83062,1,0,3:0:0:0:
116,240,83262,1,2,2:0:0:0:
116,240,83462,6,0,L|132:180,1,60.0000022888184,0|2,3:0|0:1,0:0:0:0:
124,164,83862,2,0,L|140:104,1,60.0000022888184,0|2,0:0|3:1,0:0:0:0:
132,84,84262,69,8,0:1:0:0:
116,240,84462,1,2,3:1:0:0:
256,172,84662,2,0,L|200:168,1,40,8|8,0:1|0:1,0:0:0:0:
24,148,84862,1,0,3:0:0:0:
188,32,85062,6,0,P|205:63|204:98,1,71.9999978027344,4|0,3:3|0:0,0:0:0:0:
167,217,85462,6,0,P|185:186|216:169,1,71.9999978027344,4|0,3:3|0:0,0:0:0:0:
204,99,85862,6,0,P|168:98|137:80,1,71.9999978027344,4|0,3:3|0:0,0:0:0:0:
216,169,86262,70,0,P|233:200|232:235,1,71.9999978027344,4|0,3:3|0:0,0:0:0:0:
167,304,86662,6,0,P|208:326|255:325,1,96,4|0,3:3|0:0,0:0:0:0:
412,278,87062,6,0,P|370:302|347:343,1,96,4|0,3:3|0:0,0:0:0:0:
256,325,87462,6,0,P|254:276|230:234,1,96,4|0,3:3|0:0,0:0:0:0:
347,342,87862,70,0,P|388:364|435:363,1,96,4|0,3:3|0:0,0:0:0:0:
328,224,88262,5,0,3:0:0:0:
167,304,88462,1,0,3:0:0:0:
436,362,88662,5,8,0:1:0:0:
324,240,88862,1,0,3:0:0:0:
167,304,89062,5,0,3:0:0:0:
152,312,89162,1,0,3:0:0:0:
122,244,89262,69,0,3:0:0:0:
105,243,89362,1,0,3:0:0:0:
114,170,89462,5,0,3:0:0:0:
100,161,89562,1,0,3:0:0:0:
144,103,89662,5,0,3:0:0:0:
135,88,89762,1,0,3:0:0:0:
208,64,89862,6,2,P|340:116|447:22,1,300,2|0,0:0|0:0,0:1:0:0:
476,132,91462,69,8,0:0:0:0:
467,167,91762,1,8,0:0:0:0:
462,187,92062,1,8,0:0:0:0:
459,194,92262,86,0,B|422:203|422:203|384:188,1,80,8|0,0:1|0:0,0:0:0:0:
372,348,92462,2,0,B|409:339|409:339|447:354,1,80,8|0,0:1|0:0,0:0:0:0:
500,276,92662,5,8,0:1:0:0:
444,272,92762,1,8,0:1:0:0:
388,268,92862,1,8,0:1:0:0:
332,264,92962,1,8,0:1:0:0:
308,192,93062,70,0,L|300:112,1,55.9999982910157,4|0,3:1|0:0,0:0:0:0:
308,80,93262,2,0,L|300:160,1,55.9999982910157,2|0,0:1|0:0,0:0:0:0:
380,132,93462,1,8,1:0:0:0:
228,124,93562,2,0,L|176:144,1,55.9999982910157,2|0,0:1|0:0,0:0:0:0:
232,204,93762,1,2,0:1:0:0:
208,52,93862,5,2,3:1:0:0:
169,42,93962,1,0,0:0:0:0:
146,75,94062,1,2,0:0:0:0:
100,140,94162,5,2,0:1:0:0:
53,152,94262,1,8,1:0:0:0:
25,112,94362,1,2,0:0:0:0:
80,1,94462,6,0,P|83:29|76:56,1,55.9999982910157,2|0,0:1|0:2,0:0:0:0:
0,224,94662,70,0,L|80:232,1,55.9999982910157,0|0,3:2|0:0,0:0:0:0:
188,244,94862,2,0,L|108:236,1,55.9999982910157,2|2,0:1|0:1,0:0:0:0:
102,165,95062,5,8,1:0:0:0:
88,304,95162,2,0,L|80:384,1,55.9999982910157,2|2,0:1|0:1,0:0:0:0:
8,324,95362,1,2,0:0:0:0:
164,340,95462,5,2,3:1:0:0:
203,350,95562,1,0,0:0:0:0:
226,317,95662,1,2,0:0:0:0:
284,256,95762,5,2,0:1:0:0:
331,244,95862,1,8,1:0:0:0:
359,284,95962,1,2,0:0:0:0:
312,384,96062,70,0,P|299:357|298:329,1,55.9999982910157,2|2,0:1|0:0,0:0:0:0:
368,64,96262,6,0,L|358:127,1,64,0|0,3:2|0:0,0:0:0:0:
376,336,96462,2,0,L|360:232,1,64,2|0,0:1|0:0,0:0:0:0:
280,204,96662,5,8,1:0:0:0:
432,196,96762,2,0,L|512:192,1,64,2|0,0:1|0:0,0:0:0:0:
356,200,96962,1,2,0:2:0:0:
244,272,97062,5,2,3:1:0:0:
197,284,97162,1,0,0:0:0:0:
169,244,97262,1,2,0:0:0:0:
92,148,97362,5,2,0:0:0:0:
125,100,97462,1,8,1:0:0:0:
182,114,97562,1,2,0:1:0:0:
280,192,97662,70,0,P|248:193|218:182,1,64,2|2,0:1|0:2,0:0:0:0:
128,16,97862,5,2,3:1:0:0:
120,92,97962,1,2,0:0:0:0:
56,48,98062,1,0,0:0:0:0:
146,59,98162,5,2,0:1:0:0:
76,90,98262,1,8,1:0:0:0:
82,12,98362,2,0,L|144:16,2,46.0000008773804,2|0|2,0:1|0:0|0:1,0:0:0:0:
196,124,98662,69,2,3:1:0:0:
260,169,98762,1,2,0:1:0:0:
266,91,98862,1,0,0:0:0:0:
214,164,98962,5,2,0:1:0:0:
287,132,99062,1,8,1:1:0:0:
222,86,99162,2,0,L|191:131,2,46.0000008773804,2|0|2,0:1|3:0|0:1,0:0:0:0:
228,240,99462,6,0,L|288:248,1,55.9999982910157,4|0,3:2|0:0,0:0:0:0:
301,301,99662,2,0,L|284:248,1,55.9999982910157,2|0,0:1|0:0,0:0:0:0:
332,192,99862,1,8,1:0:0:0:
228,316,99962,2,0,L|192:360,1,55.9999982910157,2|0,0:1|0:0,0:0:0:0:
280,376,100162,1,2,0:1:0:0:
160,276,100262,5,2,3:1:0:0:
121,266,100362,1,0,0:0:0:0:
98,299,100462,1,2,0:0:0:0:
84,372,100562,69,2,0:1:0:0:
37,384,100662,1,8,1:0:0:0:
9,344,100762,1,2,0:0:0:0:
32,216,100862,6,0,P|35:244|28:271,1,55.9999982910157,2|0,0:1|0:2,0:0:0:0:
88,160,101062,6,0,L|168:152,1,55.9999982910157,0|0,3:2|0:0,0:0:0:0:
276,140,101262,2,0,L|196:148,1,55.9999982910157,2|2,0:1|0:1,0:0:0:0:
190,219,101462,5,8,1:0:0:0:
176,80,101562,2,0,L|168:0,1,55.9999982910157,2|2,0:1|0:1,0:0:0:0:
96,60,101762,1,2,0:0:0:0:
252,44,101862,69,2,3:1:0:0:
291,34,101962,1,0,0:0:0:0:
314,67,102062,1,2,0:0:0:0:
372,128,102162,5,2,0:1:0:0:
419,140,102262,1,8,1:0:0:0:
447,100,102362,1,2,0:0:0:0:
400,4,102462,6,0,P|387:31|386:59,1,55.9999982910157,2|2,0:1|0:0,0:0:0:0:
408,276,102662,6,0,L|418:213,1,64,0|0,3:2|0:0,0:0:0:0:
400,4,102862,2,0,L|416:108,1,64,2|0,0:1|0:0,0:0:0:0:
496,136,103062,69,8,1:0:0:0:
344,144,103162,2,0,L|264:148,1,64,2|0,0:1|0:0,0:0:0:0:
419,140,103362,1,2,0:2:0:0:
296,64,103462,5,2,3:1:0:0:
249,52,103562,1,0,0:0:0:0:
221,92,103662,1,2,0:0:0:0:
144,188,103762,5,2,0:0:0:0:
177,236,103862,1,8,1:0:0:0:
234,222,103962,1,2,0:1:0:0:
336,164,104062,6,0,P|306:153|274:154,1,64,2|2,0:1|0:2,0:0:0:0:
80,328,104262,70,0,L|66:365,1,40,2|0,3:1|0:0,0:0:0:0:
104,256,104462,2,0,L|77:225,1,40,2|0,0:1|0:0,0:0:0:0:
156,312,104662,1,8,1:1:0:0:
156,312,104762,2,0,L|220:308,2,40,2|0|0,0:1|0:0|0:0,0:0:0:0:
152,198,105062,5,10,1:0:0:0:
256,192,105162,1,8,1:0:0:0:
360,186,105262,2,0,L|399:183,1,40,0|0,3:1|0:0,0:0:0:0:
248,88,105462,6,0,L|244:34,1,51.999997619629,8|0,1:1|0:0,0:0:0:0:
264,296,105662,2,0,L|267:349,1,51.999997619629,0|0,3:1|0:0,0:0:0:0:
256,192,105862,85,4,3:2:0:0:
128,192,105962,2,0,P|153:202|180:200,1,55.9999982910157,2|2,0:0|0:0,0:0:0:0:
256,192,106162,5,4,3:3:0:0:
288,316,106262,2,0,P|271:293|268:265,1,55.9999982910157,2|2,0:0|0:0,0:0:0:0:
340,88,106462,2,0,L|306:131,1,55.9999982910157,4|2,3:0|0:0,0:0:0:0:
144,340,106662,5,8,1:0:0:0:
144,340,106762,1,8,1:0:0:0:
159,321,106862,2,0,L|192:275,1,55.9999982910157,2|0,3:2|0:0,0:0:0:0:
344,264,107062,6,0,P|368:252|395:255,1,55.9999982910157,4|2,1:1|0:0,0:0:0:0:
168,127,107262,2,0,P|174:101|164:75,1,55.9999982910157,0|0,3:0|0:0,0:0:0:0:
256,192,107462,69,4,3:2:0:0:
422,192,107562,2,0,P|389:206|353:202,1,71.9999978027344,2|2,0:0|0:0,0:0:0:0:
256,192,107762,5,4,3:3:0:0:
214,352,107862,2,0,P|235:323|239:287,1,71.9999978027344,2|2,0:0|0:0,0:0:0:0:
147,57,108062,2,0,L|191:113,1,71.9999978027344,4|2,3:0|0:0,0:0:0:0:
401,383,108262,5,8,1:0:0:0:
401,383,108362,1,8,1:0:0:0:
381,359,108462,2,0,L|337:300,1,71.9999978027344,2|0,3:2|0:0,0:0:0:0:
139,287,108662,6,0,P|107:271|71:275,1,71.9999978027344,4|2,1:1|0:0,0:0:0:0:
370,108,108862,2,0,P|362:74|375:40,1,71.9999978027344,0|0,3:0|0:0,0:0:0:0:
256,192,109062,69,4,1:2:0:0:
181,200,109162,2,0,P|153:202|128:192,1,55.9999982910157,2|2,0:0|0:0,0:0:0:0:
256,192,109362,5,4,1:3:0:0:
292,109,109462,2,0,P|305:79|332:59,1,68.0000012969971,2|2,0:0|0:0,0:0:0:0:
319,277,109662,6,0,P|341:309|346:348,1,80,4|8,1:3|1:1,0:0:0:0:
112,268,109862,5,8,1:1:0:0:
112,268,109962,1,8,1:1:0:0:
139,287,110062,2,0,P|167:287|200:264,1,68.0000012969971,0|0,3:0|0:0,0:0:0:0:
371,236,110262,2,0,P|360:216|330:202,1,55.9999982910157,4|0,2:3|0:0,0:0:0:0:
241,98,110462,2,0,P|232:113|234:139,1,44.0000013427735,2|0,2:2|0:0,0:0:0:0:
256,192,110662,69,4,1:2:0:0:
288,208,110762,1,2,0:0:0:0:
331,202,110862,1,2,0:0:0:0:
376,148,110962,1,2,0:0:0:0:
364,72,111062,5,2,0:3:0:0:
296,40,111162,1,2,0:3:0:0:
224,64,111262,1,2,0:3:0:0:
200,136,111362,1,2,0:3:0:0:
240,204,111462,6,0,L|292:232,1,44.0000013427735,0|2,1:0|0:0,0:0:0:0:
360,76,111662,2,0,L|321:96,1,44.0000013427735,0|2,1:0|0:0,0:0:0:0:
224,288,111862,5,0,1:1:0:0:
280,344,111962,1,0,1:1:0:0:
356,360,112062,1,0,1:1:0:0:
428,328,112162,1,0,1:1:0:0:
472,264,112262,70,0,L|476:208,1,55.9999982910157,4|2,3:2|0:0,0:0:0:0:
428,124,112462,5,2,0:0:0:0:
424,140,112562,1,2,0:0:0:0:
496,84,112662,5,8,1:0:0:0:
488,56,112762,1,2,0:0:0:0:
480,28,112862,2,0,B|452:26|452:26|433:47,1,55.9999982910157,2|0,0:0|0:0,0:0:0:0:
352,176,113062,6,0,L|280:164,1,55.9999982910157,0|0,3:0|0:0,0:0:0:0:
200,68,113262,69,2,0:0:0:0:
196,52,113362,1,2,0:0:0:0:
172,144,113462,5,8,1:0:0:0:
164,172,113562,1,2,0:0:0:0:
156,200,113662,2,0,B|128:202|128:202|109:181,1,55.9999982910157,2|0,0:0|0:0,0:0:0:0:
124,36,113862,5,4,3:2:0:0:
168,12,113962,1,2,0:0:0:0:
196,52,114062,2,0,B|200:80|200:80|178:99,1,55.9999982910157,0|2,0:0|0:0,0:0:0:0:
334,88,114262,5,8,1:0:0:0:
290,77,114362,1,2,0:0:0:0:
275,118,114462,2,0,B|278:143|278:143|302:155,1,51.999997619629,0|2,0:0|0:0,0:0:0:0:
156,200,114662,69,0,3:0:0:0:
176,235,114762,1,2,0:0:0:0:
143,258,114862,2,0,B|119:261|119:261|104:243,1,47.9999985351563,0|2,0:0|0:0,0:0:0:0:
255,298,115062,5,8,1:0:0:0:
244,332,115162,1,2,0:0:0:0:
279,345,115262,2,0,B|300:342|300:342|309:322,1,44.0000013427735,0|2,0:0|0:0,0:0:0:0:
263,114,115462,6,0,L|255:170,1,55.9999982910157,4|0,1:3|0:0,0:0:0:0:
231,230,115662,2,0,L|239:174,1,55.9999982910157,0|0,3:0|0:0,0:0:0:0:
239,46,115862,6,0,L|248:105,1,60.0000022888184,4|0,1:3|0:0,0:0:0:0:
255,298,116062,2,0,L|247:238,1,60.0000022888184,0|0,3:0|0:0,0:0:0:0:
112,124,116262,70,0,L|176:133,1,64,4|0,1:3|0:0,0:0:0:0:
384,140,116462,2,0,L|319:130,1,64,0|0,3:0|0:0,0:0:0:0:
48,152,116662,6,0,L|119:141,1,68.0000012969971,4|0,1:3|0:0,0:0:0:0:
444,116,116862,2,0,L|372:126,1,68.0000012969971,0|0,3:0|0:0,0:0:0:0:
252,164,117062,5,0,3:0:0:0:
232,172,117162,1,2,0:2:0:0:
224,194,117262,1,0,3:0:0:0:
234,213,117362,1,2,0:2:0:0:
255,221,117462,1,0,3:0:0:0:
275,211,117562,1,2,0:2:0:0:
281,190,117662,1,0,3:0:0:0:
272,170,117762,1,2,0:2:0:0:
224,108,117862,5,0,3:0:0:0:
169,163,117962,1,0,3:0:0:0:
178,239,118062,1,2,3:2:0:0:
243,281,118162,1,0,3:0:0:0:
317,255,118262,1,2,3:2:0:0:
342,182,118362,1,0,3:0:0:0:
301,117,118462,1,2,3:2:0:0:
256,193,118562,69,2,1:2:0:0:
