osu file format v14

[General]
AudioFilename: BRAVE OUT.mp3
AudioLeadIn: 0
PreviewTime: 92162
Countdown: 0
SampleSet: Soft
StackLeniency: 0.7
Mode: 3
LetterboxInBreaks: 0
SpecialStyle: 0
WidescreenStoryboard: 1

[Editor]
DistanceSpacing: 0.9
BeatDivisor: 4
GridSize: 4
TimelineZoom: 1.4

[Metadata]
Title:BRAVE OUT
TitleUnicode:BRAVE OUT
Artist:nomico / DOWNFORCE
ArtistUnicode:nomico / DOWNFORCE
Creator:yf_bmp
Version:7K HD
Source:beatmania IIDX 21 SPADA
Tags:Masayoshi Minoshima Alstroemeria Records electrance fanzhen0019 Gyro Zeppeli Rizia ZZHBOY [Emiria] LunaSaika Pata-Mon NeilPerry
BeatmapID:1194308
BeatmapSetID:332201

[Difficulty]
HPDrainRate:7
CircleSize:7
OverallDifficulty:7
ApproachRate:9
SliderMultiplier:1.6
SliderTickRate:1

[Events]
//Background and Video events
0,0,"BRAVE OUT.png",0,0
//Break Periods
//Storyboard Layer 0 (Background)
//Storyboard Layer 1 (Fail)
//Storyboard Layer 2 (Pass)
//Storyboard Layer 3 (Foreground)
//Storyboard Sound Samples

[TimingPoints]
262,400,4,2,0,70,1,0

[Colours]
Combo1 : 255,255,0
Combo2 : 255,128,192
Combo3 : 128,128,255
Combo4 : 128,255,128
Combo5 : 255,255,128
Combo6 : 255,0,255
Combo7 : 128,0,255
Combo8 : 0,255,64

[HitObjects]
402,192,662,128,0,1862:0:0:0:0:
36,192,1862,1,0,0:0:0:0:
475,192,1862,1,0,0:0:0:0:
329,192,2062,1,0,0:0:0:0:
182,192,2262,1,0,0:0:0:0:
36,192,2462,1,0,0:0:0:0:
329,192,2462,1,0,0:0:0:0:
182,192,2662,1,0,0:0:0:0:
402,192,2662,1,0,0:0:0:0:
475,192,2662,1,0,0:0:0:0:
329,192,2862,1,0,0:0:0:0:
182,192,3062,1,0,0:0:0:0:
36,192,3262,1,0,0:0:0:0:
329,192,3262,1,0,0:0:0:0:
36,192,3462,1,0,0:0:0:0:
475,192,3462,1,0,0:0:0:0:
402,192,3662,1,0,0:0:0:0:
329,192,3862,1,0,0:0:0:0:
256,192,4062,1,0,0:0:0:0:
36,192,4062,1,0,0:0:0:0:
329,192,4262,1,0,0:0:0:0:
475,192,4262,1,0,0:0:0:0:
109,192,4262,1,0,0:0:0:0:
36,192,4462,1,0,0:0:0:0:
256,192,4462,1,0,0:0:0:0:
402,192,4662,1,0,0:0:0:0:
182,192,4862,1,0,0:0:0:0:
109,192,4862,1,0,0:0:0:0:
36,192,5062,1,0,0:0:0:0:
475,192,5062,1,0,0:0:0:0:
329,192,5062,1,0,0:0:0:0:
182,192,5262,1,0,0:0:0:0:
402,192,5462,1,0,0:0:0:0:
109,192,5662,1,0,0:0:0:0:
256,192,5662,1,0,0:0:0:0:
36,192,5862,1,0,0:0:0:0:
329,192,5862,1,0,0:0:0:0:
475,192,5862,1,0,0:0:0:0:
109,192,6062,1,0,0:0:0:0:
182,192,6262,1,0,0:0:0:0:
36,192,6462,1,0,0:0:0:0:
256,192,6462,1,0,0:0:0:0:
329,192,6662,1,0,0:0:0:0:
475,192,6662,1,0,0:0:0:0:
109,192,6662,1,0,0:0:0:0:
256,192,6762,1,0,0:0:0:0:
182,192,6862,1,0,0:0:0:0:
109,192,6962,1,0,0:0:0:0:
36,192,7062,1,0,0:0:0:0:
475,192,7162,1,0,0:0:0:0:
402,192,7262,1,0,0:0:0:0:
182,192,7262,1,0,0:0:0:0:
329,192,7362,1,0,0:0:0:0:
475,192,7462,1,0,0:0:0:0:
36,192,7462,1,0,0:0:0:0:
256,192,7462,1,0,0:0:0:0:
182,192,7662,1,0,0:0:0:0:
402,192,7662,1,0,0:0:0:0:
475,192,7862,1,0,0:0:0:0:
36,192,7862,1,0,0:0:0:0:
182,192,7962,1,0,0:0:0:0:
329,192,8062,1,0,0:0:0:0:
109,192,8062,1,0,0:0:0:0:
36,192,8262,1,0,0:0:0:0:
475,192,8262,1,0,0:0:0:0:
256,192,8262,1,0,0:0:0:0:
402,192,8462,1,0,0:0:0:0:
329,192,8662,1,0,0:0:0:0:
36,192,8662,1,0,0:0:0:0:
109,192,8862,1,0,0:0:0:0:
256,192,8862,1,0,0:0:0:0:
329,192,9062,1,0,0:0:0:0:
475,192,9062,1,0,0:0:0:0:
182,192,9062,1,0,0:0:0:0:
109,192,9262,1,0,0:0:0:0:
36,192,9462,1,0,0:0:0:0:
256,192,9462,1,0,0:0:0:0:
109,192,9662,1,0,0:0:0:0:
329,192,9662,1,0,0:0:0:0:
402,192,9862,1,0,0:0:0:0:
182,192,9862,1,0,0:0:0:0:
256,192,10062,128,0,10462:0:0:0:0:
475,192,10062,1,0,0:0:0:0:
402,192,10262,1,0,0:0:0:0:
36,192,10462,1,0,0:0:0:0:
329,192,10462,1,0,0:0:0:0:
329,192,10662,1,0,0:0:0:0:
475,192,10662,1,0,0:0:0:0:
182,192,10662,1,0,0:0:0:0:
36,192,10862,1,0,0:0:0:0:
256,192,10862,1,0,0:0:0:0:
329,192,11062,1,0,0:0:0:0:
475,192,11062,1,0,0:0:0:0:
182,192,11062,1,0,0:0:0:0:
36,192,11262,1,0,0:0:0:0:
256,192,11262,1,0,0:0:0:0:
182,192,11462,1,0,0:0:0:0:
475,192,11462,1,0,0:0:0:0:
329,192,11462,1,0,0:0:0:0:
256,192,11562,1,0,0:0:0:0:
182,192,11662,1,0,0:0:0:0:
109,192,11762,1,0,0:0:0:0:
36,192,11862,1,0,0:0:0:0:
475,192,11862,1,0,0:0:0:0:
402,192,11962,1,0,0:0:0:0:
329,192,12062,1,0,0:0:0:0:
109,192,12062,1,0,0:0:0:0:
402,192,12162,1,0,0:0:0:0:
182,192,12262,1,0,0:0:0:0:
36,192,12262,1,0,0:0:0:0:
475,192,12262,1,0,0:0:0:0:
256,192,12362,1,0,0:0:0:0:
329,192,12462,1,0,0:0:0:0:
402,192,12562,1,0,0:0:0:0:
475,192,12662,1,0,0:0:0:0:
36,192,12662,1,0,0:0:0:0:
329,192,12862,1,0,0:0:0:0:
182,192,12862,1,0,0:0:0:0:
36,192,13062,1,0,0:0:0:0:
256,192,13062,1,0,0:0:0:0:
475,192,13062,1,0,0:0:0:0:
329,192,13262,128,0,13462:0:0:0:0:
109,192,13262,1,0,0:0:0:0:
182,192,13462,1,0,0:0:0:0:
402,192,13662,128,0,13862:0:0:0:0:
109,192,13662,1,0,0:0:0:0:
256,192,13662,1,0,0:0:0:0:
36,192,13862,1,0,0:0:0:0:
182,192,13862,1,0,0:0:0:0:
475,192,14062,1,0,0:0:0:0:
36,192,14262,1,0,0:0:0:0:
182,192,14362,1,0,0:0:0:0:
329,192,14462,1,0,0:0:0:0:
36,192,14662,1,0,0:0:0:0:
182,192,14662,1,0,0:0:0:0:
475,192,14662,1,0,0:0:0:0:
329,192,14762,1,0,0:0:0:0:
475,192,14862,1,0,0:0:0:0:
329,192,14962,1,0,0:0:0:0:
36,192,15062,1,0,0:0:0:0:
475,192,15062,1,0,0:0:0:0:
256,192,15062,1,0,0:0:0:0:
402,192,15162,1,0,0:0:0:0:
256,192,15262,1,0,0:0:0:0:
402,192,15362,1,0,0:0:0:0:
36,192,15462,1,0,0:0:0:0:
256,192,15462,1,0,0:0:0:0:
475,192,15462,1,0,0:0:0:0:
182,192,15562,1,0,0:0:0:0:
36,192,15662,1,0,0:0:0:0:
182,192,15762,1,0,0:0:0:0:
36,192,15862,1,0,0:0:0:0:
475,192,15862,1,0,0:0:0:0:
329,192,15862,1,0,0:0:0:0:
109,192,15962,1,0,0:0:0:0:
256,192,16062,1,0,0:0:0:0:
109,192,16162,1,0,0:0:0:0:
256,192,16262,1,0,0:0:0:0:
36,192,16262,1,0,0:0:0:0:
475,192,16262,1,0,0:0:0:0:
329,192,16462,1,0,0:0:0:0:
182,192,16662,1,0,0:0:0:0:
475,192,16662,1,0,0:0:0:0:
36,192,16862,1,0,0:0:0:0:
182,192,17062,1,0,0:0:0:0:
475,192,17062,1,0,0:0:0:0:
329,192,17262,1,0,0:0:0:0:
182,192,17462,1,0,0:0:0:0:
475,192,17462,1,0,0:0:0:0:
36,192,17662,1,0,0:0:0:0:
329,192,17862,1,0,0:0:0:0:
475,192,17862,1,0,0:0:0:0:
182,192,18062,1,0,0:0:0:0:
329,192,18262,1,0,0:0:0:0:
475,192,18262,1,0,0:0:0:0:
109,192,18462,1,0,0:0:0:0:
329,192,18662,1,0,0:0:0:0:
475,192,18662,1,0,0:0:0:0:
182,192,18862,1,0,0:0:0:0:
329,192,19062,1,0,0:0:0:0:
475,192,19062,1,0,0:0:0:0:
36,192,19262,1,0,0:0:0:0:
329,192,19462,1,0,0:0:0:0:
475,192,19462,1,0,0:0:0:0:
256,192,19562,1,0,0:0:0:0:
182,192,19662,1,0,0:0:0:0:
109,192,19762,1,0,0:0:0:0:
475,192,19862,1,0,0:0:0:0:
36,192,19862,1,0,0:0:0:0:
109,192,19962,1,0,0:0:0:0:
182,192,20062,1,0,0:0:0:0:
256,192,20162,1,0,0:0:0:0:
36,192,20262,1,0,0:0:0:0:
329,192,20262,1,0,0:0:0:0:
109,192,20362,1,0,0:0:0:0:
182,192,20462,1,0,0:0:0:0:
256,192,20562,1,0,0:0:0:0:
329,192,20662,1,0,0:0:0:0:
475,192,20662,1,0,0:0:0:0:
182,192,20862,1,0,0:0:0:0:
475,192,21062,1,0,0:0:0:0:
36,192,21062,1,0,0:0:0:0:
329,192,21262,1,0,0:0:0:0:
109,192,21262,1,0,0:0:0:0:
182,192,21462,1,0,0:0:0:0:
475,192,21462,1,0,0:0:0:0:
36,192,21662,1,0,0:0:0:0:
329,192,21662,1,0,0:0:0:0:
402,192,21862,1,0,0:0:0:0:
109,192,21862,1,0,0:0:0:0:
475,192,22062,1,0,0:0:0:0:
182,192,22062,1,0,0:0:0:0:
109,192,22262,1,0,0:0:0:0:
402,192,22262,1,0,0:0:0:0:
329,192,22462,1,0,0:0:0:0:
36,192,22462,1,0,0:0:0:0:
182,192,22662,1,0,0:0:0:0:
475,192,22662,1,0,0:0:0:0:
36,192,22862,1,0,0:0:0:0:
329,192,22862,1,0,0:0:0:0:
475,192,23062,1,0,0:0:0:0:
182,192,23062,1,0,0:0:0:0:
329,192,23262,1,0,0:0:0:0:
36,192,23262,1,0,0:0:0:0:
182,192,23462,1,0,0:0:0:0:
402,192,23462,1,0,0:0:0:0:
36,192,23662,1,0,0:0:0:0:
256,192,23662,1,0,0:0:0:0:
402,192,23862,1,0,0:0:0:0:
182,192,23862,1,0,0:0:0:0:
256,192,24062,1,0,0:0:0:0:
36,192,24062,1,0,0:0:0:0:
109,192,24262,128,0,24462:0:0:0:0:
475,192,24262,1,0,0:0:0:0:
256,192,24462,1,0,0:0:0:0:
109,192,24662,128,0,24862:0:0:0:0:
475,192,24662,1,0,0:0:0:0:
256,192,24862,1,0,0:0:0:0:
109,192,25062,128,0,25262:0:0:0:0:
475,192,25062,1,0,0:0:0:0:
256,192,25262,1,0,0:0:0:0:
109,192,25462,128,0,25662:0:0:0:0:
475,192,25462,1,0,0:0:0:0:
256,192,25662,1,0,0:0:0:0:
182,192,25862,1,0,0:0:0:0:
329,192,26062,1,0,0:0:0:0:
475,192,26262,1,0,0:0:0:0:
329,192,26462,1,0,0:0:0:0:
36,192,26662,1,0,0:0:0:0:
109,192,26762,1,0,0:0:0:0:
182,192,26862,1,0,0:0:0:0:
256,192,26962,1,0,0:0:0:0:
475,192,27062,1,0,0:0:0:0:
402,192,27162,1,0,0:0:0:0:
329,192,27262,1,0,0:0:0:0:
256,192,27362,1,0,0:0:0:0:
36,192,27462,1,0,0:0:0:0:
182,192,27462,1,0,0:0:0:0:
475,192,27562,1,0,0:0:0:0:
402,192,27662,1,0,0:0:0:0:
329,192,27762,1,0,0:0:0:0:
256,192,27862,1,0,0:0:0:0:
36,192,27862,1,0,0:0:0:0:
402,192,27962,1,0,0:0:0:0:
182,192,28062,1,0,0:0:0:0:
329,192,28162,1,0,0:0:0:0:
36,192,28262,1,0,0:0:0:0:
256,192,28262,1,0,0:0:0:0:
402,192,28362,1,0,0:0:0:0:
329,192,28462,1,0,0:0:0:0:
256,192,28562,1,0,0:0:0:0:
36,192,28662,1,0,0:0:0:0:
182,192,28662,1,0,0:0:0:0:
329,192,28762,1,0,0:0:0:0:
475,192,28862,1,0,0:0:0:0:
182,192,28962,1,0,0:0:0:0:
36,192,29062,1,0,0:0:0:0:
402,192,29062,1,0,0:0:0:0:
329,192,29162,1,0,0:0:0:0:
256,192,29262,1,0,0:0:0:0:
109,192,29362,1,0,0:0:0:0:
475,192,29462,1,0,0:0:0:0:
36,192,29462,1,0,0:0:0:0:
182,192,29562,1,0,0:0:0:0:
329,192,29662,1,0,0:0:0:0:
256,192,29762,1,0,0:0:0:0:
36,192,29862,1,0,0:0:0:0:
475,192,29862,1,0,0:0:0:0:
182,192,29962,1,0,0:0:0:0:
402,192,30062,1,0,0:0:0:0:
36,192,30162,1,0,0:0:0:0:
256,192,30162,1,0,0:0:0:0:
475,192,30262,1,0,0:0:0:0:
402,192,30362,1,0,0:0:0:0:
329,192,30462,1,0,0:0:0:0:
36,192,30462,1,0,0:0:0:0:
256,192,30562,1,0,0:0:0:0:
36,192,30662,1,0,0:0:0:0:
182,192,30662,1,0,0:0:0:0:
475,192,30762,1,0,0:0:0:0:
402,192,30862,1,0,0:0:0:0:
329,192,30962,1,0,0:0:0:0:
36,192,31062,1,0,0:0:0:0:
402,192,31062,1,0,0:0:0:0:
329,192,31162,1,0,0:0:0:0:
256,192,31262,1,0,0:0:0:0:
182,192,31362,1,0,0:0:0:0:
475,192,31462,1,0,0:0:0:0:
109,192,31462,1,0,0:0:0:0:
329,192,31562,1,0,0:0:0:0:
182,192,31662,1,0,0:0:0:0:
402,192,31762,1,0,0:0:0:0:
475,192,31862,1,0,0:0:0:0:
256,192,31862,1,0,0:0:0:0:
36,192,31962,1,0,0:0:0:0:
182,192,32062,1,0,0:0:0:0:
329,192,32162,1,0,0:0:0:0:
475,192,32262,1,0,0:0:0:0:
36,192,32262,1,0,0:0:0:0:
402,192,32362,1,0,0:0:0:0:
329,192,32462,1,0,0:0:0:0:
36,192,32562,1,0,0:0:0:0:
475,192,32662,1,0,0:0:0:0:
256,192,32662,1,0,0:0:0:0:
109,192,32762,1,0,0:0:0:0:
329,192,32862,1,0,0:0:0:0:
182,192,32962,1,0,0:0:0:0:
402,192,33062,1,0,0:0:0:0:
36,192,33062,1,0,0:0:0:0:
256,192,33162,1,0,0:0:0:0:
475,192,33162,1,0,0:0:0:0:
36,192,33262,1,0,0:0:0:0:
329,192,33262,1,0,0:0:0:0:
109,192,33362,1,0,0:0:0:0:
475,192,33462,1,0,0:0:0:0:
256,192,33462,1,0,0:0:0:0:
402,192,33562,1,0,0:0:0:0:
182,192,33662,1,0,0:0:0:0:
36,192,33662,1,0,0:0:0:0:
256,192,33762,1,0,0:0:0:0:
36,192,33862,1,0,0:0:0:0:
475,192,33862,1,0,0:0:0:0:
329,192,33862,1,0,0:0:0:0:
256,192,33962,1,0,0:0:0:0:
182,192,34062,1,0,0:0:0:0:
109,192,34162,1,0,0:0:0:0:
402,192,34262,1,0,0:0:0:0:
36,192,34262,1,0,0:0:0:0:
329,192,34362,1,0,0:0:0:0:
256,192,34462,1,0,0:0:0:0:
182,192,34562,1,0,0:0:0:0:
475,192,34662,1,0,0:0:0:0:
109,192,34662,1,0,0:0:0:0:
402,192,34762,1,0,0:0:0:0:
329,192,34862,1,0,0:0:0:0:
256,192,34962,1,0,0:0:0:0:
36,192,35062,1,0,0:0:0:0:
182,192,35062,1,0,0:0:0:0:
402,192,35162,1,0,0:0:0:0:
256,192,35262,1,0,0:0:0:0:
475,192,35362,1,0,0:0:0:0:
36,192,35462,1,0,0:0:0:0:
329,192,35462,1,0,0:0:0:0:
256,192,35562,1,0,0:0:0:0:
109,192,35662,1,0,0:0:0:0:
329,192,35762,1,0,0:0:0:0:
36,192,35862,1,0,0:0:0:0:
475,192,35862,1,0,0:0:0:0:
402,192,35962,1,0,0:0:0:0:
329,192,36062,1,0,0:0:0:0:
256,192,36162,1,0,0:0:0:0:
475,192,36262,1,0,0:0:0:0:
182,192,36262,1,0,0:0:0:0:
256,192,36362,1,0,0:0:0:0:
329,192,36462,1,0,0:0:0:0:
402,192,36562,1,0,0:0:0:0:
475,192,36662,1,0,0:0:0:0:
36,192,36662,1,0,0:0:0:0:
109,192,36762,1,0,0:0:0:0:
182,192,36862,1,0,0:0:0:0:
256,192,36962,1,0,0:0:0:0:
36,192,37062,1,0,0:0:0:0:
329,192,37062,1,0,0:0:0:0:
475,192,37062,1,0,0:0:0:0:
109,192,37162,1,0,0:0:0:0:
182,192,37262,1,0,0:0:0:0:
256,192,37362,1,0,0:0:0:0:
36,192,37462,1,0,0:0:0:0:
475,192,37462,1,0,0:0:0:0:
329,192,37462,1,0,0:0:0:0:
182,192,37562,1,0,0:0:0:0:
109,192,37662,1,0,0:0:0:0:
402,192,37762,1,0,0:0:0:0:
36,192,37862,1,0,0:0:0:0:
475,192,37862,1,0,0:0:0:0:
256,192,37862,1,0,0:0:0:0:
182,192,37962,1,0,0:0:0:0:
402,192,38062,1,0,0:0:0:0:
109,192,38162,1,0,0:0:0:0:
36,192,38262,1,0,0:0:0:0:
475,192,38262,1,0,0:0:0:0:
329,192,38262,1,0,0:0:0:0:
256,192,38362,1,0,0:0:0:0:
182,192,38462,1,0,0:0:0:0:
109,192,38562,1,0,0:0:0:0:
475,192,38662,1,0,0:0:0:0:
36,192,38662,1,0,0:0:0:0:
182,192,38662,1,0,0:0:0:0:
402,192,38762,1,0,0:0:0:0:
329,192,38862,1,0,0:0:0:0:
256,192,38962,1,0,0:0:0:0:
182,192,39062,1,0,0:0:0:0:
36,192,39062,1,0,0:0:0:0:
475,192,39062,1,0,0:0:0:0:
329,192,39262,1,0,0:0:0:0:
36,192,39462,1,0,0:0:0:0:
475,192,39462,1,0,0:0:0:0:
402,192,39562,1,0,0:0:0:0:
182,192,39562,1,0,0:0:0:0:
329,192,39662,1,0,0:0:0:0:
36,192,39662,1,0,0:0:0:0:
256,192,39762,1,0,0:0:0:0:
182,192,39862,1,0,0:0:0:0:
36,192,39862,1,0,0:0:0:0:
256,192,39962,1,0,0:0:0:0:
329,192,40062,1,0,0:0:0:0:
109,192,40062,1,0,0:0:0:0:
402,192,40162,1,0,0:0:0:0:
36,192,40262,1,0,0:0:0:0:
182,192,40262,1,0,0:0:0:0:
475,192,40262,128,0,40662:0:0:0:0:
36,192,40862,1,0,0:0:0:0:
36,192,41062,1,0,0:0:0:0:
402,192,41062,128,0,41462:0:0:0:0:
182,192,41062,1,0,0:0:0:0:
256,192,41462,128,0,41862:0:0:0:0:
109,192,41862,128,0,42262:0:0:0:0:
475,192,41862,1,0,0:0:0:0:
475,192,42462,1,0,0:0:0:0:
475,192,42662,1,0,0:0:0:0:
109,192,42662,128,0,43062:0:0:0:0:
329,192,42662,1,0,0:0:0:0:
402,192,43062,128,0,43462:0:0:0:0:
36,192,43062,1,0,0:0:0:0:
256,192,43462,128,0,43862:0:0:0:0:
36,192,43462,1,0,0:0:0:0:
36,192,44062,1,0,0:0:0:0:
36,192,44262,1,0,0:0:0:0:
182,192,44262,1,0,0:0:0:0:
256,192,44262,128,0,44662:0:0:0:0:
182,192,44662,128,0,45062:0:0:0:0:
475,192,44662,1,0,0:0:0:0:
36,192,45062,128,0,45462:0:0:0:0:
475,192,45062,1,0,0:0:0:0:
329,192,45362,1,0,0:0:0:0:
475,192,45462,1,0,0:0:0:0:
329,192,45662,1,0,0:0:0:0:
475,192,45762,1,0,0:0:0:0:
109,192,45862,1,0,0:0:0:0:
402,192,45862,128,0,46262:0:0:0:0:
36,192,45862,1,0,0:0:0:0:
182,192,45962,1,0,0:0:0:0:
256,192,46162,1,0,0:0:0:0:
182,192,46262,128,0,46662:0:0:0:0:
36,192,46262,1,0,0:0:0:0:
109,192,46262,1,0,0:0:0:0:
329,192,46462,1,0,0:0:0:0:
329,192,46662,1,0,0:0:0:0:
475,192,46662,1,0,0:0:0:0:
36,192,46662,128,0,47462:0:0:0:0:
182,192,47262,1,0,0:0:0:0:
402,192,47462,128,0,48262:0:0:0:0:
109,192,47462,1,0,0:0:0:0:
256,192,47462,1,0,0:0:0:0:
182,192,48262,1,0,0:0:0:0:
36,192,48262,128,0,49062:0:0:0:0:
475,192,48862,1,0,0:0:0:0:
329,192,49062,1,0,0:0:0:0:
182,192,49062,128,0,49862:0:0:0:0:
475,192,49062,1,0,0:0:0:0:
329,192,49462,1,0,0:0:0:0:
475,192,49862,1,0,0:0:0:0:
402,192,49862,128,0,51462:0:0:0:0:
182,192,50262,1,0,0:0:0:0:
36,192,50662,1,0,0:0:0:0:
329,192,50662,1,0,0:0:0:0:
109,192,50862,1,0,0:0:0:0:
256,192,50862,1,0,0:0:0:0:
36,192,51062,1,0,0:0:0:0:
109,192,51062,1,0,0:0:0:0:
329,192,51162,1,0,0:0:0:0:
182,192,51162,1,0,0:0:0:0:
36,192,51262,1,0,0:0:0:0:
109,192,51262,1,0,0:0:0:0:
36,192,51462,1,0,0:0:0:0:
329,192,51462,1,0,0:0:0:0:
475,192,51462,1,0,0:0:0:0:
402,192,53062,128,0,53262:0:0:0:0:
256,192,53262,128,0,53462:0:0:0:0:
109,192,53462,128,0,53662:0:0:0:0:
36,192,53662,128,0,53862:0:0:0:0:
475,192,53862,128,0,54662:0:0:0:0:
109,192,54062,128,0,54662:0:0:0:0:
402,192,54262,128,0,54662:0:0:0:0:
182,192,54462,128,0,54662:0:0:0:0:
36,192,54662,128,0,55062:0:0:0:0:
256,192,54862,128,0,55262:0:0:0:0:
402,192,55062,128,0,55462:0:0:0:0:
109,192,55262,128,0,55662:0:0:0:0:
475,192,55462,128,0,56062:0:0:0:0:
256,192,55662,128,0,56262:0:0:0:0:
36,192,55862,128,0,56262:0:0:0:0:
402,192,56062,128,0,56262:0:0:0:0:
109,192,56262,128,0,56662:0:0:0:0:
256,192,56462,128,0,56862:0:0:0:0:
402,192,56662,128,0,57262:0:0:0:0:
182,192,56862,128,0,57462:0:0:0:0:
36,192,57062,128,0,57862:0:0:0:0:
329,192,57262,128,0,57862:0:0:0:0:
256,192,57462,128,0,57862:0:0:0:0:
109,192,57662,128,0,57862:0:0:0:0:
475,192,57862,128,0,57962:0:0:0:0:
402,192,57962,128,0,58062:0:0:0:0:
329,192,58062,128,0,58162:0:0:0:0:
256,192,58162,128,0,58262:0:0:0:0:
36,192,58262,128,0,58362:0:0:0:0:
109,192,58362,128,0,58462:0:0:0:0:
182,192,58462,128,0,58562:0:0:0:0:
256,192,58562,128,0,58662:0:0:0:0:
475,192,58662,128,0,58762:0:0:0:0:
402,192,58762,128,0,58862:0:0:0:0:
329,192,58862,128,0,58962:0:0:0:0:
256,192,58962,128,0,59062:0:0:0:0:
36,192,59062,128,0,59162:0:0:0:0:
109,192,59162,128,0,59262:0:0:0:0:
182,192,59262,128,0,59362:0:0:0:0:
256,192,59362,128,0,59462:0:0:0:0:
475,192,59462,1,0,0:0:0:0:
36,192,59462,128,0,59862:0:0:0:0:
256,192,59662,128,0,60062:0:0:0:0:
475,192,59862,128,0,60262:0:0:0:0:
329,192,60062,128,0,60462:0:0:0:0:
109,192,60262,128,0,61062:0:0:0:0:
256,192,60462,128,0,61062:0:0:0:0:
329,192,60662,128,0,61062:0:0:0:0:
402,192,60862,128,0,61062:0:0:0:0:
36,192,61062,128,0,61662:0:0:0:0:
182,192,61262,128,0,61862:0:0:0:0:
329,192,61462,128,0,62062:0:0:0:0:
475,192,61662,128,0,62262:0:0:0:0:
109,192,61862,128,0,62262:0:0:0:0:
256,192,62062,128,0,62462:0:0:0:0:
402,192,62262,128,0,62662:0:0:0:0:
36,192,62262,128,0,62662:0:0:0:0:
182,192,62462,128,0,62662:0:0:0:0:
329,192,62662,128,0,62762:0:0:0:0:
256,192,62762,128,0,62862:0:0:0:0:
182,192,62862,128,0,62962:0:0:0:0:
109,192,62962,128,0,63062:0:0:0:0:
256,192,63062,128,0,63162:0:0:0:0:
182,192,63162,128,0,63262:0:0:0:0:
109,192,63262,128,0,63362:0:0:0:0:
36,192,63362,128,0,63462:0:0:0:0:
256,192,63462,128,0,63562:0:0:0:0:
329,192,63562,128,0,63662:0:0:0:0:
402,192,63662,128,0,63762:0:0:0:0:
475,192,63762,128,0,63862:0:0:0:0:
182,192,63862,128,0,63962:0:0:0:0:
256,192,63962,128,0,64062:0:0:0:0:
329,192,64062,128,0,64162:0:0:0:0:
402,192,64162,128,0,64262:0:0:0:0:
256,192,64262,128,0,64362:0:0:0:0:
182,192,64362,128,0,64462:0:0:0:0:
109,192,64462,128,0,64562:0:0:0:0:
36,192,64562,128,0,64662:0:0:0:0:
329,192,64662,128,0,64762:0:0:0:0:
256,192,64762,128,0,64862:0:0:0:0:
182,192,64862,128,0,64962:0:0:0:0:
109,192,64962,128,0,65062:0:0:0:0:
402,192,65062,128,0,65862:0:0:0:0:
329,192,65262,128,0,65862:0:0:0:0:
182,192,65462,128,0,65862:0:0:0:0:
36,192,65662,128,0,65862:0:0:0:0:
109,192,65862,128,0,66262:0:0:0:0:
475,192,65862,1,0,0:0:0:0:
475,192,66062,1,0,0:0:0:0:
256,192,66062,1,0,0:0:0:0:
475,192,66262,1,0,0:0:0:0:
329,192,66262,1,0,0:0:0:0:
182,192,66462,1,0,0:0:0:0:
36,192,66662,1,0,0:0:0:0:
475,192,66662,1,0,0:0:0:0:
402,192,66862,1,0,0:0:0:0:
256,192,67062,1,0,0:0:0:0:
36,192,67062,1,0,0:0:0:0:
475,192,67062,1,0,0:0:0:0:
109,192,67262,1,0,0:0:0:0:
36,192,67462,1,0,0:0:0:0:
402,192,67462,1,0,0:0:0:0:
329,192,67662,1,0,0:0:0:0:
109,192,67862,1,0,0:0:0:0:
36,192,67862,1,0,0:0:0:0:
475,192,67862,1,0,0:0:0:0:
402,192,68062,1,0,0:0:0:0:
182,192,68262,1,0,0:0:0:0:
36,192,68262,1,0,0:0:0:0:
329,192,68462,1,0,0:0:0:0:
256,192,68662,1,0,0:0:0:0:
36,192,68662,1,0,0:0:0:0:
475,192,68662,1,0,0:0:0:0:
109,192,68862,1,0,0:0:0:0:
475,192,69062,1,0,0:0:0:0:
36,192,69062,1,0,0:0:0:0:
329,192,69262,1,0,0:0:0:0:
182,192,69462,1,0,0:0:0:0:
402,192,69462,1,0,0:0:0:0:
36,192,69462,1,0,0:0:0:0:
109,192,69662,1,0,0:0:0:0:
402,192,69862,1,0,0:0:0:0:
36,192,69862,1,0,0:0:0:0:
182,192,70062,1,0,0:0:0:0:
36,192,70262,1,0,0:0:0:0:
475,192,70262,1,0,0:0:0:0:
329,192,70262,1,0,0:0:0:0:
109,192,70462,1,0,0:0:0:0:
36,192,70662,1,0,0:0:0:0:
475,192,70662,1,0,0:0:0:0:
402,192,70762,1,0,0:0:0:0:
329,192,70862,1,0,0:0:0:0:
256,192,70962,1,0,0:0:0:0:
36,192,71062,1,0,0:0:0:0:
475,192,71062,1,0,0:0:0:0:
182,192,71062,1,0,0:0:0:0:
109,192,71162,1,0,0:0:0:0:
182,192,71262,1,0,0:0:0:0:
256,192,71362,1,0,0:0:0:0:
475,192,71462,1,0,0:0:0:0:
36,192,71462,1,0,0:0:0:0:
402,192,71562,1,0,0:0:0:0:
329,192,71662,1,0,0:0:0:0:
256,192,71762,1,0,0:0:0:0:
182,192,71862,1,0,0:0:0:0:
36,192,71862,1,0,0:0:0:0:
475,192,71862,1,0,0:0:0:0:
329,192,72062,1,0,0:0:0:0:
36,192,72062,1,0,0:0:0:0:
475,192,72262,1,0,0:0:0:0:
36,192,72262,1,0,0:0:0:0:
256,192,72462,1,0,0:0:0:0:
402,192,72662,1,0,0:0:0:0:
36,192,72662,1,0,0:0:0:0:
109,192,72662,1,0,0:0:0:0:
182,192,72862,1,0,0:0:0:0:
36,192,73062,1,0,0:0:0:0:
475,192,73062,1,0,0:0:0:0:
182,192,73262,1,0,0:0:0:0:
36,192,73462,1,0,0:0:0:0:
256,192,73462,1,0,0:0:0:0:
402,192,73462,1,0,0:0:0:0:
329,192,73662,1,0,0:0:0:0:
36,192,73862,1,0,0:0:0:0:
475,192,73862,1,0,0:0:0:0:
329,192,74062,1,0,0:0:0:0:
109,192,74262,1,0,0:0:0:0:
256,192,74262,1,0,0:0:0:0:
475,192,74262,1,0,0:0:0:0:
402,192,74462,1,0,0:0:0:0:
329,192,74662,1,0,0:0:0:0:
36,192,74662,1,0,0:0:0:0:
109,192,74862,1,0,0:0:0:0:
402,192,75062,1,0,0:0:0:0:
36,192,75062,1,0,0:0:0:0:
256,192,75062,1,0,0:0:0:0:
182,192,75262,1,0,0:0:0:0:
36,192,75462,1,0,0:0:0:0:
475,192,75462,1,0,0:0:0:0:
402,192,75562,1,0,0:0:0:0:
329,192,75662,1,0,0:0:0:0:
256,192,75762,1,0,0:0:0:0:
182,192,75862,1,0,0:0:0:0:
36,192,75862,1,0,0:0:0:0:
475,192,75862,1,0,0:0:0:0:
402,192,75962,1,0,0:0:0:0:
329,192,76062,1,0,0:0:0:0:
256,192,76162,1,0,0:0:0:0:
36,192,76262,1,0,0:0:0:0:
182,192,76262,1,0,0:0:0:0:
109,192,76462,1,0,0:0:0:0:
256,192,76662,1,0,0:0:0:0:
36,192,76662,1,0,0:0:0:0:
475,192,76662,1,0,0:0:0:0:
402,192,76862,1,0,0:0:0:0:
36,192,77062,1,0,0:0:0:0:
475,192,77062,1,0,0:0:0:0:
402,192,77162,1,0,0:0:0:0:
329,192,77262,1,0,0:0:0:0:
256,192,77362,1,0,0:0:0:0:
182,192,77462,1,0,0:0:0:0:
36,192,77462,1,0,0:0:0:0:
475,192,77462,1,0,0:0:0:0:
256,192,77562,1,0,0:0:0:0:
329,192,77662,1,0,0:0:0:0:
402,192,77762,1,0,0:0:0:0:
36,192,77862,1,0,0:0:0:0:
475,192,77862,1,0,0:0:0:0:
182,192,78062,1,0,0:0:0:0:
36,192,78262,1,0,0:0:0:0:
475,192,78262,1,0,0:0:0:0:
329,192,78262,1,0,0:0:0:0:
256,192,78362,1,0,0:0:0:0:
182,192,78462,1,0,0:0:0:0:
109,192,78562,1,0,0:0:0:0:
475,192,78662,1,0,0:0:0:0:
36,192,78662,128,0,79462:0:0:0:0:
329,192,78662,1,0,0:0:0:0:
256,192,79262,1,0,0:0:0:0:
475,192,79462,1,0,0:0:0:0:
109,192,79462,1,0,0:0:0:0:
182,192,79462,1,0,0:0:0:0:
329,192,79595,1,0,0:0:0:0:
36,192,79728,1,0,0:0:0:0:
182,192,79862,1,0,0:0:0:0:
475,192,79995,1,0,0:0:0:0:
36,192,80062,1,0,0:0:0:0:
329,192,80128,1,0,0:0:0:0:
36,192,80262,1,0,0:0:0:0:
475,192,80262,128,0,80462:0:0:0:0:
182,192,80462,1,0,0:0:0:0:
329,192,80562,1,0,0:0:0:0:
36,192,80862,1,0,0:0:0:0:
256,192,81062,128,0,81862:0:0:0:0:
329,192,81062,1,0,0:0:0:0:
475,192,81062,1,0,0:0:0:0:
36,192,81262,1,0,0:0:0:0:
36,192,81662,1,0,0:0:0:0:
475,192,81862,1,0,0:0:0:0:
36,192,81862,1,0,0:0:0:0:
182,192,81862,128,0,83462:0:0:0:0:
109,192,82462,1,0,0:0:0:0:
329,192,82662,1,0,0:0:0:0:
475,192,82662,1,0,0:0:0:0:
329,192,82862,1,0,0:0:0:0:
475,192,82862,1,0,0:0:0:0:
109,192,83062,1,0,0:0:0:0:
329,192,83462,1,0,0:0:0:0:
402,192,83662,128,0,83862:0:0:0:0:
36,192,84062,1,0,0:0:0:0:
402,192,84062,128,0,84262:0:0:0:0:
329,192,84262,1,0,0:0:0:0:
475,192,84262,1,0,0:0:0:0:
109,192,84262,1,0,0:0:0:0:
182,192,84462,1,0,0:0:0:0:
402,192,84462,1,0,0:0:0:0:
36,192,84662,1,0,0:0:0:0:
256,192,84662,1,0,0:0:0:0:
475,192,84662,1,0,0:0:0:0:
182,192,84762,1,0,0:0:0:0:
109,192,84862,1,0,0:0:0:0:
402,192,84862,1,0,0:0:0:0:
36,192,85062,1,0,0:0:0:0:
475,192,85062,1,0,0:0:0:0:
256,192,85062,128,0,91362:0:0:0:0:
36,192,85462,1,0,0:0:0:0:
475,192,85462,1,0,0:0:0:0:
36,192,85862,1,0,0:0:0:0:
475,192,85862,1,0,0:0:0:0:
36,192,86262,1,0,0:0:0:0:
475,192,86262,1,0,0:0:0:0:
475,192,86662,1,0,0:0:0:0:
36,192,86662,1,0,0:0:0:0:
36,192,87062,1,0,0:0:0:0:
475,192,87062,1,0,0:0:0:0:
475,192,87462,1,0,0:0:0:0:
36,192,87462,1,0,0:0:0:0:
36,192,87862,1,0,0:0:0:0:
475,192,87862,1,0,0:0:0:0:
36,192,88262,1,0,0:0:0:0:
475,192,88262,1,0,0:0:0:0:
329,192,88462,1,0,0:0:0:0:
182,192,88662,1,0,0:0:0:0:
36,192,88862,1,0,0:0:0:0:
475,192,89062,1,0,0:0:0:0:
182,192,89162,1,0,0:0:0:0:
329,192,89262,1,0,0:0:0:0:
36,192,89362,1,0,0:0:0:0:
475,192,89462,1,0,0:0:0:0:
109,192,89562,1,0,0:0:0:0:
402,192,89662,1,0,0:0:0:0:
182,192,89762,1,0,0:0:0:0:
256,192,91462,1,0,0:0:0:0:
256,192,91762,1,0,0:0:0:0:
256,192,92062,1,0,0:0:0:0:
402,192,92262,1,0,0:0:0:0:
329,192,92462,1,0,0:0:0:0:
182,192,92662,1,0,0:0:0:0:
329,192,92762,1,0,0:0:0:0:
182,192,92862,1,0,0:0:0:0:
329,192,92962,1,0,0:0:0:0:
36,192,93062,1,0,0:0:0:0:
475,192,93062,1,0,0:0:0:0:
256,192,93062,1,0,0:0:0:0:
182,192,93162,1,0,0:0:0:0:
109,192,93262,1,0,0:0:0:0:
256,192,93362,1,0,0:0:0:0:
475,192,93462,1,0,0:0:0:0:
36,192,93462,1,0,0:0:0:0:
329,192,93462,1,0,0:0:0:0:
109,192,93562,1,0,0:0:0:0:
256,192,93662,1,0,0:0:0:0:
402,192,93762,1,0,0:0:0:0:
36,192,93862,1,0,0:0:0:0:
329,192,93862,1,0,0:0:0:0:
182,192,93962,1,0,0:0:0:0:
329,192,94062,1,0,0:0:0:0:
475,192,94162,1,0,0:0:0:0:
402,192,94262,1,0,0:0:0:0:
36,192,94262,1,0,0:0:0:0:
109,192,94362,1,0,0:0:0:0:
182,192,94462,1,0,0:0:0:0:
256,192,94562,1,0,0:0:0:0:
475,192,94662,1,0,0:0:0:0:
329,192,94662,1,0,0:0:0:0:
256,192,94762,1,0,0:0:0:0:
182,192,94862,1,0,0:0:0:0:
109,192,94962,1,0,0:0:0:0:
475,192,95062,1,0,0:0:0:0:
36,192,95062,1,0,0:0:0:0:
402,192,95162,1,0,0:0:0:0:
329,192,95262,1,0,0:0:0:0:
256,192,95362,1,0,0:0:0:0:
182,192,95462,1,0,0:0:0:0:
475,192,95462,1,0,0:0:0:0:
402,192,95562,1,0,0:0:0:0:
329,192,95662,1,0,0:0:0:0:
256,192,95762,1,0,0:0:0:0:
36,192,95862,1,0,0:0:0:0:
182,192,95862,1,0,0:0:0:0:
402,192,95962,1,0,0:0:0:0:
256,192,96062,1,0,0:0:0:0:
475,192,96162,1,0,0:0:0:0:
36,192,96262,1,0,0:0:0:0:
182,192,96262,1,0,0:0:0:0:
329,192,96362,1,0,0:0:0:0:
475,192,96462,1,0,0:0:0:0:
256,192,96562,1,0,0:0:0:0:
36,192,96662,1,0,0:0:0:0:
402,192,96662,1,0,0:0:0:0:
329,192,96762,1,0,0:0:0:0:
109,192,96862,1,0,0:0:0:0:
256,192,96962,1,0,0:0:0:0:
475,192,97062,1,0,0:0:0:0:
36,192,97062,1,0,0:0:0:0:
329,192,97162,1,0,0:0:0:0:
109,192,97262,1,0,0:0:0:0:
402,192,97362,1,0,0:0:0:0:
36,192,97462,1,0,0:0:0:0:
256,192,97462,1,0,0:0:0:0:
182,192,97562,1,0,0:0:0:0:
402,192,97662,1,0,0:0:0:0:
256,192,97762,1,0,0:0:0:0:
109,192,97862,1,0,0:0:0:0:
475,192,97862,1,0,0:0:0:0:
402,192,97962,1,0,0:0:0:0:
329,192,98062,1,0,0:0:0:0:
256,192,98162,1,0,0:0:0:0:
475,192,98262,1,0,0:0:0:0:
36,192,98262,1,0,0:0:0:0:
182,192,98262,1,0,0:0:0:0:
329,192,98362,1,0,0:0:0:0:
402,192,98462,1,0,0:0:0:0:
329,192,98562,1,0,0:0:0:0:
256,192,98662,1,0,0:0:0:0:
36,192,98662,1,0,0:0:0:0:
109,192,98762,1,0,0:0:0:0:
182,192,98862,1,0,0:0:0:0:
256,192,98962,1,0,0:0:0:0:
36,192,99062,1,0,0:0:0:0:
329,192,99062,1,0,0:0:0:0:
475,192,99162,1,0,0:0:0:0:
36,192,99262,1,0,0:0:0:0:
402,192,99262,1,0,0:0:0:0:
329,192,99362,1,0,0:0:0:0:
256,192,99462,1,0,0:0:0:0:
36,192,99462,1,0,0:0:0:0:
475,192,99462,1,0,0:0:0:0:
402,192,99562,1,0,0:0:0:0:
182,192,99662,1,0,0:0:0:0:
329,192,99762,1,0,0:0:0:0:
36,192,99862,1,0,0:0:0:0:
475,192,99862,1,0,0:0:0:0:
256,192,99962,1,0,0:0:0:0:
109,192,100062,1,0,0:0:0:0:
329,192,100162,1,0,0:0:0:0:
402,192,100262,1,0,0:0:0:0:
36,192,100262,1,0,0:0:0:0:
256,192,100362,1,0,0:0:0:0:
475,192,100462,1,0,0:0:0:0:
182,192,100562,1,0,0:0:0:0:
109,192,100662,1,0,0:0:0:0:
402,192,100662,1,0,0:0:0:0:
256,192,100762,1,0,0:0:0:0:
36,192,100862,1,0,0:0:0:0:
329,192,100962,1,0,0:0:0:0:
256,192,101062,1,0,0:0:0:0:
109,192,101062,1,0,0:0:0:0:
475,192,101162,1,0,0:0:0:0:
402,192,101262,1,0,0:0:0:0:
329,192,101362,1,0,0:0:0:0:
36,192,101462,1,0,0:0:0:0:
256,192,101462,1,0,0:0:0:0:
475,192,101562,1,0,0:0:0:0:
402,192,101662,1,0,0:0:0:0:
329,192,101762,1,0,0:0:0:0:
256,192,101862,1,0,0:0:0:0:
36,192,101862,1,0,0:0:0:0:
402,192,101962,1,0,0:0:0:0:
109,192,102062,1,0,0:0:0:0:
329,192,102162,1,0,0:0:0:0:
402,192,102262,1,0,0:0:0:0:
36,192,102262,1,0,0:0:0:0:
329,192,102362,1,0,0:0:0:0:
256,192,102462,1,0,0:0:0:0:
182,192,102562,1,0,0:0:0:0:
36,192,102662,1,0,0:0:0:0:
475,192,102662,1,0,0:0:0:0:
329,192,102762,1,0,0:0:0:0:
182,192,102862,1,0,0:0:0:0:
402,192,102962,1,0,0:0:0:0:
36,192,103062,1,0,0:0:0:0:
256,192,103062,1,0,0:0:0:0:
109,192,103162,1,0,0:0:0:0:
475,192,103262,1,0,0:0:0:0:
329,192,103362,1,0,0:0:0:0:
182,192,103462,1,0,0:0:0:0:
36,192,103462,1,0,0:0:0:0:
402,192,103562,1,0,0:0:0:0:
256,192,103662,1,0,0:0:0:0:
109,192,103762,1,0,0:0:0:0:
475,192,103862,1,0,0:0:0:0:
329,192,103862,1,0,0:0:0:0:
182,192,103962,1,0,0:0:0:0:
36,192,104062,1,0,0:0:0:0:
182,192,104162,1,0,0:0:0:0:
329,192,104262,1,0,0:0:0:0:
475,192,104262,1,0,0:0:0:0:
256,192,104362,1,0,0:0:0:0:
182,192,104462,1,0,0:0:0:0:
109,192,104562,1,0,0:0:0:0:
475,192,104662,1,0,0:0:0:0:
36,192,104662,1,0,0:0:0:0:
36,192,105062,1,0,0:0:0:0:
475,192,105062,1,0,0:0:0:0:
182,192,105162,1,0,0:0:0:0:
329,192,105162,1,0,0:0:0:0:
109,192,105262,1,0,0:0:0:0:
402,192,105262,1,0,0:0:0:0:
36,192,105462,1,0,0:0:0:0:
475,192,105462,1,0,0:0:0:0:
182,192,105462,1,0,0:0:0:0:
109,192,105862,1,0,0:0:0:0:
36,192,105862,1,0,0:0:0:0:
475,192,105862,1,0,0:0:0:0:
402,192,105962,1,0,0:0:0:0:
329,192,106062,1,0,0:0:0:0:
109,192,106162,1,0,0:0:0:0:
36,192,106162,1,0,0:0:0:0:
256,192,106162,1,0,0:0:0:0:
475,192,106262,1,0,0:0:0:0:
402,192,106362,1,0,0:0:0:0:
109,192,106462,1,0,0:0:0:0:
36,192,106462,1,0,0:0:0:0:
329,192,106462,1,0,0:0:0:0:
256,192,106562,1,0,0:0:0:0:
36,192,106662,1,0,0:0:0:0:
475,192,106662,1,0,0:0:0:0:
182,192,106762,1,0,0:0:0:0:
402,192,106762,1,0,0:0:0:0:
36,192,106862,1,0,0:0:0:0:
329,192,106862,1,0,0:0:0:0:
256,192,106962,1,0,0:0:0:0:
36,192,107062,1,0,0:0:0:0:
475,192,107062,1,0,0:0:0:0:
402,192,107162,1,0,0:0:0:0:
329,192,107262,1,0,0:0:0:0:
256,192,107362,1,0,0:0:0:0:
36,192,107462,1,0,0:0:0:0:
475,192,107462,1,0,0:0:0:0:
329,192,107562,1,0,0:0:0:0:
182,192,107662,1,0,0:0:0:0:
36,192,107762,1,0,0:0:0:0:
475,192,107762,1,0,0:0:0:0:
329,192,107862,1,0,0:0:0:0:
182,192,107962,1,0,0:0:0:0:
36,192,108062,1,0,0:0:0:0:
475,192,108062,1,0,0:0:0:0:
329,192,108162,1,0,0:0:0:0:
36,192,108262,1,0,0:0:0:0:
475,192,108262,1,0,0:0:0:0:
182,192,108262,1,0,0:0:0:0:
329,192,108362,1,0,0:0:0:0:
182,192,108462,1,0,0:0:0:0:
475,192,108462,1,0,0:0:0:0:
36,192,108562,1,0,0:0:0:0:
475,192,108662,1,0,0:0:0:0:
182,192,108662,1,0,0:0:0:0:
329,192,108762,1,0,0:0:0:0:
36,192,108762,1,0,0:0:0:0:
182,192,108862,1,0,0:0:0:0:
475,192,108862,1,0,0:0:0:0:
36,192,108962,1,0,0:0:0:0:
475,192,109062,1,0,0:0:0:0:
329,192,109062,1,0,0:0:0:0:
256,192,109162,1,0,0:0:0:0:
182,192,109262,1,0,0:0:0:0:
109,192,109362,1,0,0:0:0:0:
475,192,109362,1,0,0:0:0:0:
36,192,109462,1,0,0:0:0:0:
109,192,109562,1,0,0:0:0:0:
475,192,109662,1,0,0:0:0:0:
182,192,109662,1,0,0:0:0:0:
329,192,109762,1,0,0:0:0:0:
182,192,109862,1,0,0:0:0:0:
475,192,109862,1,0,0:0:0:0:
109,192,109962,1,0,0:0:0:0:
36,192,110062,1,0,0:0:0:0:
402,192,110062,1,0,0:0:0:0:
329,192,110162,1,0,0:0:0:0:
475,192,110262,1,0,0:0:0:0:
256,192,110262,1,0,0:0:0:0:
182,192,110362,1,0,0:0:0:0:
109,192,110462,1,0,0:0:0:0:
36,192,110562,1,0,0:0:0:0:
475,192,110662,1,0,0:0:0:0:
329,192,110662,1,0,0:0:0:0:
182,192,110762,1,0,0:0:0:0:
256,192,110862,1,0,0:0:0:0:
109,192,110962,1,0,0:0:0:0:
475,192,111062,1,0,0:0:0:0:
36,192,111062,1,0,0:0:0:0:
402,192,111162,1,0,0:0:0:0:
182,192,111162,1,0,0:0:0:0:
329,192,111262,1,0,0:0:0:0:
36,192,111262,1,0,0:0:0:0:
402,192,111362,1,0,0:0:0:0:
182,192,111362,1,0,0:0:0:0:
475,192,111462,1,0,0:0:0:0:
36,192,111462,1,0,0:0:0:0:
109,192,111562,1,0,0:0:0:0:
182,192,111662,1,0,0:0:0:0:
475,192,111662,1,0,0:0:0:0:
256,192,111762,1,0,0:0:0:0:
36,192,111862,1,0,0:0:0:0:
329,192,111862,1,0,0:0:0:0:
182,192,111962,1,0,0:0:0:0:
475,192,111962,1,0,0:0:0:0:
36,192,112062,1,0,0:0:0:0:
402,192,112062,1,0,0:0:0:0:
329,192,112162,1,0,0:0:0:0:
182,192,112162,1,0,0:0:0:0:
36,192,112262,1,0,0:0:0:0:
256,192,112262,1,0,0:0:0:0:
475,192,112362,1,0,0:0:0:0:
402,192,112462,1,0,0:0:0:0:
329,192,112562,1,0,0:0:0:0:
256,192,112662,1,0,0:0:0:0:
36,192,112662,1,0,0:0:0:0:
402,192,112762,1,0,0:0:0:0:
182,192,112862,1,0,0:0:0:0:
329,192,112962,1,0,0:0:0:0:
109,192,113062,1,0,0:0:0:0:
475,192,113062,1,0,0:0:0:0:
256,192,113162,1,0,0:0:0:0:
36,192,113262,1,0,0:0:0:0:
182,192,113362,1,0,0:0:0:0:
475,192,113462,1,0,0:0:0:0:
329,192,113462,1,0,0:0:0:0:
256,192,113562,1,0,0:0:0:0:
182,192,113662,1,0,0:0:0:0:
109,192,113762,1,0,0:0:0:0:
36,192,113862,1,0,0:0:0:0:
182,192,113862,1,0,0:0:0:0:
256,192,113962,1,0,0:0:0:0:
329,192,114062,1,0,0:0:0:0:
402,192,114162,1,0,0:0:0:0:
475,192,114262,1,0,0:0:0:0:
36,192,114262,1,0,0:0:0:0:
182,192,114362,1,0,0:0:0:0:
109,192,114462,1,0,0:0:0:0:
256,192,114562,1,0,0:0:0:0:
182,192,114662,1,0,0:0:0:0:
475,192,114662,1,0,0:0:0:0:
329,192,114762,1,0,0:0:0:0:
256,192,114862,1,0,0:0:0:0:
402,192,114962,1,0,0:0:0:0:
475,192,115062,1,0,0:0:0:0:
182,192,115062,1,0,0:0:0:0:
402,192,115162,1,0,0:0:0:0:
329,192,115262,1,0,0:0:0:0:
256,192,115362,1,0,0:0:0:0:
36,192,115462,1,0,0:0:0:0:
182,192,115462,1,0,0:0:0:0:
402,192,115662,1,0,0:0:0:0:
36,192,115862,1,0,0:0:0:0:
182,192,115862,1,0,0:0:0:0:
475,192,115862,1,0,0:0:0:0:
402,192,115962,1,0,0:0:0:0:
329,192,116062,1,0,0:0:0:0:
256,192,116162,1,0,0:0:0:0:
36,192,116262,1,0,0:0:0:0:
182,192,116262,1,0,0:0:0:0:
475,192,116262,1,0,0:0:0:0:
402,192,116362,1,0,0:0:0:0:
329,192,116462,1,0,0:0:0:0:
256,192,116562,1,0,0:0:0:0:
36,192,116662,1,0,0:0:0:0:
182,192,116662,1,0,0:0:0:0:
256,192,116762,1,0,0:0:0:0:
329,192,116862,1,0,0:0:0:0:
402,192,116962,1,0,0:0:0:0:
36,192,117062,1,0,0:0:0:0:
475,192,117062,1,0,0:0:0:0:
256,192,117062,1,0,0:0:0:0:
109,192,117162,1,0,0:0:0:0:
182,192,117262,1,0,0:0:0:0:
402,192,117262,1,0,0:0:0:0:
256,192,117362,1,0,0:0:0:0:
329,192,117462,1,0,0:0:0:0:
36,192,117462,1,0,0:0:0:0:
402,192,117562,1,0,0:0:0:0:
475,192,117662,1,0,0:0:0:0:
182,192,117662,1,0,0:0:0:0:
36,192,117862,1,0,0:0:0:0:
475,192,117862,1,0,0:0:0:0:
329,192,117962,1,0,0:0:0:0:
109,192,117962,1,0,0:0:0:0:
182,192,118062,1,0,0:0:0:0:
475,192,118062,1,0,0:0:0:0:
329,192,118162,1,0,0:0:0:0:
256,192,118162,1,0,0:0:0:0:
36,192,118262,1,0,0:0:0:0:
475,192,118262,1,0,0:0:0:0:
329,192,118362,1,0,0:0:0:0:
109,192,118362,1,0,0:0:0:0:
182,192,118462,1,0,0:0:0:0:
402,192,118462,1,0,0:0:0:0:
256,192,118562,1,0,0:0:0:0:
36,192,118562,1,0,0:0:0:0:
475,192,118562,1,0,0:0:0:0:
