osu file format v14

[General]
AudioFilename: BRAVE OUT.mp3
AudioLeadIn: 0
PreviewTime: 92162
Countdown: 0
SampleSet: Soft
StackLeniency: 0.7
Mode: 3
LetterboxInBreaks: 0
SpecialStyle: 0
WidescreenStoryboard: 1

[Editor]
DistanceSpacing: 0.9
BeatDivisor: 4
GridSize: 4
TimelineZoom: 1.4

[Metadata]
Title:BRAVE OUT
TitleUnicode:BRAVE OUT
Artist:nomico / DOWNFORCE
ArtistUnicode:nomico / DOWNFORCE
Creator:yf_bmp
Version:4K Hyper
Source:beatmania IIDX 21 SPADA
Tags:Masayoshi Minoshima Alstroemeria Records electrance fanzhen0019 Gyro Zeppeli Rizia ZZHBOY [Emiria] LunaSaika Pata-Mon NeilPerry
BeatmapID:1153090
BeatmapSetID:332201

[Difficulty]
HPDrainRate:7.5
CircleSize:4
OverallDifficulty:7.5
ApproachRate:9
SliderMultiplier:1.6
SliderTickRate:1

[Events]
//Background and Video events
0,0,"BRAVE OUT.png",0,0
//Break Periods
//Storyboard Layer 0 (Background)
//Storyboard Layer 1 (Fail)
//Storyboard Layer 2 (Pass)
//Storyboard Layer 3 (Foreground)
//Storyboard Sound Samples

[TimingPoints]
262,400,4,2,0,70,1,0
65862,-66.6666666666667,4,2,0,70,0,0
65962,-200,4,2,0,70,0,0
66062,-66.6666666666667,4,2,0,70,0,0
66162,-200,4,2,0,70,0,0
66262,-100,4,2,0,70,0,0

[Colours]
Combo1 : 255,255,0
Combo2 : 255,128,192
Combo3 : 128,128,255
Combo4 : 128,255,128
Combo5 : 255,255,128
Combo6 : 255,0,255
Combo7 : 128,0,255
Combo8 : 0,255,64

[HitObjects]
64,192,662,128,0,1862:0:0:0:0:
192,192,1862,1,0,0:0:0:0:
448,192,1862,128,0,2062:0:0:0:0:
64,192,2062,128,0,2262:0:0:0:0:
320,192,2262,128,0,2462:0:0:0:0:
192,192,2462,128,0,2662:0:0:0:0:
448,192,2662,128,0,2862:0:0:0:0:
192,192,2862,128,0,3062:0:0:0:0:
64,192,3062,128,0,3262:0:0:0:0:
320,192,3262,128,0,3462:0:0:0:0:
448,192,3462,128,0,3662:0:0:0:0:
320,192,3662,128,0,3862:0:0:0:0:
192,192,3862,128,0,4062:0:0:0:0:
64,192,4062,128,0,4262:0:0:0:0:
320,192,4262,128,0,4462:0:0:0:0:
448,192,4462,128,0,4662:0:0:0:0:
192,192,4662,128,0,4862:0:0:0:0:
64,192,4862,128,0,5062:0:0:0:0:
448,192,5062,128,0,5262:0:0:0:0:
320,192,5062,1,0,0:0:0:0:
192,192,5262,128,0,5462:0:0:0:0:
320,192,5462,128,0,5662:0:0:0:0:
64,192,5662,128,0,5862:0:0:0:0:
320,192,5862,128,0,6062:0:0:0:0:
448,192,6062,128,0,6262:0:0:0:0:
192,192,6262,128,0,6462:0:0:0:0:
64,192,6462,128,0,6662:0:0:0:0:
448,192,6662,128,0,7062:0:0:0:0:
192,192,7062,128,0,7462:0:0:0:0:
320,192,7462,1,0,0:0:0:0:
64,192,7662,1,0,0:0:0:0:
320,192,7862,1,0,0:0:0:0:
448,192,7962,1,0,0:0:0:0:
64,192,8062,1,0,0:0:0:0:
192,192,8262,1,0,0:0:0:0:
320,192,8262,128,0,8462:0:0:0:0:
64,192,8462,128,0,8662:0:0:0:0:
448,192,8662,128,0,8862:0:0:0:0:
192,192,8862,128,0,9062:0:0:0:0:
448,192,9062,128,0,9262:0:0:0:0:
320,192,9262,128,0,9462:0:0:0:0:
64,192,9462,128,0,9662:0:0:0:0:
192,192,9662,128,0,9862:0:0:0:0:
448,192,9862,128,0,10062:0:0:0:0:
320,192,10062,128,0,10262:0:0:0:0:
192,192,10262,128,0,10462:0:0:0:0:
64,192,10462,128,0,10662:0:0:0:0:
448,192,10662,128,0,10862:0:0:0:0:
320,192,10862,128,0,11062:0:0:0:0:
192,192,11062,128,0,11262:0:0:0:0:
64,192,11262,128,0,11462:0:0:0:0:
192,192,11462,1,0,0:0:0:0:
448,192,11462,128,0,11595:0:0:0:0:
320,192,11595,128,0,11728:0:0:0:0:
192,192,11728,128,0,11862:0:0:0:0:
320,192,11862,128,0,11995:0:0:0:0:
192,192,11995,128,0,12128:0:0:0:0:
64,192,12128,128,0,12262:0:0:0:0:
192,192,12262,128,0,12395:0:0:0:0:
320,192,12395,128,0,12528:0:0:0:0:
448,192,12528,128,0,12662:0:0:0:0:
64,192,12662,128,0,12795:0:0:0:0:
192,192,12795,128,0,12928:0:0:0:0:
320,192,12928,128,0,13062:0:0:0:0:
448,192,13062,128,0,13195:0:0:0:0:
64,192,13195,128,0,13328:0:0:0:0:
192,192,13328,128,0,13462:0:0:0:0:
448,192,13462,128,0,13595:0:0:0:0:
320,192,13595,128,0,13728:0:0:0:0:
192,192,13728,128,0,13862:0:0:0:0:
448,192,13862,1,0,0:0:0:0:
64,192,14062,1,0,0:0:0:0:
320,192,14262,1,0,0:0:0:0:
192,192,14362,1,0,0:0:0:0:
320,192,14462,1,0,0:0:0:0:
448,192,14662,1,0,0:0:0:0:
64,192,14662,128,0,14862:0:0:0:0:
192,192,14862,128,0,15062:0:0:0:0:
320,192,15062,128,0,15262:0:0:0:0:
448,192,15262,128,0,15462:0:0:0:0:
64,192,15462,128,0,15662:0:0:0:0:
192,192,15662,128,0,15862:0:0:0:0:
320,192,15862,128,0,16062:0:0:0:0:
448,192,16062,128,0,16262:0:0:0:0:
192,192,16262,128,0,16462:0:0:0:0:
64,192,16462,128,0,16662:0:0:0:0:
192,192,16662,128,0,16862:0:0:0:0:
320,192,16862,128,0,17062:0:0:0:0:
64,192,17062,128,0,17262:0:0:0:0:
192,192,17262,128,0,17462:0:0:0:0:
448,192,17462,128,0,17662:0:0:0:0:
320,192,17662,128,0,17862:0:0:0:0:
64,192,17862,128,0,18062:0:0:0:0:
192,192,18062,128,0,18262:0:0:0:0:
320,192,18262,128,0,18462:0:0:0:0:
64,192,18462,128,0,18662:0:0:0:0:
448,192,18662,128,0,18862:0:0:0:0:
192,192,18862,128,0,19062:0:0:0:0:
320,192,19062,128,0,19262:0:0:0:0:
64,192,19262,128,0,19462:0:0:0:0:
448,192,19462,1,0,0:0:0:0:
192,192,19462,1,0,0:0:0:0:
320,192,19562,1,0,0:0:0:0:
64,192,19662,1,0,0:0:0:0:
192,192,19762,1,0,0:0:0:0:
448,192,19862,1,0,0:0:0:0:
320,192,19862,1,0,0:0:0:0:
192,192,19995,1,0,0:0:0:0:
64,192,20128,1,0,0:0:0:0:
320,192,20262,1,0,0:0:0:0:
448,192,20262,1,0,0:0:0:0:
192,192,20662,1,0,0:0:0:0:
448,192,20662,1,0,0:0:0:0:
64,192,21062,1,0,0:0:0:0:
320,192,21062,1,0,0:0:0:0:
64,192,21262,1,0,0:0:0:0:
192,192,21462,1,0,0:0:0:0:
448,192,21462,1,0,0:0:0:0:
448,192,21662,1,0,0:0:0:0:
320,192,21862,1,0,0:0:0:0:
64,192,21862,1,0,0:0:0:0:
64,192,22062,1,0,0:0:0:0:
448,192,22262,1,0,0:0:0:0:
192,192,22262,1,0,0:0:0:0:
448,192,22462,1,0,0:0:0:0:
64,192,22662,1,0,0:0:0:0:
192,192,22662,1,0,0:0:0:0:
192,192,22862,1,0,0:0:0:0:
448,192,23062,1,0,0:0:0:0:
320,192,23062,1,0,0:0:0:0:
320,192,23262,1,0,0:0:0:0:
192,192,23462,1,0,0:0:0:0:
64,192,23462,1,0,0:0:0:0:
192,192,23662,1,0,0:0:0:0:
320,192,23862,1,0,0:0:0:0:
448,192,23862,1,0,0:0:0:0:
320,192,24062,1,0,0:0:0:0:
64,192,24262,1,0,0:0:0:0:
320,192,24462,1,0,0:0:0:0:
192,192,24462,1,0,0:0:0:0:
448,192,24662,1,0,0:0:0:0:
320,192,24862,1,0,0:0:0:0:
192,192,24862,1,0,0:0:0:0:
64,192,25062,1,0,0:0:0:0:
320,192,25262,1,0,0:0:0:0:
192,192,25262,1,0,0:0:0:0:
448,192,25462,1,0,0:0:0:0:
192,192,25662,1,0,0:0:0:0:
320,192,25662,1,0,0:0:0:0:
192,192,26662,1,0,0:0:0:0:
320,192,26762,1,0,0:0:0:0:
448,192,26862,1,0,0:0:0:0:
64,192,26962,1,0,0:0:0:0:
320,192,27062,1,0,0:0:0:0:
192,192,27162,1,0,0:0:0:0:
448,192,27262,1,0,0:0:0:0:
320,192,27362,1,0,0:0:0:0:
192,192,27462,1,0,0:0:0:0:
64,192,27462,1,0,0:0:0:0:
448,192,27562,1,0,0:0:0:0:
320,192,27662,1,0,0:0:0:0:
64,192,27762,1,0,0:0:0:0:
192,192,27862,1,0,0:0:0:0:
448,192,27962,1,0,0:0:0:0:
320,192,28062,1,0,0:0:0:0:
192,192,28162,1,0,0:0:0:0:
320,192,28262,1,0,0:0:0:0:
448,192,28362,1,0,0:0:0:0:
192,192,28462,1,0,0:0:0:0:
64,192,28562,1,0,0:0:0:0:
448,192,28662,1,0,0:0:0:0:
320,192,28762,1,0,0:0:0:0:
64,192,28862,1,0,0:0:0:0:
192,192,28962,1,0,0:0:0:0:
448,192,29062,1,0,0:0:0:0:
320,192,29162,1,0,0:0:0:0:
64,192,29262,1,0,0:0:0:0:
192,192,29362,1,0,0:0:0:0:
320,192,29462,1,0,0:0:0:0:
64,192,29562,1,0,0:0:0:0:
448,192,29662,1,0,0:0:0:0:
192,192,29762,1,0,0:0:0:0:
320,192,29862,1,0,0:0:0:0:
448,192,29962,1,0,0:0:0:0:
320,192,30062,1,0,0:0:0:0:
64,192,30162,1,0,0:0:0:0:
448,192,30262,1,0,0:0:0:0:
192,192,30362,1,0,0:0:0:0:
64,192,30462,1,0,0:0:0:0:
448,192,30462,1,0,0:0:0:0:
320,192,30562,1,0,0:0:0:0:
192,192,30662,1,0,0:0:0:0:
448,192,30762,1,0,0:0:0:0:
320,192,30862,1,0,0:0:0:0:
64,192,30962,1,0,0:0:0:0:
192,192,31062,1,0,0:0:0:0:
320,192,31162,1,0,0:0:0:0:
448,192,31262,1,0,0:0:0:0:
192,192,31362,1,0,0:0:0:0:
64,192,31462,1,0,0:0:0:0:
448,192,31562,1,0,0:0:0:0:
320,192,31662,1,0,0:0:0:0:
192,192,31762,1,0,0:0:0:0:
448,192,31862,1,0,0:0:0:0:
320,192,31962,1,0,0:0:0:0:
64,192,32062,1,0,0:0:0:0:
192,192,32162,1,0,0:0:0:0:
320,192,32262,1,0,0:0:0:0:
192,192,32362,1,0,0:0:0:0:
64,192,32462,1,0,0:0:0:0:
448,192,32562,1,0,0:0:0:0:
320,192,32662,1,0,0:0:0:0:
64,192,32762,1,0,0:0:0:0:
448,192,32862,1,0,0:0:0:0:
320,192,32962,1,0,0:0:0:0:
192,192,33062,1,0,0:0:0:0:
448,192,33162,1,0,0:0:0:0:
64,192,33262,1,0,0:0:0:0:
320,192,33362,1,0,0:0:0:0:
192,192,33462,1,0,0:0:0:0:
320,192,33562,1,0,0:0:0:0:
448,192,33662,1,0,0:0:0:0:
320,192,33762,1,0,0:0:0:0:
64,192,33862,1,0,0:0:0:0:
192,192,33862,1,0,0:0:0:0:
448,192,33962,1,0,0:0:0:0:
192,192,34062,1,0,0:0:0:0:
320,192,34162,1,0,0:0:0:0:
64,192,34262,1,0,0:0:0:0:
448,192,34362,1,0,0:0:0:0:
64,192,34462,1,0,0:0:0:0:
192,192,34562,1,0,0:0:0:0:
320,192,34662,1,0,0:0:0:0:
448,192,34762,1,0,0:0:0:0:
192,192,34862,1,0,0:0:0:0:
64,192,34962,1,0,0:0:0:0:
448,192,35062,1,0,0:0:0:0:
320,192,35162,1,0,0:0:0:0:
64,192,35262,1,0,0:0:0:0:
192,192,35362,1,0,0:0:0:0:
448,192,35462,1,0,0:0:0:0:
320,192,35562,1,0,0:0:0:0:
64,192,35662,1,0,0:0:0:0:
192,192,35762,1,0,0:0:0:0:
320,192,35862,1,0,0:0:0:0:
64,192,35962,1,0,0:0:0:0:
448,192,36062,1,0,0:0:0:0:
192,192,36162,1,0,0:0:0:0:
320,192,36262,1,0,0:0:0:0:
448,192,36362,1,0,0:0:0:0:
320,192,36462,1,0,0:0:0:0:
192,192,36562,1,0,0:0:0:0:
64,192,36662,1,0,0:0:0:0:
320,192,36762,1,0,0:0:0:0:
64,192,36862,1,0,0:0:0:0:
192,192,36962,1,0,0:0:0:0:
448,192,37062,1,0,0:0:0:0:
320,192,37062,1,0,0:0:0:0:
448,192,37262,1,0,0:0:0:0:
192,192,37462,1,0,0:0:0:0:
64,192,37462,1,0,0:0:0:0:
64,192,37662,1,0,0:0:0:0:
448,192,37862,1,0,0:0:0:0:
320,192,37862,1,0,0:0:0:0:
448,192,38062,1,0,0:0:0:0:
64,192,38262,1,0,0:0:0:0:
192,192,38262,1,0,0:0:0:0:
64,192,38462,1,0,0:0:0:0:
448,192,38662,1,0,0:0:0:0:
320,192,38662,1,0,0:0:0:0:
192,192,38862,1,0,0:0:0:0:
320,192,38862,1,0,0:0:0:0:
64,192,39062,1,0,0:0:0:0:
192,192,39062,1,0,0:0:0:0:
320,192,39262,1,0,0:0:0:0:
448,192,39262,1,0,0:0:0:0:
64,192,39462,1,0,0:0:0:0:
192,192,39462,1,0,0:0:0:0:
320,192,39562,1,0,0:0:0:0:
448,192,39662,1,0,0:0:0:0:
64,192,39862,1,0,0:0:0:0:
192,192,39862,1,0,0:0:0:0:
320,192,40062,1,0,0:0:0:0:
192,192,40062,1,0,0:0:0:0:
64,192,40262,1,0,0:0:0:0:
448,192,40262,1,0,0:0:0:0:
320,192,40662,1,0,0:0:0:0:
64,192,40862,1,0,0:0:0:0:
448,192,40862,1,0,0:0:0:0:
192,192,41062,1,0,0:0:0:0:
320,192,41062,1,0,0:0:0:0:
448,192,41462,1,0,0:0:0:0:
320,192,41462,1,0,0:0:0:0:
192,192,41862,1,0,0:0:0:0:
64,192,41862,1,0,0:0:0:0:
448,192,42262,1,0,0:0:0:0:
64,192,42462,1,0,0:0:0:0:
320,192,42462,1,0,0:0:0:0:
192,192,42662,1,0,0:0:0:0:
448,192,42662,1,0,0:0:0:0:
64,192,43062,1,0,0:0:0:0:
320,192,43062,1,0,0:0:0:0:
192,192,43462,1,0,0:0:0:0:
448,192,43462,1,0,0:0:0:0:
320,192,43862,1,0,0:0:0:0:
64,192,44062,1,0,0:0:0:0:
192,192,44062,1,0,0:0:0:0:
448,192,44262,1,0,0:0:0:0:
320,192,44262,1,0,0:0:0:0:
320,192,44662,1,0,0:0:0:0:
192,192,44662,1,0,0:0:0:0:
192,192,45062,1,0,0:0:0:0:
64,192,45062,1,0,0:0:0:0:
448,192,45362,1,0,0:0:0:0:
64,192,45462,1,0,0:0:0:0:
448,192,45662,1,0,0:0:0:0:
64,192,45762,1,0,0:0:0:0:
192,192,45862,1,0,0:0:0:0:
320,192,45962,1,0,0:0:0:0:
448,192,46162,1,0,0:0:0:0:
64,192,46262,1,0,0:0:0:0:
192,192,46462,1,0,0:0:0:0:
320,192,46662,1,0,0:0:0:0:
448,192,46662,1,0,0:0:0:0:
320,192,47062,1,0,0:0:0:0:
64,192,47262,1,0,0:0:0:0:
192,192,47262,1,0,0:0:0:0:
448,192,47462,1,0,0:0:0:0:
320,192,47462,1,0,0:0:0:0:
192,192,47862,1,0,0:0:0:0:
448,192,48262,1,0,0:0:0:0:
64,192,48262,1,0,0:0:0:0:
192,192,48662,1,0,0:0:0:0:
320,192,48862,1,0,0:0:0:0:
64,192,48862,1,0,0:0:0:0:
448,192,49062,1,0,0:0:0:0:
192,192,49062,1,0,0:0:0:0:
320,192,49462,1,0,0:0:0:0:
64,192,49462,1,0,0:0:0:0:
64,192,49862,1,0,0:0:0:0:
448,192,49862,1,0,0:0:0:0:
64,192,50262,1,0,0:0:0:0:
448,192,50262,1,0,0:0:0:0:
192,192,50662,1,0,0:0:0:0:
448,192,50662,1,0,0:0:0:0:
64,192,50862,1,0,0:0:0:0:
320,192,50862,1,0,0:0:0:0:
192,192,51062,1,0,0:0:0:0:
320,192,51162,1,0,0:0:0:0:
448,192,51262,1,0,0:0:0:0:
64,192,51462,1,0,0:0:0:0:
192,192,51462,1,0,0:0:0:0:
320,192,52562,1,0,0:0:0:0:
192,192,52662,1,0,0:0:0:0:
320,192,52762,1,0,0:0:0:0:
192,192,52862,1,0,0:0:0:0:
448,192,53062,128,0,53262:0:0:0:0:
64,192,53062,1,0,0:0:0:0:
192,192,53262,128,0,53462:0:0:0:0:
320,192,53462,128,0,53662:0:0:0:0:
64,192,53662,128,0,53862:0:0:0:0:
448,192,53862,128,0,54062:0:0:0:0:
320,192,54062,128,0,54262:0:0:0:0:
64,192,54262,128,0,54462:0:0:0:0:
192,192,54462,128,0,54662:0:0:0:0:
320,192,54662,128,0,54862:0:0:0:0:
192,192,54862,128,0,55062:0:0:0:0:
448,192,55062,128,0,55262:0:0:0:0:
64,192,55262,128,0,55462:0:0:0:0:
320,192,55462,128,0,55662:0:0:0:0:
448,192,55662,128,0,55862:0:0:0:0:
320,192,55862,128,0,56062:0:0:0:0:
192,192,56062,128,0,56262:0:0:0:0:
448,192,56262,128,0,56462:0:0:0:0:
64,192,56462,128,0,56662:0:0:0:0:
192,192,56662,128,0,56862:0:0:0:0:
64,192,56862,128,0,57062:0:0:0:0:
320,192,57062,128,0,57262:0:0:0:0:
448,192,57262,128,0,57462:0:0:0:0:
192,192,57462,128,0,57662:0:0:0:0:
320,192,57662,128,0,57862:0:0:0:0:
448,192,57862,128,0,57995:0:0:0:0:
320,192,57995,128,0,58128:0:0:0:0:
192,192,58128,128,0,58262:0:0:0:0:
64,192,58262,128,0,58395:0:0:0:0:
192,192,58395,128,0,58528:0:0:0:0:
320,192,58528,128,0,58662:0:0:0:0:
448,192,58662,1,0,0:0:0:0:
320,192,58762,1,0,0:0:0:0:
192,192,58862,1,0,0:0:0:0:
64,192,59062,1,0,0:0:0:0:
448,192,59062,1,0,0:0:0:0:
192,192,59262,1,0,0:0:0:0:
320,192,59262,1,0,0:0:0:0:
448,192,59462,128,0,59662:0:0:0:0:
64,192,59462,1,0,0:0:0:0:
64,192,59662,128,0,59862:0:0:0:0:
320,192,59862,128,0,60062:0:0:0:0:
192,192,60062,128,0,60262:0:0:0:0:
320,192,60262,128,0,60462:0:0:0:0:
448,192,60462,128,0,60662:0:0:0:0:
64,192,60662,128,0,60862:0:0:0:0:
192,192,60862,128,0,61062:0:0:0:0:
320,192,61062,128,0,61262:0:0:0:0:
64,192,61262,128,0,61462:0:0:0:0:
448,192,61462,128,0,61662:0:0:0:0:
192,192,61662,128,0,61862:0:0:0:0:
320,192,61862,128,0,62062:0:0:0:0:
448,192,62062,128,0,62262:0:0:0:0:
320,192,62262,128,0,62462:0:0:0:0:
192,192,62462,128,0,62662:0:0:0:0:
320,192,62662,128,0,62795:0:0:0:0:
192,192,62795,128,0,62928:0:0:0:0:
64,192,62928,128,0,63062:0:0:0:0:
448,192,63062,128,0,63195:0:0:0:0:
320,192,63195,128,0,63328:0:0:0:0:
192,192,63328,128,0,63462:0:0:0:0:
320,192,63462,128,0,63595:0:0:0:0:
192,192,63595,128,0,63728:0:0:0:0:
64,192,63728,128,0,63862:0:0:0:0:
192,192,63862,128,0,63995:0:0:0:0:
320,192,63995,128,0,64128:0:0:0:0:
448,192,64128,128,0,64262:0:0:0:0:
320,192,64262,128,0,64395:0:0:0:0:
192,192,64395,128,0,64528:0:0:0:0:
64,192,64528,128,0,64662:0:0:0:0:
448,192,64662,128,0,64762:0:0:0:0:
320,192,64762,128,0,64862:0:0:0:0:
192,192,64862,128,0,64962:0:0:0:0:
64,192,64962,128,0,65062:0:0:0:0:
448,192,65062,128,0,65195:0:0:0:0:
192,192,65195,128,0,65328:0:0:0:0:
320,192,65328,128,0,65462:0:0:0:0:
64,192,65462,1,0,0:0:0:0:
448,192,65462,1,0,0:0:0:0:
64,192,65662,1,0,0:0:0:0:
320,192,65862,1,0,0:0:0:0:
320,192,66062,1,0,0:0:0:0:
448,192,66262,1,0,0:0:0:0:
192,192,66262,1,0,0:0:0:0:
192,192,66662,128,0,66862:0:0:0:0:
448,192,66662,1,0,0:0:0:0:
320,192,66862,128,0,67062:0:0:0:0:
64,192,67062,128,0,67262:0:0:0:0:
448,192,67262,128,0,67462:0:0:0:0:
64,192,67462,128,0,67662:0:0:0:0:
448,192,67662,128,0,67862:0:0:0:0:
192,192,67862,128,0,68062:0:0:0:0:
320,192,68062,128,0,68262:0:0:0:0:
448,192,68262,128,0,68462:0:0:0:0:
320,192,68462,128,0,68662:0:0:0:0:
192,192,68662,128,0,68862:0:0:0:0:
64,192,68862,128,0,69062:0:0:0:0:
192,192,69062,128,0,69262:0:0:0:0:
320,192,69262,128,0,69462:0:0:0:0:
64,192,69462,128,0,69662:0:0:0:0:
320,192,69662,128,0,69862:0:0:0:0:
448,192,69862,128,0,70062:0:0:0:0:
192,192,70062,128,0,70262:0:0:0:0:
64,192,70262,128,0,70462:0:0:0:0:
320,192,70462,128,0,70662:0:0:0:0:
448,192,70662,128,0,70795:0:0:0:0:
320,192,70795,128,0,70928:0:0:0:0:
192,192,70928,128,0,71062:0:0:0:0:
64,192,71062,128,0,71195:0:0:0:0:
192,192,71195,128,0,71328:0:0:0:0:
320,192,71328,128,0,71462:0:0:0:0:
448,192,71462,128,0,71595:0:0:0:0:
320,192,71595,128,0,71728:0:0:0:0:
192,192,71728,128,0,71862:0:0:0:0:
64,192,71862,1,0,0:0:0:0:
192,192,72062,1,0,0:0:0:0:
448,192,72262,128,0,72462:0:0:0:0:
320,192,72262,1,0,0:0:0:0:
64,192,72462,128,0,72662:0:0:0:0:
320,192,72662,128,0,72862:0:0:0:0:
192,192,72862,128,0,73062:0:0:0:0:
448,192,73062,128,0,73262:0:0:0:0:
320,192,73262,128,0,73462:0:0:0:0:
64,192,73462,128,0,73662:0:0:0:0:
192,192,73662,128,0,73862:0:0:0:0:
448,192,73862,128,0,74062:0:0:0:0:
320,192,74062,128,0,74262:0:0:0:0:
192,192,74262,128,0,74462:0:0:0:0:
320,192,74462,128,0,74662:0:0:0:0:
448,192,74662,128,0,74862:0:0:0:0:
320,192,74862,128,0,75062:0:0:0:0:
64,192,75062,128,0,75262:0:0:0:0:
448,192,75062,1,0,0:0:0:0:
192,192,75262,128,0,75462:0:0:0:0:
448,192,75462,128,0,75562:0:0:0:0:
320,192,75562,128,0,75662:0:0:0:0:
192,192,75662,128,0,75762:0:0:0:0:
64,192,75762,128,0,75862:0:0:0:0:
448,192,75862,128,0,76062:0:0:0:0:
64,192,76062,128,0,76162:0:0:0:0:
192,192,76162,128,0,76262:0:0:0:0:
320,192,76262,128,0,76462:0:0:0:0:
64,192,76462,128,0,76662:0:0:0:0:
448,192,76662,128,0,76795:0:0:0:0:
192,192,76795,128,0,76928:0:0:0:0:
320,192,76928,128,0,77062:0:0:0:0:
448,192,77062,128,0,77195:0:0:0:0:
192,192,77195,128,0,77328:0:0:0:0:
64,192,77328,128,0,77462:0:0:0:0:
448,192,77462,128,0,77595:0:0:0:0:
192,192,77595,128,0,77728:0:0:0:0:
64,192,77728,128,0,77862:0:0:0:0:
192,192,77862,128,0,77995:0:0:0:0:
320,192,77995,128,0,78128:0:0:0:0:
448,192,78128,128,0,78262:0:0:0:0:
64,192,78262,1,0,0:0:0:0:
192,192,78362,1,0,0:0:0:0:
320,192,78462,1,0,0:0:0:0:
448,192,78562,1,0,0:0:0:0:
192,192,78662,1,0,0:0:0:0:
64,192,78662,1,0,0:0:0:0:
192,192,79262,1,0,0:0:0:0:
64,192,79462,1,0,0:0:0:0:
320,192,79462,1,0,0:0:0:0:
448,192,80062,1,0,0:0:0:0:
64,192,80262,1,0,0:0:0:0:
320,192,80262,1,0,0:0:0:0:
320,192,80862,1,0,0:0:0:0:
192,192,81062,1,0,0:0:0:0:
448,192,81062,1,0,0:0:0:0:
64,192,81262,1,0,0:0:0:0:
320,192,81662,1,0,0:0:0:0:
192,192,81862,1,0,0:0:0:0:
448,192,81862,1,0,0:0:0:0:
320,192,82462,1,0,0:0:0:0:
64,192,82662,1,0,0:0:0:0:
448,192,82662,1,0,0:0:0:0:
64,192,82862,1,0,0:0:0:0:
448,192,82862,1,0,0:0:0:0:
192,192,83062,1,0,0:0:0:0:
320,192,83462,1,0,0:0:0:0:
192,192,84062,1,0,0:0:0:0:
64,192,84262,1,0,0:0:0:0:
320,192,84262,1,0,0:0:0:0:
448,192,84462,1,0,0:0:0:0:
64,192,84662,1,0,0:0:0:0:
192,192,84762,1,0,0:0:0:0:
320,192,84862,1,0,0:0:0:0:
192,192,85062,1,0,0:0:0:0:
448,192,85062,1,0,0:0:0:0:
192,192,85462,1,0,0:0:0:0:
448,192,85462,1,0,0:0:0:0:
192,192,85862,1,0,0:0:0:0:
448,192,85862,1,0,0:0:0:0:
192,192,86262,1,0,0:0:0:0:
448,192,86262,1,0,0:0:0:0:
320,192,86662,1,0,0:0:0:0:
64,192,86662,1,0,0:0:0:0:
320,192,87062,1,0,0:0:0:0:
64,192,87062,1,0,0:0:0:0:
320,192,87462,1,0,0:0:0:0:
64,192,87462,1,0,0:0:0:0:
320,192,87862,1,0,0:0:0:0:
64,192,87862,1,0,0:0:0:0:
64,192,88262,1,0,0:0:0:0:
448,192,88262,1,0,0:0:0:0:
320,192,88462,1,0,0:0:0:0:
192,192,88462,1,0,0:0:0:0:
192,192,88662,1,0,0:0:0:0:
64,192,88662,1,0,0:0:0:0:
448,192,88862,1,0,0:0:0:0:
320,192,88862,1,0,0:0:0:0:
64,192,89062,1,0,0:0:0:0:
320,192,89162,1,0,0:0:0:0:
192,192,89262,1,0,0:0:0:0:
448,192,89362,1,0,0:0:0:0:
64,192,89462,1,0,0:0:0:0:
320,192,89562,1,0,0:0:0:0:
192,192,89662,1,0,0:0:0:0:
448,192,89762,1,0,0:0:0:0:
64,192,91462,1,0,0:0:0:0:
64,192,91762,1,0,0:0:0:0:
64,192,92062,1,0,0:0:0:0:
320,192,92262,1,0,0:0:0:0:
192,192,92462,1,0,0:0:0:0:
320,192,92562,1,0,0:0:0:0:
448,192,92662,1,0,0:0:0:0:
192,192,92762,1,0,0:0:0:0:
64,192,92862,1,0,0:0:0:0:
320,192,92962,1,0,0:0:0:0:
64,192,93062,1,0,0:0:0:0:
448,192,93062,1,0,0:0:0:0:
192,192,93162,1,0,0:0:0:0:
320,192,93262,1,0,0:0:0:0:
448,192,93362,1,0,0:0:0:0:
192,192,93462,1,0,0:0:0:0:
448,192,93562,1,0,0:0:0:0:
64,192,93662,1,0,0:0:0:0:
192,192,93762,1,0,0:0:0:0:
320,192,93862,1,0,0:0:0:0:
448,192,93962,1,0,0:0:0:0:
192,192,94062,1,0,0:0:0:0:
64,192,94162,1,0,0:0:0:0:
448,192,94262,1,0,0:0:0:0:
320,192,94362,1,0,0:0:0:0:
64,192,94462,1,0,0:0:0:0:
192,192,94562,1,0,0:0:0:0:
320,192,94662,1,0,0:0:0:0:
64,192,94762,1,0,0:0:0:0:
192,192,94862,1,0,0:0:0:0:
448,192,94962,1,0,0:0:0:0:
320,192,95062,1,0,0:0:0:0:
192,192,95162,1,0,0:0:0:0:
320,192,95262,1,0,0:0:0:0:
192,192,95362,1,0,0:0:0:0:
64,192,95462,1,0,0:0:0:0:
448,192,95562,1,0,0:0:0:0:
320,192,95662,1,0,0:0:0:0:
192,192,95762,1,0,0:0:0:0:
448,192,95862,1,0,0:0:0:0:
320,192,95962,1,0,0:0:0:0:
64,192,96062,1,0,0:0:0:0:
192,192,96162,1,0,0:0:0:0:
448,192,96262,1,0,0:0:0:0:
320,192,96362,1,0,0:0:0:0:
192,192,96462,1,0,0:0:0:0:
64,192,96562,1,0,0:0:0:0:
320,192,96662,1,0,0:0:0:0:
448,192,96762,1,0,0:0:0:0:
64,192,96862,1,0,0:0:0:0:
192,192,96962,1,0,0:0:0:0:
320,192,97062,1,0,0:0:0:0:
448,192,97162,1,0,0:0:0:0:
320,192,97262,1,0,0:0:0:0:
192,192,97362,1,0,0:0:0:0:
448,192,97462,1,0,0:0:0:0:
320,192,97562,1,0,0:0:0:0:
64,192,97662,1,0,0:0:0:0:
192,192,97762,1,0,0:0:0:0:
448,192,97862,1,0,0:0:0:0:
64,192,97962,1,0,0:0:0:0:
192,192,98062,1,0,0:0:0:0:
320,192,98162,1,0,0:0:0:0:
448,192,98262,1,0,0:0:0:0:
192,192,98362,1,0,0:0:0:0:
64,192,98462,1,0,0:0:0:0:
320,192,98562,1,0,0:0:0:0:
448,192,98662,1,0,0:0:0:0:
64,192,98762,1,0,0:0:0:0:
192,192,98862,1,0,0:0:0:0:
320,192,98962,1,0,0:0:0:0:
448,192,99062,1,0,0:0:0:0:
192,192,99162,1,0,0:0:0:0:
320,192,99262,1,0,0:0:0:0:
64,192,99362,1,0,0:0:0:0:
448,192,99462,1,0,0:0:0:0:
192,192,99462,1,0,0:0:0:0:
320,192,99562,1,0,0:0:0:0:
64,192,99662,1,0,0:0:0:0:
192,192,99762,1,0,0:0:0:0:
320,192,99862,1,0,0:0:0:0:
448,192,99962,1,0,0:0:0:0:
320,192,100062,1,0,0:0:0:0:
192,192,100162,1,0,0:0:0:0:
64,192,100262,1,0,0:0:0:0:
320,192,100362,1,0,0:0:0:0:
448,192,100462,1,0,0:0:0:0:
64,192,100562,1,0,0:0:0:0:
448,192,100662,1,0,0:0:0:0:
320,192,100762,1,0,0:0:0:0:
64,192,100862,1,0,0:0:0:0:
192,192,100962,1,0,0:0:0:0:
448,192,101062,1,0,0:0:0:0:
320,192,101162,1,0,0:0:0:0:
192,192,101262,1,0,0:0:0:0:
64,192,101362,1,0,0:0:0:0:
192,192,101462,1,0,0:0:0:0:
320,192,101562,1,0,0:0:0:0:
448,192,101662,1,0,0:0:0:0:
192,192,101762,1,0,0:0:0:0:
64,192,101862,1,0,0:0:0:0:
448,192,101962,1,0,0:0:0:0:
320,192,102062,1,0,0:0:0:0:
192,192,102162,1,0,0:0:0:0:
64,192,102262,1,0,0:0:0:0:
320,192,102362,1,0,0:0:0:0:
448,192,102462,1,0,0:0:0:0:
192,192,102562,1,0,0:0:0:0:
64,192,102662,1,0,0:0:0:0:
192,192,102762,1,0,0:0:0:0:
320,192,102862,1,0,0:0:0:0:
448,192,102962,1,0,0:0:0:0:
64,192,103062,1,0,0:0:0:0:
320,192,103162,1,0,0:0:0:0:
192,192,103262,1,0,0:0:0:0:
448,192,103362,1,0,0:0:0:0:
320,192,103462,1,0,0:0:0:0:
192,192,103562,1,0,0:0:0:0:
64,192,103662,1,0,0:0:0:0:
320,192,103762,1,0,0:0:0:0:
192,192,103862,1,0,0:0:0:0:
320,192,103962,1,0,0:0:0:0:
448,192,104062,1,0,0:0:0:0:
192,192,104162,1,0,0:0:0:0:
320,192,104262,1,0,0:0:0:0:
448,192,104362,1,0,0:0:0:0:
192,192,104462,1,0,0:0:0:0:
64,192,104562,1,0,0:0:0:0:
192,192,104662,1,0,0:0:0:0:
320,192,104762,1,0,0:0:0:0:
448,192,104862,1,0,0:0:0:0:
320,192,104962,1,0,0:0:0:0:
64,192,105062,1,0,0:0:0:0:
448,192,105162,1,0,0:0:0:0:
64,192,105262,1,0,0:0:0:0:
448,192,105462,1,0,0:0:0:0:
64,192,105662,1,0,0:0:0:0:
448,192,105862,1,0,0:0:0:0:
192,192,105862,1,0,0:0:0:0:
64,192,106162,1,0,0:0:0:0:
320,192,106162,1,0,0:0:0:0:
448,192,106462,1,0,0:0:0:0:
192,192,106462,1,0,0:0:0:0:
320,192,106662,1,0,0:0:0:0:
64,192,106762,1,0,0:0:0:0:
448,192,106862,1,0,0:0:0:0:
64,192,107062,1,0,0:0:0:0:
320,192,107062,1,0,0:0:0:0:
448,192,107462,1,0,0:0:0:0:
192,192,107462,1,0,0:0:0:0:
320,192,107762,1,0,0:0:0:0:
64,192,107762,1,0,0:0:0:0:
448,192,108062,1,0,0:0:0:0:
192,192,108062,1,0,0:0:0:0:
64,192,108262,1,0,0:0:0:0:
448,192,108262,1,0,0:0:0:0:
192,192,108462,1,0,0:0:0:0:
448,192,108662,1,0,0:0:0:0:
320,192,108762,1,0,0:0:0:0:
192,192,108862,1,0,0:0:0:0:
448,192,109062,1,0,0:0:0:0:
64,192,109062,1,0,0:0:0:0:
64,192,109362,1,0,0:0:0:0:
448,192,109362,1,0,0:0:0:0:
64,192,109662,1,0,0:0:0:0:
448,192,109662,1,0,0:0:0:0:
192,192,109762,1,0,0:0:0:0:
320,192,109862,1,0,0:0:0:0:
192,192,110062,1,0,0:0:0:0:
448,192,110262,1,0,0:0:0:0:
64,192,110262,1,0,0:0:0:0:
448,192,110662,1,0,0:0:0:0:
64,192,110662,1,0,0:0:0:0:
64,192,110862,1,0,0:0:0:0:
448,192,110862,1,0,0:0:0:0:
320,192,111062,1,0,0:0:0:0:
192,192,111162,1,0,0:0:0:0:
320,192,111262,1,0,0:0:0:0:
192,192,111362,1,0,0:0:0:0:
64,192,111462,1,0,0:0:0:0:
64,192,111662,1,0,0:0:0:0:
448,192,111862,1,0,0:0:0:0:
320,192,111962,1,0,0:0:0:0:
192,192,112062,1,0,0:0:0:0:
320,192,112162,1,0,0:0:0:0:
448,192,112262,1,0,0:0:0:0:
64,192,112262,1,0,0:0:0:0:
192,192,112662,1,0,0:0:0:0:
448,192,112662,1,0,0:0:0:0:
64,192,113062,1,0,0:0:0:0:
320,192,113062,1,0,0:0:0:0:
448,192,113462,1,0,0:0:0:0:
64,192,113462,1,0,0:0:0:0:
448,192,113862,1,0,0:0:0:0:
192,192,113862,1,0,0:0:0:0:
320,192,114262,1,0,0:0:0:0:
64,192,114262,1,0,0:0:0:0:
448,192,114662,1,0,0:0:0:0:
192,192,114662,1,0,0:0:0:0:
64,192,115062,1,0,0:0:0:0:
320,192,115062,1,0,0:0:0:0:
448,192,115462,1,0,0:0:0:0:
192,192,115462,1,0,0:0:0:0:
448,192,115662,1,0,0:0:0:0:
64,192,115862,1,0,0:0:0:0:
320,192,115862,1,0,0:0:0:0:
64,192,116062,1,0,0:0:0:0:
448,192,116262,1,0,0:0:0:0:
192,192,116262,1,0,0:0:0:0:
448,192,116462,1,0,0:0:0:0:
320,192,116662,1,0,0:0:0:0:
64,192,116662,1,0,0:0:0:0:
64,192,116862,1,0,0:0:0:0:
448,192,117062,1,0,0:0:0:0:
448,192,117262,1,0,0:0:0:0:
64,192,117462,1,0,0:0:0:0:
64,192,117662,1,0,0:0:0:0:
448,192,117862,1,0,0:0:0:0:
320,192,117962,1,0,0:0:0:0:
192,192,118062,1,0,0:0:0:0:
64,192,118162,1,0,0:0:0:0:
320,192,118262,1,0,0:0:0:0:
448,192,118362,1,0,0:0:0:0:
192,192,118462,1,0,0:0:0:0:
64,192,118562,1,0,0:0:0:0:
