osu file format v14

[General]
AudioFilename: audio.mp3
AudioLeadIn: 0
PreviewTime: 91473
Countdown: 0
SampleSet: Soft
StackLeniency: 0.7
Mode: 2
LetterboxInBreaks: 0
WidescreenStoryboard: 0

[Editor]
DistanceSpacing: 1
BeatDivisor: 4
GridSize: 16
TimelineZoom: 1

[Metadata]
Title:BRAVE OUT
TitleUnicode:BRAVE OUT
Artist:nomico / DOWNFORCE
ArtistUnicode:nomico / DOWNFORCE
Creator:SYAHME
Version:SALAD
Source:beatmania IIDX 21 SPADA
Tags:masayoshi minoshima alstroemeria records electrance MAP DX-5 Qprogue Benami Konami Jusenkyo JBHyperion
BeatmapID:1122805
BeatmapSetID:469487

[Difficulty]
HPDrainRate:4
CircleSize:3.4
OverallDifficulty:7
ApproachRate:7
SliderMultiplier:1.4
SliderTickRate:1

[Events]
//Background and Video events
0,0,"Bg.jpg",0,0
//Break Periods
//Storyboard Layer 0 (Background)
//Storyboard Layer 1 (Fail)
//Storyboard Layer 2 (Pass)
//Storyboard Layer 3 (Foreground)
//Storyboard Sound Samples

[TimingPoints]
273,400,4,2,1,50,1,0
1873,-100,4,2,1,70,0,0
1973,-100,4,2,1,50,0,0
2673,-100,4,2,1,70,0,0
2773,-100,4,2,1,50,0,0
4273,-100,4,2,1,70,0,0
4373,-100,4,2,1,50,0,0
5073,-100,4,2,1,70,0,0
5173,-100,4,2,1,50,0,0
5873,-100,4,2,1,70,0,0
5973,-100,4,2,1,50,0,0
7473,-100,4,2,1,70,0,0
7573,-100,4,2,1,50,0,0
7873,-100,4,2,1,70,0,0
7973,-100,4,2,1,50,0,0
8273,-100,4,2,1,70,0,0
8373,-100,4,2,1,50,0,0
9073,-100,4,2,1,70,0,0
9150,-100,4,2,1,50,0,0
10673,-100,4,2,1,70,0,0
11173,-100,4,2,1,50,0,0
11473,-100,4,2,1,70,0,0
11573,-100,4,2,1,50,0,0
12273,-100,4,2,1,70,0,0
12373,-100,4,2,1,50,0,0
14673,-100,4,2,1,70,0,0
14773,-100,4,2,1,50,0,0
24273,-100,4,1,1,50,0,0
24373,-100,4,2,1,50,0,0
24673,-100,4,1,1,50,0,0
24773,-100,4,2,1,50,0,0
25073,-100,4,1,1,50,0,0
25173,-100,4,2,1,50,0,0
25473,-100,4,1,1,50,0,0
25573,-100,4,2,1,50,0,0
27473,-100,4,2,1,70,0,0
27573,-100,4,2,1,50,0,0
29073,-100,4,3,1,70,0,0
29173,-100,4,2,1,50,0,0
30673,-100,4,3,1,70,0,0
30773,-100,4,2,1,50,0,0
32273,-100,4,3,1,70,0,0
32373,-100,4,2,1,50,0,0
33873,-100,4,2,1,70,0,0
33973,-100,4,2,1,50,0,0
35473,-100,4,3,1,70,0,0
35573,-100,4,2,1,50,0,0
37073,-100,4,1,1,50,0,0
38373,-100,4,2,1,50,0,0
40273,-100,4,2,1,70,0,0
40373,-100,4,2,1,50,0,0
41073,-100,4,2,1,70,0,0
41173,-100,4,2,1,50,0,0
42673,-100,4,2,1,70,0,0
42773,-100,4,2,1,50,0,0
44273,-100,4,2,1,70,0,0
44373,-100,4,2,1,50,0,0
45873,-100,4,2,1,70,0,0
45973,-100,4,2,1,50,0,0
46673,-100,4,2,1,70,0,0
46773,-100,4,2,1,50,0,0
47473,-100,4,2,1,70,0,0
47573,-100,4,2,1,50,0,0
49073,-100,4,2,1,70,0,0
49173,-100,4,2,1,50,0,0
50673,-100,4,2,1,70,0,0
50773,-100,4,2,1,50,0,0
51073,-100,4,2,1,70,0,0
51173,-100,4,2,1,50,0,0
51473,-100,4,2,1,70,0,0
51573,-100,4,2,1,50,0,0
53073,-100,4,2,1,70,0,0
53173,-100,4,2,1,50,0,0
59473,-100,4,2,1,70,0,0
59573,-100,4,2,1,50,0,0
66273,-100,4,2,1,70,0,0
66373,-100,4,2,1,50,0,0
78673,-100,4,2,1,70,0,0
78773,-100,4,2,1,50,0,0
81073,-100,4,2,1,70,0,0
81173,-100,4,2,1,50,0,0
81473,-100,4,2,1,70,0,0
81573,-100,4,2,1,50,0,0
85073,-100,4,2,1,70,0,0
85173,-100,4,2,1,50,0,0
91473,-100,4,2,1,30,0,0
93073,-100,4,2,1,70,0,1
93173,-100,4,2,1,50,0,1
99473,-100,4,2,1,70,0,1
99573,-100,4,2,1,50,0,1
105073,-100,4,1,1,70,0,1
112373,-100,4,2,1,50,0,1
113873,-100,4,2,1,70,0,1
115173,-100,4,2,1,50,0,1
115473,-100,4,1,1,50,0,1
115573,-100,4,2,1,50,0,1
115873,-100,4,1,1,50,0,1
115973,-100,4,2,1,50,0,1
116273,-100,4,1,1,50,0,1
116373,-100,4,2,1,50,0,1
116673,-100,4,1,1,50,0,1
116773,-100,4,2,1,50,0,1
118673,-100,4,2,1,30,0,0

[Colours]
Combo1 : 255,154,53
Combo2 : 255,128,128
Combo3 : 60,157,255
Combo4 : 3,252,134

[HitObjects]
256,192,1073,6,0,P|320:224|384:176,1,140
112,192,1873,1,4,0:0:0:0:
256,192,2273,1,0,0:0:0:0:
400,96,2673,6,0,L|256:96,2,140,8|0|0,0:0|0:0|0:0,0:0:0:0:
256,192,3873,1,0,0:0:0:0:
112,304,4273,6,0,L|256:304,2,140,8|0|4,0:0|0:0|0:0,0:0:0:0:
256,192,5473,1,0,0:0:0:0:
400,80,5873,6,0,L|256:80,1,140,8|0,0:0|0:0,0:0:0:0:
112,192,6673,2,0,L|256:192,1,140
112,256,7473,6,0,L|96:336,1,70,8|0,0:0|0:0,0:0:0:0:
240,256,7873,2,0,L|256:336,1,70,8|0,0:0|0:0,0:0:0:0:
64,192,8273,2,0,P|32:160|80:80,1,140,4|0,0:0|0:0,0:0:0:0:
240,80,9073,6,0,L|384:80,1,140,8|0,0:0|0:0,0:0:0:0:
224,192,9873,1,0,0:0:0:0:
384,192,10273,1,0,0:0:0:0:
192,80,10673,6,0,P|128:112|64:64,1,140,8|8,0:0|0:0,0:0:0:0:
384,80,11473,1,4,0:0:0:0:
224,192,11873,1,0,0:0:0:0:
368,304,12273,6,0,L|208:304,1,140,8|0,0:0|0:0,0:0:0:0:
80,192,13073,2,0,L|224:192,1,140
368,80,13873,6,0,P|304:112|240:64,1,140
452,80,14673,1,4,0:0:0:0:
256,240,15073,1,0,0:0:0:0:
60,192,15473,6,0,L|204:192,2,140
256,144,16673,1,0,0:0:0:0:
60,192,17073,6,0,L|220:192,2,140
256,240,18273,1,0,0:0:0:0:
452,192,18673,6,0,L|308:192,2,140
256,144,19873,1,0,0:0:0:0:
452,144,20273,6,0,P|400:184|348:128,1,140
224,48,21073,1,0,0:0:0:0:
156,62,21273,1,0,0:0:0:0:
101,105,21473,1,0,0:0:0:0:
70,166,21673,1,0,0:0:0:0:
70,236,21873,5,0,0:0:0:0:
101,299,22073,1,0,0:0:0:0:
156,341,22273,1,0,0:0:0:0:
218,358,22473,1,0,0:0:0:0:
284,48,22673,5,0,0:0:0:0:
352,62,22873,1,0,0:0:0:0:
407,105,23073,1,0,0:0:0:0:
438,166,23273,1,0,0:0:0:0:
438,236,23473,5,0,0:0:0:0:
407,299,23673,1,0,0:0:0:0:
352,341,23873,1,0,0:0:0:0:
290,358,24073,1,0,0:0:0:0:
144,192,24273,6,0,L|144:272,1,70,2|0,0:0|0:0,0:0:0:0:
288,192,24673,2,0,L|288:272,1,70,2|0,0:0|0:0,0:0:0:0:
432,192,25073,6,0,L|432:272,1,70,2|0,0:0|0:0,0:0:0:0:
288,192,25473,2,0,L|288:272,1,70,2|0,0:0|0:0,0:0:0:0:
96,192,25873,1,0,0:0:0:0:
144,192,27473,6,0,P|112:240|160:320,1,140,4|0,0:0|0:0,0:0:0:0:
336,192,28273,2,0,P|288:224|208:176,1,140
320,112,28873,1,0,0:0:0:0:
416,112,29073,1,8,0:0:0:0:
217,109,29473,6,0,P|277:78|336:112,1,140
144,192,30273,2,0,L|64:192,2,70,0|0|8,0:0|0:0|0:0,0:0:0:0:
368,192,31073,6,0,P|400:240|352:320,1,140
176,112,31873,2,0,L|246:112,1,70
144,192,32273,1,8,0:0:0:0:
336,112,32673,1,0,0:0:0:0:
176,112,33073,6,0,P|116:142|58:109,1,140,4|0,0:0|0:0,0:0:0:0:
352,112,33873,2,0,P|412:142|470:109,1,140,4|0,0:0|0:0,0:0:0:0:
304,208,34673,6,0,P|243:238|185:205,1,140
288,128,35273,1,0,0:0:0:0:
384,128,35473,1,8,0:0:0:0:
176,128,35873,6,0,P|236:158|294:125,2,140
368,192,37073,5,2,0:0:0:0:
176,192,37473,1,2,0:0:0:0:
384,192,37873,1,2,0:0:0:0:
96,192,38273,1,2,0:0:0:0:
256,192,38673,12,4,40273,0:0:0:0:
112,192,41073,6,0,L|256:192,2,140,8|0|0,0:0|0:0|0:0,0:0:0:0:
400,192,42673,6,0,L|256:192,2,140,8|0|0,0:0|0:0|0:0,0:0:0:0:
96,192,44273,5,8,0:0:0:0:
256,192,44673,1,0,0:0:0:0:
416,192,45073,1,0,0:0:0:0:
112,192,45873,5,8,0:0:0:0:
256,192,46273,1,0,0:0:0:0:
416,96,46673,2,0,P|336:144|416:272,1,280,4|8,0:0|0:0,0:0:0:0:
96,96,48273,6,0,P|176:144|96:272,1,280,0|8,0:0|0:0,0:0:0:0:
288,176,49473,2,0,L|144:176,2,140
192,112,50673,6,0,L|176:32,1,70,8|0,0:0|0:0,0:0:0:0:
320,112,51073,2,0,L|336:32,1,70,8|0,0:0|0:0,0:0:0:0:
128,112,51473,1,4,0:0:0:0:
256,192,52273,6,0,P|320:224|384:176,1,140
96,192,53073,1,4,0:0:0:0:
224,96,53473,6,0,L|304:96,1,70
160,192,54073,2,0,L|304:192,3,140
160,96,55673,6,0,L|80:96,2,70
256,96,56273,2,0,P|304:128|240:160,1,140
160,176,56873,2,0,P|112:208|176:240,1,140
336,80,57673,6,0,L|192:80,2,140
416,80,58673,2,0,L|416:160,1,70
304,80,59073,2,0,L|304:160,1,70
128,80,59473,5,4,0:0:0:0:
256,288,59873,2,0,L|256:208,1,70
400,192,60473,2,0,L|256:192,3,140
96,192,62073,6,0,P|32:240|112:320,1,210
256,192,63073,2,0,L|256:112,1,70
400,304,63673,6,0,L|256:304,1,140
112,192,64473,2,0,L|256:192,2,140
256,128,65473,6,0,L|256:48,1,70
368,128,65873,2,0,L|368:48,1,70
192,128,66273,5,4,0:0:0:0:
192,256,66673,2,0,L|336:256,1,140
256,96,67273,2,0,L|112:96,2,140
336,96,68273,5,0,0:0:0:0:
393,129,68473,1,0,0:0:0:0:
392,195,68673,1,0,0:0:0:0:
332,226,68873,1,0,0:0:0:0:
256,224,69073,6,0,L|176:224,2,70
128,304,69873,2,0,L|272:304,1,140
352,192,70473,2,0,L|208:192,2,140
176,96,71873,6,0,L|96:96,1,70
192,192,72273,2,0,L|336:192,1,140
192,288,73073,2,0,L|48:288,1,140
192,48,73873,5,0,0:0:0:0:
325,71,74273,1,0,0:0:0:0:
385,191,74673,1,0,0:0:0:0:
325,312,75073,1,0,0:0:0:0:
192,336,75473,1,0,0:0:0:0:
64,192,75873,6,0,L|208:192,2,140
208,80,77073,2,0,L|352:80,2,140
352,192,78273,6,0,L|432:192,1,70
256,192,78673,1,4,0:0:0:0:
256,192,79073,2,0,P|208:160|272:128,1,140
336,192,79673,2,0,P|384:224|320:256,1,140
256,192,80273,2,0,P|208:160|272:128,1,140
336,112,80873,5,0,0:0:0:0:
399,133,81073,1,8,0:0:0:0:
426,195,81273,1,0,0:0:0:0:
397,257,81473,1,8,0:0:0:0:
332,277,81673,1,0,0:0:0:0:
256,272,81873,6,0,L|112:272,1,140
208,192,82473,2,0,L|352:192,2,140
128,192,83473,2,0,P|80:160|144:128,1,140
256,128,84273,2,0,P|288:144|320:112,1,70
368,128,84673,2,0,P|400:144|432:112,1,70
240,192,85073,5,4,0:0:0:0:
452,192,85473,1,0,0:0:0:0:
256,192,85873,1,0,0:0:0:0:
452,192,86273,1,0,0:0:0:0:
256,192,86673,5,0,0:0:0:0:
60,192,87073,1,0,0:0:0:0:
256,192,87473,1,0,0:0:0:0:
60,192,87873,1,0,0:0:0:0:
256,124,88273,5,0,0:0:0:0:
311,161,88473,1,0,0:0:0:0:
312,228,88673,1,0,0:0:0:0:
257,267,88873,1,0,0:0:0:0:
160,272,89073,2,0,P|96:208|160:48,1,280
256,192,90273,12,0,91473,0:0:0:0:
256,192,92273,6,0,P|192:208|112:192,1,140
400,192,93073,1,4,0:0:0:0:
240,96,93473,1,0,0:0:0:0:
400,96,93873,6,0,L|240:96,1,140
428,192,94673,1,0,0:0:0:0:
332,192,94873,1,0,0:0:0:0:
428,192,95073,1,0,0:0:0:0:
272,192,95473,6,0,L|416:192,1,140
240,304,96273,1,0,0:0:0:0:
336,304,96473,1,0,0:0:0:0:
240,304,96673,1,0,0:0:0:0:
80,192,97073,6,0,L|240:192,1,140
48,96,97873,1,0,0:0:0:0:
144,96,98073,1,0,0:0:0:0:
48,96,98273,1,0,0:0:0:0:
208,192,98673,6,0,P|144:224|80:176,1,140
368,192,99473,1,4,0:0:0:0:
192,192,99873,1,0,0:0:0:0:
384,288,100273,6,0,L|224:288,1,140
432,192,101073,1,0,0:0:0:0:
256,192,101473,1,0,0:0:0:0:
432,192,101873,5,0,0:0:0:0:
256,192,102273,1,0,0:0:0:0:
80,192,102673,1,0,0:0:0:0:
176,192,102873,1,0,0:0:0:0:
80,192,103073,1,0,0:0:0:0:
256,144,103473,5,0,0:0:0:0:
432,144,103873,1,0,0:0:0:0:
288,144,104273,1,0,0:0:0:0:
192,144,104473,1,0,0:0:0:0:
288,144,104673,1,0,0:0:0:0:
96,192,105073,6,0,L|80:112,1,70,2|0,0:0|0:0,0:0:0:0:
208,192,105473,2,0,L|224:112,1,70,2|0,0:0|0:0,0:0:0:0:
416,192,105873,2,0,L|272:192,1,140,2|0,0:0|0:0,0:0:0:0:
144,192,106673,6,0,L|128:112,1,70,2|0,0:0|0:0,0:0:0:0:
272,192,107073,2,0,L|256:112,1,70,2|0,0:0|0:0,0:0:0:0:
64,240,107473,2,0,L|204:240,1,140,2|0,0:0|0:0,0:0:0:0:
96,192,108273,6,0,L|80:112,1,70,2|0,0:0|0:0,0:0:0:0:
208,192,108673,2,0,L|224:112,1,70,2|0,0:0|0:0,0:0:0:0:
416,192,109073,2,0,P|448:240|400:320,1,140,2|0,0:0|0:0,0:0:0:0:
256,192,109873,6,0,L|240:112,1,70,2|0,0:0|0:0,0:0:0:0:
368,192,110273,2,0,L|384:112,1,70,2|0,0:0|0:0,0:0:0:0:
240,240,110673,2,0,P|208:176|256:112,1,140,2|0,0:0|0:0,0:0:0:0:
352,256,111473,6,0,L|368:176,1,70,2|0,0:0|0:0,0:0:0:0:
240,256,111873,2,0,L|224:176,1,70,2|0,0:0|0:0,0:0:0:0:
416,192,112273,2,0,P|357:224|298:192,1,140,2|8,0:0|0:0,0:0:0:0:
128,96,113073,2,0,P|186:128|245:96,1,140,0|8,0:0|0:0,0:0:0:0:
320,192,113873,6,0,P|256:224|192:160,1,140,8|8,0:0|0:0,0:0:0:0:
400,144,114673,2,0,P|432:208|368:272,1,140,8|8,0:0|0:0,0:0:0:0:
96,240,115473,6,0,L|112:160,1,70,2|0,0:0|0:0,0:0:0:0:
224,240,115873,2,0,L|240:160,1,70,2|0,0:0|0:0,0:0:0:0:
400,144,116273,2,0,L|416:64,1,70,2|0,0:0|0:0,0:0:0:0:
272,144,116673,1,2,0:0:0:0:
256,192,117073,12,0,118673,0:0:0:0:
