osu file format v14

[General]
AudioFilename: audio.mp3
AudioLeadIn: 0
PreviewTime: 168199
Countdown: 0
SampleSet: Soft
StackLeniency: 0.4
Mode: 0
LetterboxInBreaks: 0
WidescreenStoryboard: 1

[Editor]
Bookmarks: 29655,42430,69133,79682,90232,111331,121880,132430,148254,179902,216496
DistanceSpacing: 1.2
BeatDivisor: 4
GridSize: 4
TimelineZoom: 1.7

[Metadata]
Title:Itsudatte Bokura wa
TitleUnicode:いつだって僕らは
Artist:noctchill
ArtistUnicode:ノクチル
Creator:kiddly
Version:[SkyDust]
Source:アイドルマスター シャイニーカラーズ
Tags:THE IDOLM@STER SHINY COLORS GR@DATE WING 07 シャニマス idolmaster imas im@s shinymas Asakura Toru 浅倉透 Wakui Yuu 和久井優 Higuchi Madoka 樋口円香 Tsuchiya Rio 土屋李央 Fukumaru Koito 福丸小糸 Tajima Saran 田嶌紗蘭 Ichikawa Hinana 市川雛菜 Okasaki Miho 岡咲美保 kiddly japanese pop jpop j-pop sorairokarasu Tachibana Gekka Kobayakawa Sae [Hatsune Miku]
BeatmapID:3394398
BeatmapSetID:1662787

[Difficulty]
HPDrainRate:6
CircleSize:4.4
OverallDifficulty:8
ApproachRate:9.2
SliderMultiplier:1.92
SliderTickRate:1

[Events]
//Background and Video events
0,0,"bg.jpg",0,0
//Break Periods
2,132630,137134
2,169553,179332
//Storyboard Layer 0 (Background)
//Storyboard Layer 1 (Fail)
//Storyboard Layer 2 (Pass)
//Storyboard Layer 3 (Foreground)
//Storyboard Layer 4 (Overlay)
//Storyboard Sound Samples

[TimingPoints]
562,329.67032967033,4,2,1,65,1,0
562,-200,4,2,1,65,0,0
5259,-200,4,2,1,15,0,0
5342,-200,4,2,1,65,0,0
5836,-100,4,2,1,65,0,0
16386,-125,4,2,1,55,0,0
37485,-166.666666666667,4,2,1,55,0,0
47540,-166.666666666667,4,2,1,45,0,0
48034,-100,4,2,1,65,0,0
55781,-100,4,2,1,45,0,0
55946,-100,4,2,1,65,0,0
57924,-100,4,2,1,55,0,0
58583,-83.3333333333333,4,2,1,65,0,1
63199,-66.6666666666667,4,2,1,65,0,1
63858,-83.3333333333333,4,2,1,65,0,1
68474,-83.3333333333333,4,2,1,40,0,1
68803,-83.3333333333333,4,2,1,52,0,1
79023,-83.3333333333333,4,2,1,45,0,1
79682,-100,4,2,1,65,0,0
89078,-100,4,2,1,50,0,0
90232,-125,4,2,1,55,0,0
97320,-125,4,2,1,45,0,0
99463,-125,4,2,1,55,0,0
100040,-125,4,2,1,45,0,0
100781,-125,4,2,1,55,0,0
109518,-125,4,2,1,45,0,0
109847,-125,4,2,1,55,0,0
111331,-166.666666666667,4,2,1,55,0,0
120891,-125,4,2,1,55,0,0
121551,-100,4,2,1,65,0,0
130122,-100,4,2,1,40,0,0
130287,-100,4,2,1,47,0,0
130452,-100,4,2,1,52,0,0
130781,-100,4,2,1,57,0,0
131111,-100,4,2,1,65,0,0
145946,-100,4,2,1,40,0,0
146111,-100,4,2,1,45,0,0
146276,-100,4,2,1,50,0,0
146441,-100,4,2,1,55,0,0
146605,-100,4,2,1,60,0,0
146770,-100,4,2,1,65,0,0
148254,-125,4,2,1,65,0,0
158309,-125,4,2,1,45,0,0
158803,-100,4,2,1,65,0,0
179902,-333.333333333333,4,2,1,65,0,0
184682,-125,4,2,1,55,0,0
185177,-100,4,2,1,40,0,0
185507,-100,4,2,1,47,0,0
185836,-100,4,2,1,55,0,0
187155,-100,4,2,1,45,0,0
187814,-83.3333333333333,4,2,1,65,0,1
192430,-66.6666666666667,4,2,1,65,0,1
193089,-83.3333333333333,4,2,1,65,0,1
198364,-83.3333333333333,4,2,1,45,0,1
201001,-83.3333333333333,4,2,1,55,0,1
202320,-66.6666666666667,4,2,1,65,0,1
203144,-83.3333333333333,4,2,1,65,0,1
206605,-83.3333333333333,4,2,1,40,0,1
206770,-83.3333333333333,4,2,1,45,0,1
206935,-83.3333333333333,4,2,1,50,0,1
207100,-83.3333333333333,4,2,1,55,0,1
207759,-83.3333333333333,4,2,1,65,0,1
208913,-100,4,2,1,65,0,0
218309,-100,4,2,1,55,0,0
219396,-100,4,2,1,15,0,0

[Colours]
Combo1 : 255,198,57
Combo2 : 0,128,192
Combo3 : 80,208,208
Combo4 : 239,65,54
Combo5 : 190,30,62
Combo6 : 102,50,102
Combo7 : 121,103,195
Combo8 : 235,235,235

[HitObjects]
212,269,562,22,0,L|307:258,1,96
105,208,1056,2,0,B|58:192|58:192|-6:201,1,96,2|0,0:0|0:0,0:0:0:0:
114,136,1715,22,0,L|209:125,1,96,2|0,0:0|0:0,0:0:0:0:
454,321,2375,2,0,B|407:344|407:344|352:329,1,96,2|0,0:0|0:0,0:0:0:0:
327,271,2869,1,0,0:0:0:0:
327,271,3199,22,0,L|306:168,1,96
353,107,3693,1,2,0:0:0:0:
267,339,4023,1,0,0:0:0:0:
185,353,4353,22,0,B|142:332|142:332|80:341,1,96,2|0,0:0|0:0,0:0:0:0:
188,184,5012,2,0,P|225:166|259:167,1,72,2|0,0:0|0:0,0:0:0:0:
308,115,5342,1,0,0:0:0:0:
238,238,5507,21,0,1:0:0:0:
138,77,5671,1,0,1:0:0:0:
97,279,5836,22,0,L|2:292,1,96,4|0,3:2|0:0,0:0:0:0:
38,206,6166,1,0,1:0:0:0:
211,339,6331,1,2,0:0:0:0:
317,269,6496,1,0,3:0:0:0:
335,261,6578,1,0,0:0:0:0:
355,259,6660,1,0,0:0:0:0:
253,222,6825,21,0,1:0:0:0:
429,299,6990,2,0,B|469:243|469:243|426:119,1,192,0|0,3:0|3:0,0:0:0:0:
297,98,7485,1,0,1:0:0:0:
369,72,7649,1,2,0:0:0:0:
354,148,7814,1,0,3:0:0:0:
310,25,7979,21,0,3:0:0:0:
448,178,8144,1,0,1:0:0:0:
300,342,8309,1,0,0:0:0:0:
131,220,8474,22,0,P|167:192|229:200,1,96,0|0,3:0|0:0,0:0:0:0:
300,342,8803,2,0,L|194:328,1,96,0|2,1:0|0:0,0:0:0:0:
82,308,9133,1,0,3:0:0:0:
75,294,9215,1,0,0:0:0:0:
68,280,9298,1,0,0:0:0:0:
30,206,9463,1,0,1:0:0:0:
81,68,9627,2,0,B|142:57|142:57|210:80|210:80|289:69,1,192,0|0,3:0|3:0,0:0:0:0:
306,257,10122,21,0,1:0:0:0:
302,246,10287,1,2,0:0:0:0:
267,71,10452,21,0,3:0:0:0:
320,137,10616,1,0,3:0:0:0:
234,212,10781,1,0,1:0:0:0:
373,288,10946,1,0,0:0:0:0:
171,356,11111,22,0,L|57:346,1,96,0|0,3:0|0:0,0:0:0:0:
234,212,11441,2,0,P|258:265|222:325,1,96,0|2,1:0|0:0,0:0:0:0:
76,279,11770,1,0,3:0:0:0:
59,263,11852,1,0,2:0:0:0:
43,247,11935,1,0,3:0:0:0:
156,248,12100,1,0,1:0:0:0:
234,212,12265,2,0,B|270:193|270:193|325:209|351:274|297:324,1,192,0|0,3:0|3:0,0:0:0:0:
156,248,12759,21,0,1:0:0:0:
90,190,12924,1,2,0:0:0:0:
109,105,13089,1,0,3:0:0:0:
173,163,13253,21,0,3:0:0:0:
136,333,13419,1,0,1:0:0:0:
10,210,13583,1,0,0:0:0:0:
225,291,13748,22,0,L|335:275,1,96,0|0,3:0|0:0,0:0:0:0:
398,319,14078,1,0,1:0:0:0:
404,108,14243,2,0,P|434:160|417:207,1,96,0|0,0:0|3:0,0:0:0:0:
320,277,14572,21,0,3:0:0:0:
267,357,14737,1,0,1:0:0:0:
90,257,14902,2,0,P|85:210|112:172,1,96,4|0,3:2|0:0,0:0:0:0:
159,233,15232,21,0,3:0:0:0:
240,212,15397,1,0,1:0:0:0:
182,304,15562,21,0,0:0:0:0:
211,141,15726,1,0,1:0:0:0:
286,338,15891,21,0,0:0:0:0:
72,89,16056,1,8,3:0:0:0:
109,84,16138,1,0,3:0:0:0:
147,79,16221,1,0,3:0:0:0:
184,74,16303,1,0,3:0:0:0:
222,69,16386,54,0,P|270:141|240:208,1,153.6,4|0,3:2|1:0,0:0:0:0:
174,248,16880,1,0,0:0:0:0:
93,213,17045,1,0,0:0:0:0:
7,231,17210,1,0,3:0:0:0:
62,66,17375,2,0,P|99:52|150:57,1,76.8,0|0,1:0|3:0,0:0:0:0:
114,149,17704,101,0,3:0:0:0:
114,149,18034,2,0,B|145:140|145:140|168:149|168:149|246:144,1,115.2,0|0,1:0|0:0,0:0:0:0:
247,132,18364,2,0,L|338:142,1,76.8,0|0,3:0|3:0,0:0:0:0:
411,184,18693,2,0,L|510:178,1,76.8,0|0,1:0|0:0,0:0:0:0:
353,26,19023,6,0,P|299:73|330:145,1,153.6,0|0,3:0|1:0,0:0:0:0:
411,184,19518,1,0,0:0:0:0:
479,121,19682,1,0,3:0:0:0:
391,93,19847,1,0,3:0:0:0:
437,281,20012,102,0,L|356:274,1,76.8,0|0,1:0|3:0,0:0:0:0:
267,308,20342,1,0,3:0:0:0:
267,308,20671,6,0,P|247:274|256:238,1,76.8,0|0,1:0|0:0,0:0:0:0:
320,185,20919,1,0,3:0:0:0:
320,185,21001,2,0,L|401:180,1,76.8,0|0,3:0|0:0,0:0:0:0:
466,86,21331,2,0,B|426:74|426:74|385:79,1,76.8,0|0,1:0|0:0,0:0:0:0:
363,275,21660,102,0,B|314:269|314:269|275:289|275:289|214:282,1,153.6,0|0,3:0|1:0,0:0:0:0:
126,325,22155,1,0,0:0:0:0:
37,283,22320,2,0,P|29:244|51:210,1,76.8,0|0,0:0|3:0,0:0:0:0:
173,90,22649,5,0,1:0:0:0:
173,90,22814,2,0,P|200:115|203:153,1,76.8,0|0,3:0|0:0,0:0:0:0:
126,325,23144,101,0,3:0:0:0:
218,309,23309,1,0,1:0:0:0:
309,295,23474,1,2,0:0:0:0:
325,300,23556,1,0,0:0:0:0:
341,305,23638,1,0,3:0:0:0:
429,332,23803,1,0,3:0:0:0:
509,286,23968,2,0,P|517:247|495:213,1,76.8,0|0,1:0|0:0,0:0:0:0:
420,170,24298,6,0,L|259:185,1,153.6,0|0,3:0|1:0,0:0:0:0:
186,135,24792,1,2,0:0:0:0:
186,135,25122,101,0,3:0:0:0:
121,86,25287,2,0,P|117:45|140:16,1,76.8,0|0,1:0|3:0,0:0:0:0:
112,167,25616,1,0,0:0:0:0:
186,135,25781,1,0,3:0:0:0:
257,177,25946,2,0,L|383:158,1,115.2,0|0,1:0|0:0,0:0:0:0:
449,147,26276,1,0,3:0:0:0:
418,356,26441,5,0,1:0:0:0:
409,353,26605,1,0,1:0:0:0:
401,350,26770,1,0,1:0:0:0:
302,309,26935,22,0,B|284:275|284:275|298:237,2,76.8,0|0|0,3:0|0:0|1:0,0:0:0:0:
511,258,27430,2,0,L|353:270,1,153.6,2|0,0:0|3:0,0:0:0:0:
249,189,27924,102,0,B|267:155|267:155|253:117,2,76.8,0|0|0,1:0|3:0|0:0,0:0:0:0:
40,138,28419,2,0,L|198:150,1,153.6,2|0,3:2|0:0,0:0:0:0:
76,220,28913,6,0,L|-5:214,1,76.8,0|0,0:0|3:0,0:0:0:0:
181,71,29243,2,0,L|257:76,1,76.8,0|0,1:0|0:0,0:0:0:0:
345,52,29572,101,0,3:0:0:0:
319,138,29737,1,0,0:0:0:0:
289,226,29902,1,0,1:0:0:0:
256,314,30067,2,0,B|309:309|309:309|352:332|352:332|414:327,1,153.6,2|0,0:0|3:0,0:0:0:0:
438,184,30562,5,0,1:0:0:0:
363,170,30726,1,0,3:0:0:0:
249,228,30891,1,0,0:0:0:0:
174,214,31056,2,0,B|139:207|139:207|101:229|96:281|136:304,1,153.6,2|0,3:2|0:0,0:0:0:0:
197,340,31551,101,0,3:0:0:0:
249,228,31715,1,0,3:0:0:0:
172,127,31880,2,0,B|144:114|144:114|97:121,1,76.8,0|0,1:0|0:0,0:0:0:0:
197,340,32210,6,0,B|225:353|225:353|272:346,1,76.8,0|0,3:0|0:0,0:0:0:0:
350,328,32540,1,0,1:0:0:0:
430,313,32704,1,2,0:0:0:0:
430,313,33034,101,0,3:0:0:0:
464,155,33199,2,0,P|463:113|436:81,1,76.8,0|0,1:0|3:0,0:0:0:0:
392,138,33529,1,0,0:0:0:0:
412,208,33693,2,0,B|359:203|359:203|316:226|316:226|254:221,1,153.6,2|0,3:2|0:0,0:0:0:0:
225,163,34189,5,0,3:0:0:0:
292,291,34353,1,0,3:0:0:0:
167,365,34518,2,0,L|83:353,1,76.8,0|0,1:0|0:0,0:0:0:0:
33,207,34847,102,0,P|82:157|171:195,1,153.6,4|0,3:2|1:0,0:0:0:0:
318,111,35342,6,0,P|300:178|204:190,1,153.6,0|0,3:0|3:0,0:0:0:0:
201,369,35836,1,0,1:0:0:0:
201,369,36001,102,0,P|151:319|189:230,1,153.6,4|0,3:2|3:0,0:0:0:0:
224,83,36496,2,0,L|237:189,1,76.8,0|0,1:0|3:0,0:0:0:0:
321,295,36825,2,0,L|336:199,1,76.8,0|8,1:0|3:0,0:0:0:0:
443,42,37155,1,4,3:0:0:0:
445,51,37320,1,4,3:0:0:0:
485,164,37485,38,0,P|418:155|374:173,1,115.199996484375,4|0,3:2|0:0,0:0:0:0:
342,306,37979,1,0,1:0:0:0:
342,306,38309,101,0,3:0:0:0:
289,253,38474,2,0,P|278:224|289:178,1,57.5999982421876,0|0,1:0|0:0,0:0:0:0:
414,269,38803,5,0,3:0:0:0:
342,306,38968,2,0,P|276:291|205:300,2,115.199996484375,0|0|0,3:0|1:0|3:0,0:0:0:0:
155,317,39792,102,0,P|119:319|93:309,1,57.5999982421876,0|0,1:0|0:0,0:0:0:0:
58,196,40122,2,0,L|185:184,1,115.199996484375,0|0,3:0|0:0,0:0:0:0:
272,120,40616,1,0,1:0:0:0:
272,120,40946,5,0,3:0:0:0:
315,184,41111,2,0,P|319:220|301:250,1,57.5999982421876,0|0,1:0|0:0,0:0:0:0:
129,130,41441,1,0,3:0:0:0:
121,123,41605,2,0,P|124:58|169:17,2,115.199996484375,0|0|0,3:0|1:0|3:0,0:0:0:0:
315,184,42430,2,0,P|319:220|301:250,1,57.5999982421876,0|0,1:0|0:0,0:0:0:0:
305,249,42677,1,0,0:0:0:0:
297,255,42759,1,4,3:2:0:0:
244,205,42924,102,0,L|129:217,1,115.199996484375,0|0,3:0|1:0,0:0:0:0:
283,138,43419,2,0,P|305:156|315:183,1,57.5999982421876,0|0,0:0|3:0,0:0:0:0:
259,341,43748,5,0,1:0:0:0:
252,347,43913,2,0,P|221:308|236:230,1,115.199996484375,0|0,0:0|3:0,0:0:0:0:
297,194,44408,102,0,L|373:212,1,57.5999982421876,2|0,0:0|1:0,0:0:0:0:
268,114,44737,2,0,L|214:170,1,57.5999982421876,0|0,0:0|3:0,0:0:0:0:
349,132,45067,2,0,L|326:57,1,57.5999982421876,2|0,1:2|0:0,0:0:0:0:
297,194,45397,1,0,3:0:0:0:
243,250,45562,2,0,P|193:221|119:241,1,115.199996484375,0|0,3:0|1:0,0:0:0:0:
76,283,46056,2,0,L|81:342,1,57.5999982421876,2|0,0:0|0:0,0:0:0:0:
147,384,46386,1,0,1:0:0:0:
138,228,46551,6,0,B|131:103,1,115.199996484375,4|0,3:2|3:0,0:0:0:0:
204,290,47045,2,0,P|236:298|271:289,1,57.5999982421876,0|0,1:0|0:0,0:0:0:0:
334,260,47375,1,0,1:0:0:0:
390,204,47540,1,0,1:0:0:0:
399,180,47622,1,0,1:0:0:0:
398,154,47704,1,0,1:0:0:0:
393,128,47787,1,0,1:0:0:0:
379,106,47869,1,0,1:0:0:0:
358,90,47952,1,0,1:0:0:0:
318,73,48034,22,0,L|184:88,1,96,4|0,3:2|0:0,0:0:0:0:
211,244,48364,2,0,P|204:303|225:333,1,96,0|2,1:0|0:0,0:0:0:0:
279,278,48693,1,0,3:0:0:0:
129,198,48858,1,0,3:0:0:0:
193,40,49023,2,0,L|288:29,2,96,0|0|0,1:0|0:0|3:0,0:0:0:0:
50,210,49518,101,0,0:0:0:0:
129,198,49683,1,0,1:0:0:0:
359,221,49847,1,2,3:2:0:0:
271,234,50012,1,0,0:0:0:0:
140,300,50177,5,0,3:0:0:0:
270,129,50342,2,0,P|273:84|234:42,1,96,0|0,1:0|0:0,0:0:0:0:
12,110,50671,102,0,B|80:119|80:119|134:98|134:98|207:107,1,192,0|0,3:0|1:0,0:0:0:0:
235,247,51166,1,0,0:0:0:0:
317,186,51331,1,0,3:0:0:0:
320,156,51413,1,2,0:0:0:0:
303,127,51496,1,0,3:0:0:0:
134,217,51660,2,0,B|104:207|104:207|35:222,2,96,0|0|0,1:0|0:0|3:0,0:0:0:0:
156,318,52155,5,0,3:0:0:0:
234,246,52320,1,0,1:0:0:0:
211,143,52485,1,2,3:2:0:0:
156,318,52649,21,0,0:0:0:0:
335,278,52814,1,0,3:0:0:0:
211,143,52979,2,0,P|190:98|219:42,1,96,0|0,1:0|0:0,0:0:0:0:
454,109,53309,22,0,L|259:95,1,192,4|0,3:2|1:0,0:0:0:0:
475,266,53803,2,0,B|498:233|498:233|489:173,1,96,2|0,0:0|3:0,0:0:0:0:
414,35,54133,1,0,3:0:0:0:
331,176,54298,1,0,1:0:0:0:
262,95,54463,22,0,P|228:191|275:262,1,192,4|0,3:2|3:0,0:0:0:0:
361,299,54957,2,0,L|472:291,1,96,0|2,1:0|0:0,0:0:0:0:
158,332,55287,2,0,L|40:325,1,96,0|0,3:0|3:0,0:0:0:0:
269,365,55616,1,0,1:0:0:0:
253,265,55781,1,0,1:0:0:0:
244,237,55864,1,0,1:0:0:0:
247,210,55946,21,0,3:0:0:0:
300,149,56111,1,0,0:0:0:0:
158,168,56276,21,0,1:0:0:0:
382,213,56441,1,0,0:0:0:0:
72,206,56605,21,8,3:0:0:0:
51,164,56688,1,8,3:0:0:0:
58,119,56770,1,8,3:0:0:0:
93,89,56853,1,8,3:0:0:0:
138,84,56935,1,0,3:0:0:0:
283,114,57100,1,0,1:0:0:0:
422,148,57924,86,0,L|413:212,1,48,0|0,1:0|0:0,0:0:0:0:
465,279,58089,21,0,1:0:0:0:
429,265,58171,1,0,1:0:0:0:
390,263,58254,1,0,1:0:0:0:
352,270,58336,1,0,1:0:0:0:
318,289,58419,1,0,1:0:0:0:
280,296,58501,1,0,1:0:0:0:
242,289,58583,22,0,P|216:247|236:187,1,115.199996484375,4|0,3:1|3:0,0:0:0:0:
493,134,58913,2,0,L|363:124,1,115.199996484375,0|2,1:0|0:0,0:0:0:0:
359,109,59160,1,0,0:0:0:0:
342,91,59243,1,0,3:0:0:0:
269,205,59408,1,0,3:0:0:0:
221,283,59572,1,0,1:0:0:0:
177,200,59737,22,0,B|241:191|241:191|299:220|299:220|414:203,1,230.39999296875,0|0,3:3|3:0,0:0:0:0:
503,188,60232,1,0,1:0:0:0:
463,286,60397,1,2,0:0:0:0:
443,290,60479,1,0,0:0:0:0:
423,294,60562,1,0,3:0:0:0:
212,194,60726,21,0,3:0:0:0:
281,134,60891,1,0,1:0:0:0:
298,225,61056,1,2,0:0:0:0:
195,105,61221,22,0,B|152:92|152:92|69:107,1,115.199996484375,0|0,3:0|0:0,0:0:0:0:
17,315,61551,2,0,B|60:328|60:328|143:313,1,115.199996484375,0|2,1:0|0:0,0:0:0:0:
200,300,61798,1,0,0:0:0:0:
218,297,61880,1,0,3:0:0:0:
276,230,62045,21,0,0:0:0:0:
391,362,62210,1,0,1:0:0:0:
452,299,62375,2,0,B|491:276|491:276|512:214|471:140|397:149,1,230.39999296875,0|0,3:0|3:0,0:0:0:0:
297,282,62869,21,0,1:0:0:0:
207,190,63034,1,2,0:0:0:0:
194,180,63116,1,0,0:0:0:0:
182,169,63199,2,0,L|207:24,1,144.000005493164,6|0,0:0|0:0,0:0:0:0:
113,118,63529,22,0,L|88:259,1,144.000005493164,6|0,0:0|0:0,0:0:0:0:
192,354,63858,1,0,3:0:0:0:
328,254,64188,22,0,B|366:237|366:237|467:254,1,115.199996484375,0|2,1:0|0:0,0:0:0:0:
454,244,64435,1,0,0:0:0:0:
470,238,64518,1,0,3:0:0:0:
416,169,64682,1,0,3:0:0:0:
376,315,64847,1,0,1:0:0:0:
269,210,65012,2,0,B|204:201|204:201|144:227|144:227|12:206,1,230.39999296875,0|0,3:0|3:0,0:0:0:0:
190,377,65507,102,0,P|222:338|192:251,1,115.199996484375,0|2,1:0|0:0,0:0:0:0:
180,153,65836,1,0,3:0:0:0:
105,182,66001,1,0,3:0:0:0:
30,211,66166,1,0,1:0:0:0:
30,211,66496,6,0,B|166:170|134:280|274:225,1,230.39999296875,4|0,3:2|1:0,0:0:0:0:
330,215,66990,1,2,0:0:0:0:
358,206,67072,1,0,0:0:0:0:
386,198,67155,1,0,3:0:0:0:
467,175,67320,1,0,3:0:0:0:
386,198,67485,1,0,1:0:0:0:
250,233,67649,102,0,P|174:151|238:37,1,230.39999296875,4|0,3:2|3:0,0:0:0:0:
445,199,68144,2,0,L|323:189,1,115.199996484375,0|2,1:0|0:0,0:0:0:0:
162,147,68474,101,0,1:0:0:0:
148,103,68556,1,0,1:0:0:0:
158,57,68638,1,0,1:0:0:0:
196,29,68721,1,0,1:0:0:0:
242,25,68803,21,0,1:0:0:0:
247,33,68886,1,0,1:0:0:0:
253,43,68968,1,0,1:0:0:0:
258,53,69051,1,0,1:0:0:0:
263,63,69133,22,0,L|402:47,1,115.199996484375,4|0,3:1|0:0,0:0:0:0:
469,160,69463,2,0,P|499:211|478:275,1,115.199996484375,0|2,1:0|0:0,0:0:0:0:
478,277,69710,1,0,0:0:0:0:
467,288,69792,1,0,3:0:0:0:
377,266,69957,1,0,3:0:0:0:
287,245,70122,1,0,1:0:0:0:
198,266,70287,2,0,B|159:243|159:243|138:181|179:107|253:116,1,230.39999296875,0|0,3:0|3:0,0:0:0:0:
346,155,70781,22,0,L|481:144,1,115.199996484375,0|2,1:0|0:0,0:0:0:0:
397,280,71111,2,0,L|253:257,1,115.199996484375,0|0,3:0|3:0,0:0:0:0:
209,249,71358,1,0,0:0:0:0:
198,266,71441,1,0,1:0:0:0:
149,328,71605,1,0,0:0:0:0:
121,255,71770,22,0,P|97:196|128:149,1,115.199996484375,0|0,3:0|0:0,0:0:0:0:
319,124,72100,2,0,L|189:114,1,115.199996484375,0|2,1:0|0:0,0:0:0:0:
196,103,72347,1,0,0:0:0:0:
188,91,72430,1,0,3:0:0:0:
257,190,72594,1,0,3:0:0:0:
366,64,72759,1,0,1:0:0:0:
396,330,72924,22,0,B|419:259|419:259|404:204|404:204|438:95,1,230.39999296875,4|0,3:2|3:0,0:0:0:0:
366,64,73419,2,0,L|241:56,1,115.199996484375,0|2,1:0|0:0,0:0:0:0:
205,124,73666,1,0,0:0:0:0:
205,124,73748,21,0,3:0:0:0:
100,282,73913,1,0,3:0:0:0:
201,251,74078,21,0,1:0:0:0:
103,156,74243,1,0,1:0:0:0:
178,334,74408,6,0,P|222:358|312:348,1,115.199996484375,4|0,3:2|0:0,0:0:0:0:
406,109,74737,2,0,P|355:86|286:91,1,115.199996484375,0|0,1:0|0:0,0:0:0:0:
373,272,75067,1,0,3:0:0:0:
381,282,75232,1,0,3:0:0:0:
388,292,75397,1,0,1:0:0:0:
395,301,75562,6,0,P|441:224|334:246,1,230.39999296875,0|0,3:0|3:0,0:0:0:0:
311,300,76056,2,0,L|177:287,1,115.199996484375,0|2,1:0|0:0,0:0:0:0:
184,298,76303,1,0,0:0:0:0:
172,306,76386,1,0,3:0:0:0:
112,235,76551,1,0,3:0:0:0:
153,153,76715,1,0,1:0:0:0:
112,235,77045,102,0,P|66:164|152:64,1,230.39999296875,4|0,3:2|1:0,0:0:0:0:
232,94,77540,1,2,0:0:0:0:
265,91,77622,1,0,0:0:0:0:
298,87,77704,1,0,3:0:0:0:
407,46,77869,1,0,3:0:0:0:
468,144,78034,1,0,1:0:0:0:
377,217,78199,6,0,B|312:208|312:208|252:234|252:234|120:213,1,230.39999296875,4|0,3:2|3:0,0:0:0:0:
319,384,78693,2,0,P|341:312|298:261,1,115.199996484375,0|2,1:0|0:0,0:0:0:0:
222,162,79023,21,8,3:3:0:0:
213,156,79105,1,0,3:0:0:0:
203,153,79188,1,0,3:0:0:0:
194,151,79270,1,0,1:0:0:0:
175,129,79353,21,0,1:3:0:0:
164,173,79435,1,0,3:0:0:0:
153,218,79518,1,0,3:0:0:0:
143,262,79600,1,0,3:0:0:0:
134,306,79682,22,0,P|89:282|31:291,1,96,4|0,3:2|0:0,0:0:0:0:
74,356,80012,1,0,1:0:0:0:
12,214,80177,1,0,0:0:0:0:
93,80,80342,1,2,3:2:0:0:
115,73,80424,1,0,0:0:0:0:
137,66,80507,2,0,B|157:99|157:99|145:178,1,96,0|0,3:0|1:0,0:0:0:0:
134,305,80836,22,0,B|200:296|200:296|237:312|237:312|333:300,1,192,0|0,3:0|3:0,0:0:0:0:
352,225,81331,1,0,1:0:0:0:
379,149,81496,1,2,0:0:0:0:
432,210,81660,21,0,0:0:0:0:
302,164,81825,1,0,3:0:0:0:
321,301,81990,21,0,1:0:0:0:
403,77,82155,1,2,0:0:0:0:
512,294,82320,22,0,L|409:283,1,96,0|0,3:0|0:0,0:0:0:0:
280,85,82649,1,0,1:0:0:0:
175,208,82814,2,0,L|299:196,1,96,0|0,0:0|3:0,0:0:0:0:
343,194,83062,1,0,0:0:0:0:
359,193,83144,1,0,3:0:0:0:
416,283,83309,1,0,1:0:0:0:
229,356,83474,22,0,P|174:282|215:187,1,192,0|0,3:0|3:0,0:0:0:0:
293,187,83968,1,0,1:0:0:0:
350,250,84133,1,2,0:0:0:0:
266,268,84298,21,0,3:0:0:0:
320,106,84463,1,0,3:0:0:0:
434,232,84627,1,0,1:0:0:0:
187,284,84792,2,0,L|128:274,1,48,2|0,0:0|0:0,0:0:0:0:
76,316,84957,22,0,P|63:275|88:224,1,96,4|0,3:2|3:0,0:0:0:0:
222,197,85287,2,0,L|318:187,1,96,0|0,1:0|0:0,0:0:0:0:
397,293,85616,1,0,3:0:0:0:
378,291,85699,1,0,0:0:0:0:
359,290,85781,1,0,3:0:0:0:
498,184,85946,1,0,1:0:0:0:
443,47,86111,22,0,B|377:38|377:38|340:54|340:54|244:42,1,192,0|0,3:0|3:0,0:0:0:0:
178,88,86605,21,0,1:0:0:0:
179,159,86770,1,2,0:0:0:0:
457,241,86935,21,0,3:0:0:0:
456,170,87100,1,0,3:0:0:0:
311,246,87265,21,0,1:0:0:0:
323,315,87430,1,2,0:0:0:0:
335,384,87594,22,0,B|295:365|295:365|216:374,2,96,4|0|0,3:2|0:0|1:0,0:0:0:0:
406,216,88089,2,0,L|519:226,1,96,2|0,0:0|3:0,0:0:0:0:
182,282,88419,1,0,1:0:0:0:
196,202,88583,1,0,1:0:0:0:
130,149,88748,2,0,L|9:161,1,96,4|0,1:2|3:0,0:0:0:0:
89,73,89078,21,0,1:0:0:0:
92,58,89160,1,0,1:0:0:0:
95,43,89243,2,0,P|139:23|208:31,1,96,0|0,1:0|1:0,0:0:0:0:
249,59,89490,1,0,1:0:0:0:
289,121,89572,2,0,L|277:226,1,96,0|0,1:0|1:0,0:0:0:0:
276,289,89820,21,0,1:0:0:0:
246,282,89902,1,0,3:0:0:0:
217,283,89985,1,0,3:0:0:0:
189,291,90067,1,0,3:0:0:0:
164,306,90149,1,0,3:0:0:0:
143,327,90232,22,0,B|201:334|201:334|224:357|224:357|316:366,1,153.6,4|0,3:2|1:0,0:0:0:0:
385,348,90726,1,0,0:0:0:0:
464,303,90891,2,0,P|476:261|454:217,1,76.8,0|0,3:0|0:0,0:0:0:0:
340,71,91221,1,0,1:0:0:0:
343,79,91386,1,2,0:0:0:0:
382,197,91551,1,0,3:0:0:0:
382,197,91880,102,0,L|280:192,1,76.8,0|2,1:0|0:0,0:0:0:0:
248,236,92127,1,0,3:0:0:0:
239,221,92210,2,0,P|197:208|143:218,1,76.8,0|0,3:0|0:0,0:0:0:0:
115,273,92540,1,0,1:0:0:0:
218,142,92704,1,0,0:0:0:0:
74,34,92869,6,0,P|28:83|49:177,1,153.6,0|0,3:0|1:0,0:0:0:0:
136,215,93364,1,2,0:0:0:0:
218,142,93529,2,0,P|253:125|314:130,1,76.8,0|0,3:0|0:0,0:0:0:0:
406,245,93858,1,0,1:0:0:0:
383,327,94023,1,0,0:0:0:0:
466,306,94188,102,0,L|305:293,1,153.6,0|0,3:0|1:0,0:0:0:0:
241,223,94682,1,2,0:0:0:0:
223,207,94765,1,0,3:0:0:0:
214,185,94847,1,4,3:0:0:0:
213,162,94930,1,0,0:0:0:0:
222,141,95012,1,0,3:0:0:0:
302,77,95177,2,0,L|382:84,1,76.8,0|0,1:0|0:0,0:0:0:0:
321,227,95507,6,0,B|271:218|271:218|230:233|230:233|148:226,1,153.6,0|0,3:0|1:0,0:0:0:0:
178,347,96001,1,2,0:0:0:0:
98,281,96166,2,0,P|80:237|95:196,1,76.8,0|0,3:0|0:0,0:0:0:0:
199,36,96496,102,0,L|187:118,1,76.8,0|0,1:0|0:0,0:0:0:0:
228,188,96743,1,0,3:0:0:0:
228,188,96825,2,0,P|255:156|256:112,1,76.8,0|0,3:0|0:0,0:0:0:0:
112,100,97155,1,0,1:0:0:0:
132,244,97320,5,0,1:0:0:0:
132,244,97402,1,0,1:0:0:0:
132,244,97485,1,0,3:0:0:0:
245,295,97649,101,0,1:0:0:0:
275,298,97732,1,0,1:0:0:0:
305,294,97814,1,0,3:0:0:0:
333,282,97897,1,0,3:0:0:0:
356,262,97979,1,0,3:0:0:0:
373,236,98062,1,0,3:0:0:0:
376,205,98144,1,4,1:2:0:0:
283,41,99627,5,0,3:0:0:0:
376,122,99792,1,0,1:0:0:0:
283,41,99957,1,0,3:0:0:0:
247,195,100122,1,0,1:0:0:0:
249,202,100204,1,0,1:0:0:0:
251,209,100287,1,0,3:0:0:0:
252,216,100369,1,0,3:0:0:0:
255,222,100452,2,0,P|195:205|112:215,1,115.2,0|0,1:0|0:0,0:0:0:0:
83,243,100781,22,0,P|39:242|-7:250,1,76.8,4|0,3:2|0:0,0:0:0:0:
78,146,101111,1,0,1:0:0:0:
140,66,101276,2,0,P|207:45|234:109,1,153.6,2|0,0:0|3:0,0:0:0:0:
222,222,101770,102,0,L|234:317,1,76.8,0|0,1:0|3:0,0:0:0:0:
313,359,102100,1,0,0:0:0:0:
467,195,102265,2,0,P|386:155|306:167,1,153.6,2|0,3:2|3:0,0:0:0:0:
313,359,102759,6,0,L|303:282,1,76.8,0|0,0:0|3:0,0:0:0:0:
247,178,103089,2,0,L|262:71,1,76.8,0|0,1:0|0:0,0:0:0:0:
436,218,103419,101,0,3:0:0:0:
336,206,103583,1,0,0:0:0:0:
215,267,103748,1,0,1:0:0:0:
115,255,103913,2,0,B|81:240|81:240|62:205|72:148|132:148,1,153.6,2|0,0:0|3:0,0:0:0:0:
246,154,104408,5,0,1:0:0:0:
215,267,104572,1,0,3:0:0:0:
251,163,104737,101,0,0:0:0:0:
282,50,104902,2,0,B|331:44|331:44|370:64|370:64|431:57,1,153.6,2|0,3:2|3:0,0:0:0:0:
479,125,105397,2,0,B|492:156|492:156|479:217,1,76.8,0|2,3:3|3:2,0:0:0:0:
354,342,105726,2,0,B|341:311|341:311|354:250,1,76.8,0|2,1:0|0:2,0:0:0:0:
251,29,106056,6,0,L|261:121,1,76.8,0|0,3:0|0:0,0:0:0:0:
274,244,106386,1,0,1:0:0:0:
174,342,106551,1,2,0:0:0:0:
174,342,106880,101,0,3:0:0:0:
43,274,107045,2,0,P|28:237|52:193,1,76.8,0|0,1:0|3:0,0:0:0:0:
125,125,107375,1,0,0:0:0:0:
108,237,107540,2,0,L|262:223,1,153.6,2|0,3:2|0:0,0:0:0:0:
359,245,108034,1,0,3:0:0:0:
476,280,108199,1,0,3:0:0:0:
386,364,108364,1,0,1:0:0:0:
443,196,108529,5,2,0:0:0:0:
456,191,108611,1,0,1:0:0:0:
470,186,108693,2,0,P|491:128|425:61,1,153.6,4|0,3:2|1:0,0:0:0:0:
283,21,109188,2,0,L|274:108,1,76.8,2|0,0:0|3:0,0:0:0:0:
268,215,109518,101,0,1:0:0:0:
273,245,109600,1,0,1:0:0:0:
279,274,109682,1,0,1:0:0:0:
285,304,109765,1,0,1:0:0:0:
290,333,109847,2,0,B|241:327|241:327|202:347|202:347|141:340,1,153.6,4|0,0:2|3:0,0:0:0:0:
37,261,110342,1,0,1:0:0:0:
94,145,110507,5,8,3:0:0:0:
100,134,110589,1,0,3:0:0:0:
106,123,110671,1,8,3:0:0:0:
218,294,110836,1,0,3:0:0:0:
317,191,111001,1,0,3:0:0:0:
403,243,111166,1,0,3:0:0:0:
463,207,111331,22,0,P|481:146|459:83,1,115.199996484375,4|2,3:2|0:0,0:0:0:0:
356,51,111825,1,0,1:0:0:0:
356,51,112155,101,0,3:0:0:0:
280,44,112320,2,0,L|200:37,1,57.5999982421876,0|0,1:0|0:0,0:0:0:0:
72,143,112649,1,0,3:0:0:0:
37,207,112814,2,0,P|90:187|158:200,2,115.199996484375,0|0|2,3:0|1:0|0:0,0:0:0:0:
200,257,113638,1,8,3:0:0:0:
206,272,113803,1,0,3:0:0:0:
270,384,113968,6,0,L|279:253,1,115.199996484375,4|2,3:2|0:0,0:0:0:0:
326,121,114463,2,0,P|373:160|367:221,1,115.199996484375,0|0,1:0|3:0,0:0:0:0:
277,324,114957,2,0,L|285:249,1,57.5999982421876,0|0,1:0|0:0,0:0:0:0:
231,201,115287,1,0,3:0:0:0:
166,145,115452,2,0,P|109:140|57:163,2,115.199996484375,0|0|2,3:0|1:0|3:2,0:0:0:0:
89,340,116276,102,0,B|55:328|55:328|40:288,1,57.5999982421876,0|0,1:0|0:0,0:0:0:0:
47,307,116523,1,0,0:0:0:0:
47,307,116605,1,4,3:2:0:0:
121,251,116770,2,0,L|246:241,1,115.199996484375,0|0,3:0|1:0,0:0:0:0:
367,234,117265,2,0,P|333:218|290:223,1,57.5999982421876,0|0,0:0|3:0,0:0:0:0:
295,289,117594,1,0,1:0:0:0:
240,162,117759,2,0,P|265:114|335:92,1,115.199996484375,0|2,0:0|3:2,0:0:0:0:
439,139,118254,6,0,L|364:130,1,57.5999982421876,2|0,0:0|3:0,0:0:0:0:
292,245,118583,2,0,L|217:236,1,57.5999982421876,0|0,0:0|3:0,0:0:0:0:
152,350,118913,2,0,L|77:341,1,57.5999982421876,0|2,1:0|0:0,0:0:0:0:
94,343,119160,1,0,0:0:0:0:
94,343,119243,1,4,3:2:0:0:
44,283,119408,2,0,B|18:252|18:252|35:166,1,115.199996484375,0|0,3:0|1:0,0:0:0:0:
141,91,119902,2,0,L|152:171,1,57.5999982421876,2|0,0:0|0:0,0:0:0:0:
181,331,120232,101,0,1:0:0:0:
104,288,120397,2,0,B|129:259|129:259|216:247,1,115.199996484375,4|0,0:2|3:0,0:0:0:0:
283,254,120891,6,0,L|273:331,1,76.8,0|0,1:0|3:0,0:0:0:0:
323,193,121221,1,0,1:0:0:0:
343,190,121303,1,0,1:0:0:0:
362,187,121386,1,0,3:0:0:0:
250,189,121551,102,0,L|263:94,1,96,0|0,1:0|0:0,0:0:0:0:
442,28,121880,38,0,B|475:80|475:80|454:213,1,192,4|0,3:2|1:0,0:0:0:0:
345,307,122375,1,2,0:0:0:0:
263,268,122540,2,0,L|281:376,1,96,0|0,3:0|3:0,0:0:0:0:
350,109,122869,2,0,L|368:1,1,96,0|0,1:0|0:0,0:0:0:0:
285,52,123199,1,0,3:0:0:0:
411,161,123364,101,0,3:0:0:0:
402,247,123529,1,0,1:0:0:0:
269,326,123693,5,0,3:0:0:0:
260,240,123858,1,2,0:0:0:0:
173,37,124023,101,0,3:0:0:0:
164,123,124188,2,0,B|47:142,1,96,0|0,1:0|0:0,0:0:0:0:
48,361,124518,6,0,P|25:287|96:211,1,192,0|0,3:0|1:0,0:0:0:0:
119,303,125012,1,2,0:0:0:0:
183,230,125176,1,0,3:0:0:0:
219,234,125259,1,0,0:0:0:0:
258,237,125341,1,0,3:0:0:0:
375,364,125507,2,0,B|390:330|390:330|371:260,2,96,0|0|0,1:0|3:0|0:0,0:0:0:0:
309,314,126001,101,0,3:0:0:0:
258,237,126166,1,0,1:0:0:0:
298,154,126331,1,2,0:0:0:0:
430,227,126496,5,0,3:0:0:0:
258,237,126660,1,0,3:0:0:0:
86,247,126825,85,0,1:0:0:0:
73,226,126908,1,0,1:0:0:0:
69,202,126990,1,0,3:0:0:0:
76,179,127072,1,0,3:3:0:0:
93,161,127155,2,0,B|153:154|153:154|195:175|195:175|287:165,1,192,4|0,3:2|1:0,0:0:0:0:
352,223,127649,1,2,0:0:0:0:
402,374,127814,22,0,B|422:339|422:339|409:267,1,96,0|0,3:0|3:0,0:0:0:0:
352,223,128144,1,0,1:0:0:0:
486,121,128309,2,0,P|468:56|352:30,1,192,0|0,3:0|3:0,0:0:0:0:
262,128,128803,2,0,L|249:232,1,96,0|2,1:0|0:0,0:0:0:0:
234,343,129133,1,0,3:0:0:0:
385,309,129298,1,0,3:0:0:0:
234,343,129463,21,0,1:0:0:0:
196,337,129545,1,0,3:0:0:0:
158,331,129627,1,8,3:0:0:0:
119,325,129710,1,0,3:0:0:0:
80,319,129792,2,0,P|54:266|100:191,1,144,4|0,0:2|0:0,0:0:0:0:
90,195,130122,21,0,1:0:0:0:
229,226,130287,1,0,1:0:0:0:
87,100,130452,1,0,1:0:0:0:
65,107,130534,1,0,0:0:0:0:
44,113,130616,1,0,1:0:0:0:
131,360,130781,2,0,P|108:315|143:248,1,96,0|0,1:0|1:0,0:0:0:0:
274,36,131111,22,0,P|297:81|262:148,1,96,0|0,3:0|3:0,0:0:0:0:
304,223,131358,1,0,3:0:0:0:
304,223,131441,2,0,L|205:203,1,96,0|0,1:0|3:0,0:0:0:0:
120,183,131688,1,0,3:0:0:0:
120,183,131770,21,0,1:0:0:0:
150,258,131935,1,0,3:0:0:0:
242,136,132100,1,4,3:0:0:0:
317,332,132265,1,0,3:0:0:0:
440,104,132430,1,4,1:1:0:0:
61,138,137704,85,4,3:2:0:0:
39,219,137869,1,0,3:0:0:0:
108,263,138034,2,0,L|221:246,1,96,0|2,1:0|0:0,0:0:0:0:
393,228,138364,21,0,3:0:0:0:
455,181,138529,1,0,3:0:0:0:
512,130,138693,2,0,P|462:106|403:124,1,96,0|2,1:0|0:0,0:0:0:0:
354,144,138941,1,0,0:0:0:0:
341,127,139023,22,0,L|362:20,1,96,0|0,3:0|3:0,0:0:0:0:
462,257,139353,2,0,L|443:351,1,96,0|2,1:0|0:0,0:0:0:0:
376,289,139682,1,0,3:0:0:0:
301,293,139847,1,0,3:0:0:0:
181,186,140012,1,0,1:0:0:0:
256,182,140177,1,2,0:0:0:0:
338,90,140342,21,4,3:2:0:0:
227,267,140507,2,0,P|221:312|248:354,1,96,0|0,3:0|1:0,0:0:0:0:
363,204,140836,1,0,1:0:0:0:
350,202,140919,1,0,0:0:0:0:
338,200,141001,1,0,3:0:0:0:
239,127,141166,1,8,3:0:0:0:
196,133,141248,1,0,3:0:0:0:
152,139,141331,1,0,3:0:0:0:
109,145,141413,1,0,3:0:0:0:
65,151,141496,22,0,P|12:211|57:321,1,192,4|0,3:2|3:0,3:0:0:0:
129,348,141990,1,0,1:0:0:0:
155,65,142155,2,0,B|210:57|210:57|260:86|260:86|370:68,1,192,0|0,1:0|1:0,0:0:0:0:
343,65,142567,1,0,1:0:0:0:
348,57,142649,1,0,3:0:0:0:
440,125,142814,1,0,1:0:0:0:
458,164,142897,1,0,1:0:0:0:
476,202,142979,22,0,P|428:182|379:186,1,96,4|0,3:2|3:0,0:0:0:0:
315,276,143309,1,0,1:0:0:0:
279,92,143474,21,2,0:0:0:0:
315,276,143638,1,0,3:0:0:0:
247,245,143803,1,0,3:0:0:0:
80,266,143968,21,0,1:0:0:0:
247,245,144133,1,0,3:0:0:0:
307,201,144298,1,0,0:0:0:0:
472,282,144463,21,0,3:0:0:0:
307,201,144627,1,0,1:0:0:0:
315,276,144792,1,2,0:0:0:0:
179,329,144957,22,0,L|81:319,1,96,0|0,0:0|3:0,0:0:0:0:
408,225,145287,2,0,L|512:214,1,96,0|0,1:0|3:0,0:0:0:0:
340,36,145616,2,0,P|256:69|264:158,1,192,4|0,1:2|1:0,0:0:0:0:
324,244,146111,1,0,1:0:0:0:
314,246,146276,1,0,1:0:0:0:
304,248,146441,1,0,1:0:0:0:
294,250,146605,1,0,1:0:0:0:
193,261,146770,21,0,3:0:0:0:
193,261,146853,1,0,0:0:0:0:
193,261,146935,2,0,L|75:248,1,96,0|4,3:0|1:2,0:0:0:0:
12,83,147265,22,0,P|49:59|120:69,1,96,0|0,1:0|3:0,0:0:0:0:
167,87,147512,1,0,0:0:0:0:
167,87,147594,1,0,3:0:0:0:
252,157,147759,21,0,1:0:0:0:
293,170,147842,1,0,3:0:0:0:
335,170,147924,1,0,1:0:0:0:
374,152,148007,1,0,3:0:0:0:
412,131,148089,1,0,3:0:0:0:
454,130,148171,1,0,3:0:0:0:
494,145,148254,86,0,P|508:186|491:238,1,76.8,4|0,3:2|0:0,0:0:0:0:
424,257,148583,1,0,1:0:0:0:
312,75,148748,2,0,L|395:58,1,76.8,2|0,0:0|3:0,0:0:0:0:
494,145,149078,1,0,3:0:0:0:
424,257,149243,1,0,1:0:0:0:
302,216,149408,2,0,B|258:211|258:211|224:232|224:232|151:222,1,153.6,0|0,3:0|3:0,0:0:0:0:
66,209,149902,101,0,1:0:0:0:
116,339,150067,1,2,0:0:0:0:
130,335,150149,1,0,0:0:0:0:
144,331,150231,1,0,3:0:0:0:
66,209,150397,1,0,3:0:0:0:
151,94,150562,6,0,P|167:60|138:11,1,76.8,0|0,1:0|0:0,0:0:0:0:
0,121,150891,2,0,L|80:129,1,76.8,0|2,3:0|0:0,0:0:0:0:
159,206,151221,1,0,1:0:0:0:
258,48,151386,102,0,L|338:56,1,76.8,0|0,0:0|3:0,0:0:0:0:
421,216,151715,1,0,3:0:0:0:
495,187,151880,1,0,1:0:0:0:
434,141,152045,2,0,P|363:162|350:247,1,153.6,0|0,3:0|3:0,0:0:0:0:
411,330,152540,6,0,L|326:317,1,76.8,0|2,1:0|0:0,0:0:0:0:
268,354,152787,1,0,3:0:0:0:
268,354,152869,2,0,P|237:333|186:338,1,76.8,0|0,3:0|0:0,0:0:0:0:
98,368,153199,1,0,1:0:0:0:
17,245,153364,1,0,0:0:0:0:
102,115,153529,102,0,B|130:92|130:92|174:89,1,76.8,4|0,3:2|3:0,0:0:0:0:
219,207,153858,2,0,B|185:194|185:194|162:160,1,76.8,0|2,1:3|2:0,0:0:0:0:
241,59,154188,2,0,B|246:94|246:94|228:131,1,76.8,0|0,3:0|3:0,0:0:0:0:
175,23,154518,1,0,1:0:0:0:
317,110,154682,2,0,B|363:106|363:106|396:123|396:123|468:118,1,153.6,0|0,3:0|3:0,0:0:0:0:
250,173,155177,5,0,1:0:0:0:
186,37,155342,1,2,0:0:0:0:
169,128,155507,1,0,3:0:0:0:
278,26,155671,1,0,3:0:0:0:
317,110,155836,2,0,B|331:143|331:143|320:211,1,76.8,0|0,1:0|0:0,0:0:0:0:
182,360,156166,102,0,B|168:327|168:327|179:259,1,76.8,4|0,3:2|3:0,0:0:0:0:
135,216,156413,1,0,0:0:0:0:
135,216,156496,2,0,L|232:201,1,76.8,0|2,1:0|0:0,0:0:0:0:
324,183,156825,1,0,3:0:0:0:
399,271,156990,1,0,3:0:0:0:
402,263,157155,1,0,1:0:0:0:
456,65,157320,6,0,B|410:61|410:61|377:78|377:78|305:73,1,153.6,4|0,3:2|3:0,0:0:0:0:
195,32,157814,2,0,P|178:79|186:115,1,76.8,0|0,1:0|0:0,0:0:0:0:
204,276,158144,1,0,1:0:0:0:
149,207,158309,101,0,1:0:0:0:
179,191,158391,1,0,1:0:0:0:
213,188,158474,1,0,1:0:0:0:
244,201,158556,1,0,1:0:0:0:
276,212,158638,1,0,1:0:0:0:
311,212,158721,1,0,1:0:0:0:
346,197,158803,102,0,P|356:152|333:99,1,96,4|0,3:2|0:0,0:0:0:0:
252,72,159133,1,0,1:0:0:0:
196,292,159298,2,0,L|313:277,1,96,2|0,0:0|3:0,0:0:0:0:
383,314,159627,1,0,0:0:0:0:
457,282,159792,1,0,1:0:0:0:
430,135,159957,2,0,L|334:122,1,96,0|0,0:0|3:0,0:0:0:0:
170,263,160287,101,0,0:0:0:0:
224,151,160452,1,0,1:0:0:0:
293,253,160616,1,0,0:0:0:0:
91,166,160781,5,0,3:0:0:0:
74,161,160864,1,0,1:0:0:0:
57,158,160946,1,2,0:0:0:0:
134,21,161111,2,0,P|169:61|155:121,1,96,0|0,1:0|0:0,0:0:0:0:
56,348,161441,102,0,B|23:328|23:328|5:276|40:214|102:221,1,192,0|0,3:0|1:0,0:0:0:0:
141,325,161935,1,2,0:0:0:0:
218,353,162100,1,0,3:0:0:0:
320,222,162265,1,0,0:0:0:0:
399,251,162430,1,0,1:0:0:0:
472,215,162594,2,0,P|483:163|449:114,1,96,2|0,0:0|3:0,0:0:0:0:
372,147,162924,5,0,0:0:0:0:
328,295,163089,1,0,1:0:0:0:
268,241,163254,101,2,0:0:0:0:
312,93,163419,1,0,3:0:0:0:
195,274,163583,5,0,1:0:0:0:
156,267,163666,1,0,1:0:0:0:
120,252,163748,1,0,3:0:0:0:
91,226,163831,1,0,3:0:0:0:
73,192,163913,1,0,3:0:0:0:
71,153,163996,1,0,3:0:0:0:
83,117,164078,22,0,L|181:106,1,96,0|0,1:2|3:0,0:0:0:0:
274,220,164408,1,0,3:0:0:0:
452,134,164572,22,0,L|354:145,2,96,0|0|0,1:0|3:0|3:0,0:0:0:0:
285,37,165067,1,0,3:0:0:0:
285,37,165232,2,0,P|216:100|249:192,1,192,4|0,1:2|3:0,0:0:0:0:
349,261,165726,22,0,L|444:271,1,96,0|0,1:0|3:0,0:0:0:0:
402,192,166056,1,0,1:0:0:0:
297,326,166221,21,8,3:0:0:0:
268,294,166303,1,0,3:0:0:0:
225,283,166386,1,8,3:0:0:0:
183,293,166468,1,0,3:0:0:0:
144,313,166551,1,0,3:0:0:0:
101,304,166633,1,0,3:0:0:0:
72,272,166715,22,0,P|74:218|108:184,1,96,4|0,1:2|3:0,0:0:0:0:
191,195,167045,1,0,3:0:0:0:
385,170,167210,2,0,P|355:254|266:247,1,192,0|0,1:0|3:0,0:0:0:0:
191,195,167704,21,0,1:0:0:0:
258,22,167869,1,4,1:1:0:0:
333,101,169353,1,2,0:0:0:0:
300,329,179902,22,0,L|310:297,1,28.7999991210938,0|0,3:3|0:0,0:0:0:0:
252,225,180232,2,0,L|282:234,1,28.7999991210938,0|0,3:3|0:0,0:0:0:0:
354,177,180562,2,0,L|343:206,1,28.7999991210938,0|0,3:3|0:0,0:0:0:0:
402,280,180891,2,0,L|371:268,1,28.7999991210938,0|0,3:3|0:0,0:0:0:0:
296,344,181221,22,0,L|286:304,1,28.7999991210938,0|0,3:3|0:0,0:0:0:0:
171,263,181551,2,0,L|209:253,1,28.7999991210938,0|0,3:3|0:0,0:0:0:0:
252,140,181880,2,0,L|260:178,1,28.7999991210938,0|0,3:3|0:0,0:0:0:0:
375,220,182210,2,0,L|335:228,1,28.7999991210938,0|0,3:0|0:0,0:0:0:0:
292,360,182540,22,0,L|277:327,1,28.7999991210938,0|0,3:0|0:0,0:0:0:0:
63,271,182869,2,0,L|94:256,1,28.7999991210938,0|0,3:0|0:0,0:0:0:0:
149,44,183199,2,0,L|162:75,1,28.7999991210938,0|0,3:0|0:0,0:0:0:0:
376,131,183529,2,0,L|343:144,1,28.7999991210938,0|0,3:0|0:0,0:0:0:0:
208,209,183858,21,0,3:0:0:0:
218,188,184023,1,0,0:0:0:0:
239,197,184188,1,0,3:0:0:0:
229,219,184353,1,0,0:0:0:0:
208,209,184518,1,0,3:0:0:0:
402,150,184682,21,8,3:3:0:0:
357,161,184764,1,0,3:0:0:0:
313,148,184846,1,8,1:3:0:0:
275,122,184929,1,0,3:0:0:0:
230,110,185011,1,0,3:0:0:0:
184,116,185094,1,0,3:0:0:0:
147,140,185177,21,4,1:2:0:0:
282,331,185342,1,0,1:0:0:0:
291,328,185507,1,0,1:0:0:0:
300,325,185671,1,0,1:0:0:0:
309,322,185836,1,0,1:0:0:0:
318,319,186001,1,0,1:0:0:0:
327,316,186166,1,0,1:0:0:0:
336,313,186331,22,0,P|359:244|256:249,1,192,4|0,1:2|3:0,0:0:0:0:
100,303,186825,2,0,B|85:266|85:266|103:193,1,96,4|0,1:2|0:0,0:0:0:0:
150,84,187155,21,0,3:0:0:0:
159,85,187237,1,0,1:0:0:0:
168,86,187320,1,0,1:0:0:0:
177,87,187402,1,0,1:0:0:0:
186,88,187485,21,0,1:0:0:0:
232,76,187567,1,0,1:0:0:0:
278,65,187649,1,0,1:0:0:0:
325,54,187732,1,0,1:0:0:0:
371,43,187814,22,0,B|357:129|357:129|378:160,1,115.199996484375,4|0,3:2|0:0,0:0:0:0:
469,134,188144,1,0,1:0:0:0:
276,184,188309,1,2,0:0:0:0:
256,181,188391,1,0,1:0:0:0:
235,178,188474,1,0,3:0:0:0:
165,107,188638,1,0,3:0:0:0:
219,21,188803,1,0,1:0:0:0:
493,92,188968,22,0,B|429:83|429:83|371:112|371:112|256:95,1,230.39999296875,0|0,3:0|3:0,0:0:0:0:
73,32,189463,2,0,P|41:81|58:141,1,115.199996484375,0|2,1:0|0:0,0:0:0:0:
74,142,189710,1,0,1:0:0:0:
96,149,189792,1,0,3:0:0:0:
185,128,189957,1,0,3:0:0:0:
120,230,190122,21,0,1:0:0:0:
156,51,190287,1,0,0:0:0:0:
186,303,190452,22,0,B|220:320|220:320|306:304,1,115.199996484375,0|0,3:0|3:0,0:0:0:0:
512,221,190781,2,0,B|478:204|478:204|392:220,1,115.199996484375,0|2,1:0|0:0,0:0:0:0:
384,288,191029,1,0,1:0:0:0:
378,305,191111,1,0,3:0:0:0:
469,360,191276,1,0,3:0:0:0:
512,221,191441,1,0,1:0:0:0:
413,114,191605,22,0,B|277:86|335:206|194:160,1,230.39999296875,0|0,3:0|3:0,0:0:0:0:
53,189,192100,1,0,1:0:0:0:
181,132,192265,1,2,0:0:0:0:
192,148,192347,1,0,1:0:0:0:
202,162,192430,2,0,B|298:178|298:178|345:149,1,144.000005493164,4|0,3:2|0:0,0:0:0:0:
453,243,192759,22,0,B|356:228|356:228|309:257,1,144.000005493164,4|0,1:2|0:0,0:0:0:0:
218,319,193089,1,4,3:2:0:0:
80,45,193419,22,0,P|47:101|72:166,1,115.199996484375,0|0,1:0|0:0,0:0:0:0:
122,188,193666,1,0,1:0:0:0:
122,188,193748,1,0,3:0:0:0:
242,100,193913,1,0,3:0:0:0:
214,187,194078,1,0,1:0:0:0:
168,46,194243,22,0,B|154:107|154:107|180:157|180:157|155:273,1,230.39999296875,0|0,3:0|3:0,0:0:0:0:
93,343,194737,2,0,P|58:292|81:216,1,115.199996484375,0|2,1:0|0:0,0:0:0:0:
242,100,195067,1,0,3:0:0:0:
329,84,195232,1,0,3:0:0:0:
416,70,195397,1,0,1:0:0:0:
416,70,195726,22,0,P|488:127|394:163,1,230.39999296875,4|0,3:2|1:0,0:0:0:0:
329,84,196220,1,2,0:0:0:0:
308,73,196303,1,0,0:0:0:0:
290,62,196385,1,0,3:0:0:0:
200,184,196551,1,0,3:0:0:0:
260,322,196715,1,0,1:0:0:0:
317,250,196880,22,0,B|253:241|253:241|195:270|195:270|80:253,1,230.39999296875,4|0,3:2|3:0,0:0:0:0:
8,181,197375,2,0,B|47:160|47:160|133:170,1,115.199996484375,0|0,1:0|3:0,0:0:0:0:
218,329,197704,1,0,1:0:0:0:
241,325,197787,1,0,1:0:0:0:
260,322,197869,1,0,3:0:0:0:
483,237,198034,2,0,B|444:258|444:258|358:248,1,115.199996484375,4|0,1:2|0:0,0:0:0:0:
185,263,198364,21,0,1:0:0:0:
193,249,198529,1,0,0:0:0:0:
206,238,198693,1,0,1:0:0:0:
220,230,198858,1,0,3:0:0:0:
236,224,199023,1,0,1:0:0:0:
252,222,199189,1,0,3:0:0:0:
268,225,199352,1,0,1:0:0:0:
284,229,199518,1,0,3:0:0:0:
357,323,199682,21,0,1:0:0:0:
350,296,199847,1,0,3:0:0:0:
349,269,200012,1,0,1:0:0:0:
356,243,200177,1,0,3:0:0:0:
369,221,200342,1,0,1:0:0:0:
387,202,200507,1,0,3:0:0:0:
410,189,200672,1,0,1:0:0:0:
491,173,200836,1,0,3:0:0:0:
490,173,200919,1,0,3:0:0:0:
491,173,201001,22,0,L|356:150,1,115.199996484375,0|0,1:0|3:0,0:0:0:0:
410,189,201331,2,0,L|275:166,1,115.199996484375,0|0,1:0|0:0,0:0:0:0:
376,85,201660,22,0,L|241:62,1,115.199996484375,0|0,1:0|3:0,0:0:0:0:
282,297,201990,2,0,L|147:274,1,115.199996484375,0|0,1:0|3:0,0:0:0:0:
404,241,202320,22,0,L|239:212,1,144.000005493164,0|0,1:0|0:0,0:0:0:0:
296,110,202649,2,0,L|131:81,1,144.000005493164,0|0,1:0|0:0,0:0:0:0:
142,321,202979,22,0,L|-23:292,1,144.000005493164,0|0,1:0|3:0,0:0:0:0:
35,286,203226,1,0,3:0:0:0:
70,276,203309,1,8,3:0:0:0:
104,266,203391,1,0,3:0:0:0:
139,256,203474,1,0,3:0:0:0:
174,247,203556,1,0,3:0:0:0:
209,238,203638,21,4,3:2:0:0:
300,266,203803,1,0,3:0:0:0:
230,330,203968,1,0,1:0:0:0:
191,136,204133,21,2,0:0:0:0:
191,136,204215,1,0,1:0:0:0:
191,136,204298,2,0,B|245:127|245:127|285:150|285:150|360:138,1,172.799994726563,0|0,3:0|3:0,0:0:0:0:
429,127,204627,1,0,1:0:0:0:
484,273,204792,22,0,P|420:351|284:349,1,230.39999296875,0|0,3:0|3:0,0:0:0:0:
221,306,205287,1,0,1:0:0:0:
192,218,205452,1,2,0:0:0:0:
201,196,205534,1,0,1:0:0:0:
209,175,205616,1,0,3:0:0:0:
301,122,205781,1,0,3:0:0:0:
386,59,205946,2,0,P|407:114|334:217,1,172.799994726563,0|0,1:0|0:0,0:0:0:0:
278,191,206276,21,4,1:2:0:0:
267,187,206441,1,0,0:0:0:0:
256,183,206605,1,0,1:0:0:0:
244,179,206770,1,0,1:0:0:0:
93,123,206935,21,0,1:0:0:0:
104,120,207099,1,0,1:0:0:0:
116,117,207264,1,0,1:0:0:0:
127,114,207430,2,0,B|97:278|97:278|139:332,1,230.39999296875,0|0,1:0|3:0,0:0:0:0:
205,308,207842,1,0,3:0:0:0:
222,304,207924,1,0,1:0:0:0:
362,267,208089,21,0,3:0:0:0:
362,267,208171,1,0,3:0:0:0:
362,267,208254,1,0,1:0:0:0:
442,119,208419,21,0,3:0:0:0:
397,108,208501,1,0,3:0:0:0:
353,121,208583,1,0,1:0:0:0:
315,147,208666,1,0,1:0:0:0:
271,160,208748,1,0,3:0:0:0:
225,151,208831,1,0,3:0:0:0:
185,127,208913,54,0,P|168:90|197:35,1,96,4|0,3:2|0:0,0:0:0:0:
286,28,209243,1,0,1:0:0:0:
353,121,209408,1,0,0:0:0:0:
286,209,209573,1,2,0:0:0:0:
267,201,209655,1,0,0:0:0:0:
247,201,209737,1,0,3:0:0:0:
151,225,209902,21,0,1:0:0:0:
121,36,210067,2,0,P|53:89|55:191,1,192,0|0,3:0|3:0,0:0:0:0:
177,153,210562,1,0,1:0:0:0:
151,225,210726,1,2,0:0:0:0:
227,210,210891,1,0,3:0:0:0:
129,93,211056,21,0,3:0:0:0:
67,232,211221,1,0,1:0:0:0:
159,355,211386,1,0,0:0:0:0:
335,332,211551,22,0,L|231:323,1,96,0|0,3:0|3:0,0:0:0:0:
389,199,211880,2,0,P|416:252|400:296,1,96,0|0,1:0|0:0,0:0:0:0:
159,355,212210,1,0,3:0:0:0:
155,339,212292,1,0,0:0:0:0:
151,324,212375,1,0,3:0:0:0:
75,302,212540,1,0,1:0:0:0:
7,179,212704,2,0,B|56:168|56:168|101:192|101:192|210:171,1,192,0|0,3:0|3:0,0:0:0:0:
246,115,213199,21,0,1:0:0:0:
242,104,213364,1,2,0:0:0:0:
345,77,213529,21,0,3:0:0:0:
342,88,213694,1,0,3:0:0:0:
140,68,213858,21,4,1:2:0:0:
140,56,214023,1,0,0:0:0:0:
430,130,214188,22,0,B|447:168|447:168|433:234,1,96,4|0,3:2|3:0,0:0:0:0:
286,362,214518,2,0,B|269:324|269:324|283:258,1,96,0|0,1:0|0:0,0:0:0:0:
435,221,214847,21,0,3:0:0:0:
446,240,214930,1,0,2:0:0:0:
458,260,215012,1,0,3:0:0:0:
347,199,215177,1,0,1:0:0:0:
258,179,215342,2,0,B|222:160|222:160|167:176|141:241|195:291,1,192,0|0,3:0|3:0,0:0:0:0:
355,323,215836,21,0,1:0:0:0:
268,330,216001,1,2,0:0:0:0:
97,258,216166,21,0,3:0:0:0:
184,265,216331,1,0,3:0:0:0:
406,208,216496,21,0,1:0:0:0:
319,215,216661,1,0,0:0:0:0:
246,90,216825,22,0,P|221:139|248:188,1,96,4|0,3:2|3:0,0:0:0:0:
314,298,217155,1,0,1:0:0:0:
501,197,217320,2,0,L|395:209,1,96,0|0,0:0|3:0,0:0:0:0:
314,298,217649,21,0,3:0:0:0:
161,212,217814,1,0,1:0:0:0:
88,174,217979,2,0,P|75:128|96:86,1,96,4|0,3:2|0:0,0:0:0:0:
159,135,218309,21,0,1:0:0:0:
178,129,218391,1,0,1:0:0:0:
197,123,218474,1,0,1:0:0:0:
161,212,218638,21,0,3:0:0:0:
190,49,218803,1,4,3:0:0:0:
250,266,218968,21,0,1:0:0:0:
289,260,219050,1,0,1:0:0:0:
326,255,219132,1,0,1:0:0:0:
364,250,219215,1,0,1:0:0:0:
401,245,219297,1,4,1:0:0:0:
256,192,219380,12,0,224737,0:0:0:0:
