osu file format v14

[General]
AudioFilename: audio.mp3
AudioLeadIn: 0
PreviewTime: -1
Countdown: 1
SampleSet: Normal
StackLeniency: 0.7
Mode: 3
LetterboxInBreaks: 0
SpecialStyle: 0
WidescreenStoryboard: 0

[Editor]
DistanceSpacing: 0.8
BeatDivisor: 8
GridSize: 32
TimelineZoom: 1

[Metadata]
Title:wii music but with the roblox death sound
TitleUnicode:wii music but with the roblox death sound
Artist:nocaed
ArtistUnicode:nocaed
Creator:SednA
Version:oof
Source:wii and roblox
Tags:wii roblox oof meme minimaleffort
BeatmapID:1659633
BeatmapSetID:791016

[Difficulty]
HPDrainRate:2
CircleSize:4
OverallDifficulty:5
ApproachRate:5
SliderMultiplier:1.4
SliderTickRate:1

[Events]
//Background and Video events
Video,0,"oof.avi"
0,0,"fre robux.jpg",0,0
//Break Periods
//Storyboard Layer 0 (Background)
//Storyboard Layer 1 (Fail)
//Storyboard Layer 2 (Pass)
//Storyboard Layer 3 (Foreground)
//Storyboard Sound Samples

[TimingPoints]
930,262.637762237762,4,1,0,100,1,0

[HitObjects]
64,192,930,5,0,0:0:0:0:
192,192,930,1,0,0:0:0:0:
448,192,930,1,0,0:0:0:0:
320,192,1455,1,0,0:0:0:0:
64,192,1455,1,0,0:0:0:0:
192,192,1717,1,0,0:0:0:0:
448,192,1717,1,0,0:0:0:0:
320,192,2243,1,0,0:0:0:0:
448,192,2243,1,0,0:0:0:0:
64,192,2243,1,0,0:0:0:0:
192,192,2768,1,0,0:0:0:0:
448,192,2768,1,0,0:0:0:0:
320,192,3031,1,0,0:0:0:0:
448,192,3031,1,0,0:0:0:0:
64,192,3293,1,0,0:0:0:0:
192,192,3293,1,0,0:0:0:0:
64,192,3556,1,0,0:0:0:0:
320,192,3556,1,0,0:0:0:0:
64,192,4869,128,0,5132:0:0:0:0:
448,192,5132,128,0,5394:0:0:0:0:
64,192,5394,1,0,0:0:0:0:
192,192,5394,1,0,0:0:0:0:
320,192,5657,1,0,0:0:0:0:
192,192,5920,1,0,0:0:0:0:
448,192,5920,1,0,0:0:0:0:
64,192,5920,1,0,0:0:0:0:
448,192,6445,1,0,0:0:0:0:
64,192,6970,1,0,0:0:0:0:
192,192,7233,1,0,0:0:0:0:
320,192,7266,1,0,0:0:0:0:
448,192,7298,1,0,0:0:0:0:
64,192,7364,1,0,0:0:0:0:
192,192,7397,1,0,0:0:0:0:
320,192,7430,1,0,0:0:0:0:
448,192,7463,1,0,0:0:0:0:
64,192,7528,1,0,0:0:0:0:
192,192,7561,1,0,0:0:0:0:
320,192,7594,1,0,0:0:0:0:
448,192,7627,1,0,0:0:0:0:
64,192,7692,1,0,0:0:0:0:
192,192,7725,1,0,0:0:0:0:
320,192,7758,1,0,0:0:0:0:
448,192,7791,1,0,0:0:0:0:
64,192,7857,1,0,0:0:0:0:
192,192,7889,1,0,0:0:0:0:
320,192,7922,1,0,0:0:0:0:
448,192,7955,1,0,0:0:0:0:
64,192,8021,1,0,0:0:0:0:
192,192,8054,1,0,0:0:0:0:
320,192,8086,1,0,0:0:0:0:
448,192,8119,1,0,0:0:0:0:
64,192,8185,1,0,0:0:0:0:
192,192,8218,1,0,0:0:0:0:
320,192,8251,1,0,0:0:0:0:
448,192,8283,1,0,0:0:0:0:
192,192,9334,1,0,0:0:0:0:
320,192,9334,1,0,0:0:0:0:
448,192,9334,1,0,0:0:0:0:
448,192,9859,1,0,0:0:0:0:
64,192,10122,1,0,0:0:0:0:
192,192,10122,1,0,0:0:0:0:
320,192,10122,1,0,0:0:0:0:
320,192,10647,1,0,0:0:0:0:
64,192,11172,1,0,0:0:0:0:
192,192,11172,1,0,0:0:0:0:
448,192,11172,1,0,0:0:0:0:
64,192,11698,1,0,0:0:0:0:
448,192,12223,128,0,12486:0:0:0:0:
320,192,12486,128,0,12748:0:0:0:0:
64,192,13011,1,0,0:0:0:0:
64,192,13536,1,0,0:0:0:0:
192,192,13536,1,0,0:0:0:0:
320,192,13536,1,0,0:0:0:0:
192,192,13799,1,0,0:0:0:0:
320,192,13799,1,0,0:0:0:0:
448,192,13799,1,0,0:0:0:0:
64,192,14061,1,0,0:0:0:0:
320,192,14061,1,0,0:0:0:0:
448,192,14061,1,0,0:0:0:0:
192,192,15112,1,0,0:0:0:0:
320,192,15112,1,0,0:0:0:0:
448,192,15112,1,0,0:0:0:0:
64,192,15375,1,0,0:0:0:0:
192,192,15375,1,0,0:0:0:0:
320,192,15375,1,0,0:0:0:0:
64,192,15637,1,0,0:0:0:0:
192,192,15637,1,0,0:0:0:0:
448,192,15637,1,0,0:0:0:0:
448,192,16688,128,0,17738:0:0:0:0:
192,192,16688,1,0,0:0:0:0:
320,192,16721,1,0,0:0:0:0:
64,192,16786,1,0,0:0:0:0:
192,192,16819,1,0,0:0:0:0:
320,192,16852,1,0,0:0:0:0:
64,192,16918,1,0,0:0:0:0:
192,192,16950,1,0,0:0:0:0:
320,192,16983,1,0,0:0:0:0:
64,192,17049,1,0,0:0:0:0:
192,192,17082,1,0,0:0:0:0:
320,192,17115,1,0,0:0:0:0:
64,192,17180,1,0,0:0:0:0:
192,192,17213,1,0,0:0:0:0:
320,192,17246,1,0,0:0:0:0:
64,192,17312,1,0,0:0:0:0:
192,192,17344,1,0,0:0:0:0:
320,192,17377,1,0,0:0:0:0:
64,192,17443,1,0,0:0:0:0:
192,192,17476,1,0,0:0:0:0:
320,192,17509,1,0,0:0:0:0:
64,192,17574,1,0,0:0:0:0:
192,192,17607,1,0,0:0:0:0:
320,192,17640,1,0,0:0:0:0:
64,192,17705,1,0,0:0:0:0:
192,192,17738,1,0,0:0:0:0:
64,192,18264,1,0,0:0:0:0:
320,192,18264,1,0,0:0:0:0:
192,192,18526,1,0,0:0:0:0:
448,192,18526,1,0,0:0:0:0:
192,192,19052,1,0,0:0:0:0:
320,192,19052,1,0,0:0:0:0:
64,192,19577,1,0,0:0:0:0:
448,192,19577,1,0,0:0:0:0:
64,192,19839,1,0,0:0:0:0:
192,192,19839,1,0,0:0:0:0:
320,192,19839,1,0,0:0:0:0:
192,192,20102,1,0,0:0:0:0:
320,192,20102,1,0,0:0:0:0:
448,192,20102,1,0,0:0:0:0:
64,192,20365,1,0,0:0:0:0:
192,192,20365,1,0,0:0:0:0:
320,192,20365,1,0,0:0:0:0:
448,192,20365,1,0,0:0:0:0:
320,192,20890,1,0,0:0:0:0:
448,192,20890,1,0,0:0:0:0:
64,192,20890,1,0,0:0:0:0:
320,192,21153,1,0,0:0:0:0:
448,192,21153,1,0,0:0:0:0:
192,192,21153,1,0,0:0:0:0:
320,192,21415,1,0,0:0:0:0:
448,192,21415,1,0,0:0:0:0:
64,192,21415,1,0,0:0:0:0:
64,192,21941,1,0,0:0:0:0:
192,192,22203,1,0,0:0:0:0:
448,192,22203,1,0,0:0:0:0:
320,192,22466,1,0,0:0:0:0:
448,192,22466,1,0,0:0:0:0:
64,192,22728,1,0,0:0:0:0:
192,192,22728,1,0,0:0:0:0:
448,192,22728,1,0,0:0:0:0:
64,192,23254,1,0,0:0:0:0:
448,192,23779,1,0,0:0:0:0:
64,192,24042,1,0,0:0:0:0:
192,192,24074,1,0,0:0:0:0:
320,192,24107,1,0,0:0:0:0:
448,192,24140,1,0,0:0:0:0:
320,192,24173,1,0,0:0:0:0:
192,192,24206,1,0,0:0:0:0:
64,192,24239,1,0,0:0:0:0:
192,192,24271,1,0,0:0:0:0:
320,192,24304,1,0,0:0:0:0:
448,192,24337,1,0,0:0:0:0:
320,192,24370,1,0,0:0:0:0:
192,192,24403,1,0,0:0:0:0:
64,192,24436,1,0,0:0:0:0:
192,192,24468,1,0,0:0:0:0:
320,192,24501,1,0,0:0:0:0:
448,192,24534,1,0,0:0:0:0:
320,192,24567,1,0,0:0:0:0:
192,192,24600,1,0,0:0:0:0:
64,192,24633,1,0,0:0:0:0:
192,192,24665,1,0,0:0:0:0:
320,192,24698,1,0,0:0:0:0:
448,192,24731,1,0,0:0:0:0:
320,192,24764,1,0,0:0:0:0:
192,192,24797,1,0,0:0:0:0:
64,192,24830,1,0,0:0:0:0:
192,192,24862,1,0,0:0:0:0:
320,192,24895,1,0,0:0:0:0:
192,192,24928,1,0,0:0:0:0:
64,192,24961,1,0,0:0:0:0:
192,192,24994,1,0,0:0:0:0:
320,192,25027,1,0,0:0:0:0:
192,192,25059,1,0,0:0:0:0:
64,192,25092,1,0,0:0:0:0:
192,192,25125,1,0,0:0:0:0:
320,192,25158,1,0,0:0:0:0:
192,192,25191,1,0,0:0:0:0:
64,192,25223,1,0,0:0:0:0:
192,192,25256,1,0,0:0:0:0:
320,192,25289,1,0,0:0:0:0:
192,192,25322,1,0,0:0:0:0:
64,192,25355,1,0,0:0:0:0:
64,192,26143,1,0,0:0:0:0:
192,192,26143,1,0,0:0:0:0:
448,192,26143,1,0,0:0:0:0:
192,192,26405,1,0,0:0:0:0:
320,192,26405,1,0,0:0:0:0:
64,192,26931,1,0,0:0:0:0:
448,192,26931,1,0,0:0:0:0:
448,192,27456,128,0,27981:0:0:0:0:
192,192,27456,1,0,0:0:0:0:
64,192,27587,1,0,0:0:0:0:
320,192,27587,1,0,0:0:0:0:
192,192,27719,1,0,0:0:0:0:
64,192,27850,1,0,0:0:0:0:
320,192,27850,1,0,0:0:0:0:
192,192,27981,1,0,0:0:0:0:
192,192,28769,1,0,0:0:0:0:
64,192,28769,1,0,0:0:0:0:
320,192,28769,1,0,0:0:0:0:
448,192,28769,1,0,0:0:0:0:
64,192,29557,1,0,0:0:0:0:
192,192,29557,1,0,0:0:0:0:
320,192,29557,1,0,0:0:0:0:
64,192,30345,1,0,0:0:0:0:
192,192,30345,1,0,0:0:0:0:
320,192,30345,1,0,0:0:0:0:
448,192,30345,1,0,0:0:0:0:
64,192,30608,1,0,0:0:0:0:
192,192,30608,1,0,0:0:0:0:
320,192,30608,1,0,0:0:0:0:
448,192,30608,1,0,0:0:0:0:
64,192,30870,1,0,0:0:0:0:
192,192,30870,1,0,0:0:0:0:
320,192,30870,1,0,0:0:0:0:
448,192,30870,1,0,0:0:0:0:
64,192,32315,128,0,32577:0:0:0:0:
192,192,32577,1,0,0:0:0:0:
448,192,32840,128,0,33103:0:0:0:0:
320,192,33103,1,0,0:0:0:0:
64,192,33365,128,0,33628:0:0:0:0:
320,192,33365,128,0,33628:0:0:0:0:
192,192,33628,1,0,0:0:0:0:
448,192,33628,1,0,0:0:0:0:
320,192,35729,128,0,36254:0:0:0:0:
192,192,36254,128,0,36517:0:0:0:0:
64,192,36517,128,0,39012:0:0:0:0:
320,192,36648,1,0,0:0:0:0:
192,192,36714,1,0,0:0:0:0:
320,192,36780,1,0,0:0:0:0:
448,192,36845,1,0,0:0:0:0:
320,192,36911,1,0,0:0:0:0:
192,192,36977,1,0,0:0:0:0:
320,192,37042,1,0,0:0:0:0:
448,192,37108,1,0,0:0:0:0:
320,192,37174,1,0,0:0:0:0:
192,192,37239,1,0,0:0:0:0:
320,192,37305,1,0,0:0:0:0:
448,192,37370,1,0,0:0:0:0:
320,192,37436,1,0,0:0:0:0:
192,192,37502,1,0,0:0:0:0:
320,192,37535,1,0,0:0:0:0:
448,192,37567,1,0,0:0:0:0:
320,192,37600,1,0,0:0:0:0:
192,192,37633,1,0,0:0:0:0:
320,192,37666,1,0,0:0:0:0:
448,192,37699,1,0,0:0:0:0:
320,192,37732,1,0,0:0:0:0:
192,192,37764,1,0,0:0:0:0:
320,192,37797,1,0,0:0:0:0:
448,192,37830,1,0,0:0:0:0:
320,192,37863,1,0,0:0:0:0:
192,192,37896,1,0,0:0:0:0:
320,192,37929,1,0,0:0:0:0:
448,192,37961,1,0,0:0:0:0:
320,192,37994,1,0,0:0:0:0:
192,192,38027,1,0,0:0:0:0:
320,192,38060,1,0,0:0:0:0:
448,192,38093,1,0,0:0:0:0:
320,192,38126,1,0,0:0:0:0:
192,192,38158,1,0,0:0:0:0:
320,192,38191,1,0,0:0:0:0:
448,192,38224,1,0,0:0:0:0:
320,192,38257,1,0,0:0:0:0:
192,192,38290,1,0,0:0:0:0:
320,192,38323,1,0,0:0:0:0:
448,192,38355,1,0,0:0:0:0:
320,192,38388,1,0,0:0:0:0:
192,192,38421,1,0,0:0:0:0:
320,192,38454,1,0,0:0:0:0:
448,192,38487,1,0,0:0:0:0:
320,192,38520,1,0,0:0:0:0:
192,192,38552,1,0,0:0:0:0:
320,192,38585,1,0,0:0:0:0:
448,192,38618,1,0,0:0:0:0:
320,192,38651,1,0,0:0:0:0:
192,192,38684,1,0,0:0:0:0:
320,192,38717,1,0,0:0:0:0:
448,192,38749,1,0,0:0:0:0:
320,192,38782,1,0,0:0:0:0:
192,192,38815,1,0,0:0:0:0:
320,192,38848,1,0,0:0:0:0:
448,192,38881,1,0,0:0:0:0:
320,192,38913,1,0,0:0:0:0:
192,192,38946,1,0,0:0:0:0:
320,192,38979,1,0,0:0:0:0:
448,192,39012,1,0,0:0:0:0:
64,192,40358,1,0,0:0:0:0:
192,192,40358,1,0,0:0:0:0:
320,192,40358,1,0,0:0:0:0:
448,192,40358,1,0,0:0:0:0:
192,192,41376,1,0,0:0:0:0:
64,192,41376,1,0,0:0:0:0:
320,192,41376,1,0,0:0:0:0:
448,192,41376,1,0,0:0:0:0:
192,192,42229,1,0,0:0:0:0:
64,192,42229,1,0,0:0:0:0:
320,192,42229,1,0,0:0:0:0:
448,192,42229,1,0,0:0:0:0:
192,192,44002,1,0,0:0:0:0:
320,192,44068,1,0,0:0:0:0:
448,192,44133,1,0,0:0:0:0:
320,192,44199,1,0,0:0:0:0:
192,192,44265,1,0,0:0:0:0:
64,192,44330,1,0,0:0:0:0:
192,192,44396,1,0,0:0:0:0:
320,192,44462,1,0,0:0:0:0:
448,192,44527,1,0,0:0:0:0:
320,192,44593,1,0,0:0:0:0:
192,192,44659,1,0,0:0:0:0:
64,192,44724,1,0,0:0:0:0:
192,192,44790,1,0,0:0:0:0:
320,192,44856,1,0,0:0:0:0:
448,192,44888,1,0,0:0:0:0:
320,192,44921,1,0,0:0:0:0:
192,192,44954,1,0,0:0:0:0:
320,192,44987,1,0,0:0:0:0:
448,192,45020,1,0,0:0:0:0:
320,192,45053,1,0,0:0:0:0:
192,192,45085,1,0,0:0:0:0:
320,192,45118,1,0,0:0:0:0:
448,192,45151,1,0,0:0:0:0:
320,192,45184,1,0,0:0:0:0:
192,192,45217,1,0,0:0:0:0:
320,192,45250,1,0,0:0:0:0:
448,192,45282,1,0,0:0:0:0:
320,192,45315,1,0,0:0:0:0:
192,192,45348,1,0,0:0:0:0:
320,192,45381,1,0,0:0:0:0:
448,192,45414,1,0,0:0:0:0:
320,192,45447,1,0,0:0:0:0:
192,192,45479,1,0,0:0:0:0:
320,192,45512,1,0,0:0:0:0:
448,192,45545,1,0,0:0:0:0:
320,192,45578,1,0,0:0:0:0:
192,192,45611,1,0,0:0:0:0:
320,192,45644,1,0,0:0:0:0:
448,192,45676,1,0,0:0:0:0:
320,192,45709,1,0,0:0:0:0:
192,192,45742,1,0,0:0:0:0:
320,192,45775,1,0,0:0:0:0:
448,192,45808,1,0,0:0:0:0:
320,192,45841,1,0,0:0:0:0:
192,192,45873,1,0,0:0:0:0:
320,192,45906,1,0,0:0:0:0:
448,192,45939,1,0,0:0:0:0:
320,192,45972,1,0,0:0:0:0:
192,192,46005,1,0,0:0:0:0:
320,192,46038,1,0,0:0:0:0:
448,192,46070,1,0,0:0:0:0:
320,192,46103,1,0,0:0:0:0:
192,192,46136,1,0,0:0:0:0:
320,192,46169,1,0,0:0:0:0:
448,192,46202,1,0,0:0:0:0:
320,192,46235,1,0,0:0:0:0:
192,192,46267,1,0,0:0:0:0:
320,192,46300,1,0,0:0:0:0:
448,192,46333,1,0,0:0:0:0:
64,192,48861,1,0,0:0:0:0:
192,192,48861,1,0,0:0:0:0:
320,192,48861,1,0,0:0:0:0:
448,192,48861,1,0,0:0:0:0:
192,192,49255,1,0,0:0:0:0:
320,192,49288,1,0,0:0:0:0:
448,192,49321,1,0,0:0:0:0:
64,192,49353,1,0,0:0:0:0:
192,192,49386,1,0,0:0:0:0:
320,192,49419,1,0,0:0:0:0:
448,192,49452,1,0,0:0:0:0:
64,192,49485,1,0,0:0:0:0:
192,192,49517,1,0,0:0:0:0:
320,192,49550,1,0,0:0:0:0:
448,192,49583,1,0,0:0:0:0:
64,192,49616,1,0,0:0:0:0:
192,192,49649,1,0,0:0:0:0:
320,192,49682,1,0,0:0:0:0:
448,192,49714,1,0,0:0:0:0:
64,192,49747,1,0,0:0:0:0:
192,192,49780,1,0,0:0:0:0:
320,192,49813,1,0,0:0:0:0:
448,192,49846,1,0,0:0:0:0:
64,192,49879,1,0,0:0:0:0:
192,192,49911,1,0,0:0:0:0:
320,192,49944,1,0,0:0:0:0:
448,192,49977,1,0,0:0:0:0:
64,192,50010,1,0,0:0:0:0:
192,192,50043,1,0,0:0:0:0:
320,192,50076,1,0,0:0:0:0:
448,192,50108,1,0,0:0:0:0:
64,192,50141,1,0,0:0:0:0:
192,192,50174,1,0,0:0:0:0:
320,192,50207,1,0,0:0:0:0:
448,192,50240,1,0,0:0:0:0:
64,192,50273,1,0,0:0:0:0:
192,192,50305,1,0,0:0:0:0:
320,192,50338,1,0,0:0:0:0:
448,192,50371,1,0,0:0:0:0:
64,192,50404,1,0,0:0:0:0:
192,192,50437,1,0,0:0:0:0:
320,192,50470,1,0,0:0:0:0:
448,192,50502,1,0,0:0:0:0:
64,192,50535,1,0,0:0:0:0:
192,192,50568,1,0,0:0:0:0:
320,192,50601,1,0,0:0:0:0:
448,192,50634,1,0,0:0:0:0:
64,192,50667,1,0,0:0:0:0:
192,192,50699,1,0,0:0:0:0:
320,192,50732,1,0,0:0:0:0:
448,192,50765,1,0,0:0:0:0:
64,192,50798,1,0,0:0:0:0:
192,192,50831,1,0,0:0:0:0:
320,192,50864,1,0,0:0:0:0:
448,192,50896,1,0,0:0:0:0:
64,192,50929,1,0,0:0:0:0:
192,192,50962,1,0,0:0:0:0:
320,192,50995,1,0,0:0:0:0:
448,192,51028,1,0,0:0:0:0:
64,192,51060,1,0,0:0:0:0:
192,192,51093,1,0,0:0:0:0:
320,192,51126,1,0,0:0:0:0:
448,192,51159,1,0,0:0:0:0:
64,192,51192,1,0,0:0:0:0:
192,192,51225,1,0,0:0:0:0:
320,192,51257,1,0,0:0:0:0:
448,192,51290,1,0,0:0:0:0:
64,192,51323,1,0,0:0:0:0:
192,192,51356,1,0,0:0:0:0:
320,192,51389,1,0,0:0:0:0:
448,192,51422,1,0,0:0:0:0:
64,192,51454,1,0,0:0:0:0:
192,192,51487,1,0,0:0:0:0:
320,192,51520,1,0,0:0:0:0:
448,192,51553,1,0,0:0:0:0:
64,192,51586,1,0,0:0:0:0:
192,192,51619,1,0,0:0:0:0:
320,192,51651,1,0,0:0:0:0:
448,192,51684,1,0,0:0:0:0:
64,192,51717,1,0,0:0:0:0:
192,192,51750,1,0,0:0:0:0:
320,192,51783,1,0,0:0:0:0:
448,192,51816,1,0,0:0:0:0:
64,192,51848,1,0,0:0:0:0:
192,192,51881,1,0,0:0:0:0:
64,192,52538,1,0,0:0:0:0:
192,192,52538,1,0,0:0:0:0:
320,192,52538,1,0,0:0:0:0:
448,192,52538,1,0,0:0:0:0:
64,192,52800,1,0,0:0:0:0:
192,192,52800,1,0,0:0:0:0:
320,192,52800,1,0,0:0:0:0:
448,192,52800,1,0,0:0:0:0:
64,192,53063,1,0,0:0:0:0:
192,192,53063,1,0,0:0:0:0:
320,192,53063,1,0,0:0:0:0:
448,192,53063,1,0,0:0:0:0:
64,192,53588,1,0,0:0:0:0:
192,192,53588,1,0,0:0:0:0:
320,192,53588,1,0,0:0:0:0:
448,192,54114,1,0,0:0:0:0:
192,192,54376,1,0,0:0:0:0:
320,192,54376,1,0,0:0:0:0:
64,192,54902,1,0,0:0:0:0:
192,192,54902,1,0,0:0:0:0:
320,192,55427,1,0,0:0:0:0:
448,192,55427,1,0,0:0:0:0:
64,192,55689,1,0,0:0:0:0:
192,192,55689,1,0,0:0:0:0:
320,192,55689,1,0,0:0:0:0:
448,192,55952,1,0,0:0:0:0:
320,192,55952,1,0,0:0:0:0:
192,192,55952,1,0,0:0:0:0:
64,192,56215,1,0,0:0:0:0:
192,192,56215,1,0,0:0:0:0:
448,192,56215,1,0,0:0:0:0:
448,192,57528,128,0,57791:0:0:0:0:
64,192,57791,1,0,0:0:0:0:
192,192,57791,1,0,0:0:0:0:
320,192,57791,1,0,0:0:0:0:
64,192,58053,1,0,0:0:0:0:
192,192,58053,1,0,0:0:0:0:
320,192,58053,1,0,0:0:0:0:
192,192,58316,1,0,0:0:0:0:
320,192,58316,1,0,0:0:0:0:
448,192,58316,1,0,0:0:0:0:
64,192,58578,1,0,0:0:0:0:
192,192,58578,1,0,0:0:0:0:
448,192,58578,1,0,0:0:0:0:
320,192,59104,1,0,0:0:0:0:
448,192,59104,1,0,0:0:0:0:
64,192,59629,1,0,0:0:0:0:
320,192,59629,1,0,0:0:0:0:
320,192,59892,1,0,0:0:0:0:
64,192,59892,128,0,60942:0:0:0:0:
448,192,59925,1,0,0:0:0:0:
192,192,59990,1,0,0:0:0:0:
320,192,60023,1,0,0:0:0:0:
448,192,60056,1,0,0:0:0:0:
192,192,60121,1,0,0:0:0:0:
320,192,60154,1,0,0:0:0:0:
448,192,60187,1,0,0:0:0:0:
192,192,60253,1,0,0:0:0:0:
320,192,60286,1,0,0:0:0:0:
448,192,60318,1,0,0:0:0:0:
192,192,60384,1,0,0:0:0:0:
320,192,60417,1,0,0:0:0:0:
448,192,60450,1,0,0:0:0:0:
192,192,60515,1,0,0:0:0:0:
320,192,60548,1,0,0:0:0:0:
448,192,60581,1,0,0:0:0:0:
192,192,60647,1,0,0:0:0:0:
320,192,60680,1,0,0:0:0:0:
448,192,60712,1,0,0:0:0:0:
192,192,60778,1,0,0:0:0:0:
320,192,60811,1,0,0:0:0:0:
448,192,60844,1,0,0:0:0:0:
192,192,60909,1,0,0:0:0:0:
320,192,60942,1,0,0:0:0:0:
64,192,61993,1,0,0:0:0:0:
192,192,61993,1,0,0:0:0:0:
320,192,61993,1,0,0:0:0:0:
192,192,62518,1,0,0:0:0:0:
320,192,62518,1,0,0:0:0:0:
448,192,62518,1,0,0:0:0:0:
64,192,62781,1,0,0:0:0:0:
320,192,62781,1,0,0:0:0:0:
448,192,62781,1,0,0:0:0:0:
64,192,63306,1,0,0:0:0:0:
192,192,63306,1,0,0:0:0:0:
448,192,63306,1,0,0:0:0:0:
192,192,63831,1,0,0:0:0:0:
320,192,63831,1,0,0:0:0:0:
448,192,63831,1,0,0:0:0:0:
64,192,64357,1,0,0:0:0:0:
192,192,64357,1,0,0:0:0:0:
320,192,64357,1,0,0:0:0:0:
192,192,64882,128,0,65144:0:0:0:0:
448,192,64882,128,0,65144:0:0:0:0:
320,192,65144,1,0,0:0:0:0:
64,192,65144,1,0,0:0:0:0:
64,192,65670,1,0,0:0:0:0:
192,192,65670,1,0,0:0:0:0:
448,192,65670,1,0,0:0:0:0:
64,192,66195,1,0,0:0:0:0:
192,192,66195,1,0,0:0:0:0:
320,192,66195,1,0,0:0:0:0:
448,192,66195,1,0,0:0:0:0:
64,192,66458,1,0,0:0:0:0:
192,192,66458,1,0,0:0:0:0:
320,192,66458,1,0,0:0:0:0:
448,192,66458,1,0,0:0:0:0:
64,192,66720,1,0,0:0:0:0:
192,192,66720,1,0,0:0:0:0:
320,192,66720,1,0,0:0:0:0:
448,192,66720,1,0,0:0:0:0:
64,192,67771,1,0,0:0:0:0:
192,192,67771,1,0,0:0:0:0:
320,192,67771,1,0,0:0:0:0:
448,192,67771,1,0,0:0:0:0:
64,192,68033,1,0,0:0:0:0:
192,192,68033,1,0,0:0:0:0:
320,192,68033,1,0,0:0:0:0:
448,192,68033,1,0,0:0:0:0:
64,192,68296,1,0,0:0:0:0:
192,192,68296,1,0,0:0:0:0:
320,192,68296,1,0,0:0:0:0:
448,192,68296,1,0,0:0:0:0:
192,192,69347,1,0,0:0:0:0:
448,192,69347,128,0,70529:0:0:0:0:
320,192,69412,1,0,0:0:0:0:
192,192,69478,1,0,0:0:0:0:
64,192,69544,1,0,0:0:0:0:
192,192,69609,1,0,0:0:0:0:
320,192,69675,1,0,0:0:0:0:
192,192,69741,1,0,0:0:0:0:
64,192,69806,1,0,0:0:0:0:
192,192,69839,1,0,0:0:0:0:
320,192,69872,1,0,0:0:0:0:
192,192,69905,1,0,0:0:0:0:
64,192,69938,1,0,0:0:0:0:
192,192,69970,1,0,0:0:0:0:
320,192,70003,1,0,0:0:0:0:
192,192,70036,1,0,0:0:0:0:
64,192,70069,1,0,0:0:0:0:
192,192,70102,1,0,0:0:0:0:
320,192,70135,1,0,0:0:0:0:
192,192,70167,1,0,0:0:0:0:
64,192,70200,1,0,0:0:0:0:
192,192,70233,1,0,0:0:0:0:
320,192,70266,1,0,0:0:0:0:
192,192,70299,1,0,0:0:0:0:
64,192,70332,1,0,0:0:0:0:
192,192,70364,1,0,0:0:0:0:
320,192,70397,1,0,0:0:0:0:
192,192,70430,1,0,0:0:0:0:
64,192,70463,1,0,0:0:0:0:
192,192,70496,1,0,0:0:0:0:
320,192,70529,1,0,0:0:0:0:
