osu file format v14

[General]
AudioFilename: audio.mp3
AudioLeadIn: 0
PreviewTime: 55607
Countdown: 0
SampleSet: Soft
StackLeniency: 0.6
Mode: 0
LetterboxInBreaks: 0
WidescreenStoryboard: 0

[Editor]
DistanceSpacing: 1
BeatDivisor: 4
GridSize: 32
TimelineZoom: 1

[Metadata]
Title:Kioku no Kakera (TV Size)
TitleUnicode:記憶のカケラ (TV Size)
Artist:nobuko
ArtistUnicode:nobuko
Creator:HEAVENLY MOON
Version:Hard
Source:半分の月がのぼる空
Tags:pop anime japanese hanbun no tsuki ga noboru sora hantsuki looking up at the half moon ending 青い幸福 aoi koufuku anfeargorm garden ginjani
BeatmapID:3548380
BeatmapSetID:1736165

[Difficulty]
HPDrainRate:5
CircleSize:4.4
OverallDifficulty:6.5
ApproachRate:7.4
SliderMultiplier:1.8
SliderTickRate:1

[Events]
//Background and Video events
0,0,"wwwwwwwwwwwwww.jpg",0,0
//Break Periods
//Storyboard Layer 0 (Background)
//Storyboard Layer 1 (Fail)
//Storyboard Layer 2 (Pass)
//Storyboard Layer 3 (Foreground)
//Storyboard Layer 4 (Overlay)
//Storyboard Sound Samples

[TimingPoints]
107,750,4,2,1,30,1,0
29357,-100,4,2,1,40,0,0
30107,-100,4,2,1,50,0,0
33107,-90.9090909090909,4,2,1,50,0,0
48107,-83.3333333333333,4,2,1,50,0,0
51857,-76.9230769230769,4,2,1,50,0,0
57107,-66.6666666666667,4,2,1,60,0,1
79607,-66.6666666666667,4,2,1,60,0,0

[Colours]
Combo1 : 0,0,159
Combo2 : 141,15,217
Combo3 : 13,126,170
Combo4 : 0,164,0

[HitObjects]
77,12,6107,5,2,0:2:0:0:
7,155,6857,2,0,L|103:135,1,90,2|2,0:2|0:2,0:0:0:0:
185,119,7607,2,0,P|211:188|164:278,1,180,2|2,0:2|0:2,0:0:0:0:
67,358,8732,1,2,0:2:0:0:
178,369,9107,6,0,B|265:352|231:392|328:361,1,135,2|2,0:2|0:2,0:0:0:0:
391,359,9857,2,0,P|388:313|365:267,1,90,2|2,0:2|0:2,0:0:0:0:
286,190,10607,2,0,P|336:176|501:194,1,180,2|2,0:2|0:2,0:0:0:0:
420,13,12107,6,0,L|312:21,1,90,2|2,0:2|0:2,0:0:0:0:
196,107,12857,2,0,L|306:113,1,90,2|2,0:2|0:2,0:0:0:0:
397,97,13607,2,0,P|363:187|341:269,1,180,2|2,0:2|0:2,0:0:0:0:
382,376,14732,1,2,0:2:0:0:
279,343,15107,6,0,P|187:365|174:370,2,90,2|0|2,0:2|0:0|0:2,0:0:0:0:
317,184,16607,2,0,P|217:195|126:188,1,180,2|2,0:2|0:2,0:0:0:0:
26,147,17732,1,2,0:2:0:0:
80,101,18107,6,0,L|63:0,1,90,2|0,0:2|0:0,0:0:0:0:
181,101,18857,2,0,L|166:200,1,90,2|2,0:2|0:2,0:0:0:0:
146,315,19607,1,2,0:2:0:0:
172,281,19982,1,0,0:0:0:0:
52,247,20357,2,0,P|37:291|64:333,1,90,2|2,0:2|0:2,0:0:0:0:
199,384,21107,6,0,P|237:324|220:250,1,135,2|2,0:2|0:2,0:0:0:0:
181,182,21857,2,0,P|234:191|279:175,1,90,2|2,0:2|0:2,0:0:0:0:
369,110,22607,1,2,0:2:0:0:
345,86,22982,1,0,0:0:0:0:
430,10,23357,2,0,L|312:5,1,90,2|0,0:2|0:0,0:0:0:0:
237,2,24107,6,0,P|258:73|238:102,1,90,2|2,0:2|0:2,0:0:0:0:
183,179,24857,1,2,0:2:0:0:
162,110,25232,1,2,0:2:0:0:
144,24,25607,2,0,P|67:15|28:111,1,180,2|2,0:2|0:2,0:0:0:0:
49,238,26732,1,2,0:2:0:0:
115,258,27107,6,0,L|99:357,1,90,2|0,0:2|0:0,0:0:0:0:
192,383,27857,2,0,L|380:370,2,180,2|2|2,0:2|0:2|0:2,0:0:0:0:
19,350,29732,1,2,0:2:0:0:
87,298,30107,6,0,P|96:240|58:212,1,90,2|2,0:2|0:2,0:0:0:0:
28,150,30857,2,0,P|10:106|43:67,1,90,0|2,0:0|3:2,0:0:0:0:
169,40,31607,1,8,0:0:0:0:
94,12,31982,1,2,0:2:0:0:
237,0,32357,1,2,0:2:0:0:
106,197,33107,6,0,P|165:187|216:176,1,99.0000030212403,0|2,3:2|0:2,0:0:0:0:
298,119,33857,2,0,L|291:192,1,49.5000015106202,2|0,0:2|0:0,0:0:0:0:
285,241,34232,1,0,3:2:0:0:
194,82,34607,2,0,P|236:32|368:35,1,198.000006042481,10|2,0:2|0:2,0:0:0:0:
467,129,35732,1,2,0:2:0:0:
401,158,36107,6,0,L|416:265,1,99.0000030212403,0|2,3:2|0:2,0:0:0:0:
316,376,36857,1,2,0:2:0:0:
316,376,37232,1,2,3:2:0:0:
251,233,37607,2,0,P|173:242|145:220,1,99.0000030212403,8|2,0:0|0:2,0:0:0:0:
16,100,38357,2,0,P|77:109|116:87,1,99.0000030212403,2|2,0:2|0:2,0:0:0:0:
158,33,38919,1,0,0:0:0:0:
158,33,39107,6,0,P|235:36|270:156,1,198.000006042481,0|2,3:2|0:2,0:0:0:0:
190,245,40232,1,2,3:2:0:0:
230,304,40607,2,0,P|343:290|360:297,1,99.0000030212403,10|2,0:2|0:2,0:0:0:0:
429,336,41357,1,2,0:2:0:0:
340,384,41732,1,2,3:2:0:0:
340,384,41919,1,0,0:0:0:0:
290,321,42107,6,0,P|311:171|302:113,1,198.000006042481,2|2,3:2|0:2,0:0:0:0:
191,40,43232,2,0,L|249:30,1,49.5000015106202,2|0,3:2|0:0,0:0:0:0:
397,102,43607,2,0,L|275:88,1,99.0000030212403,8|0,0:0|0:0,0:0:0:0:
138,136,44357,1,2,0:2:0:0:
176,249,44732,1,2,0:2:0:0:
201,321,45107,6,0,P|143:345|46:258,1,198.000006042481,0|2,3:2|0:2,0:0:0:0:
95,197,46232,1,0,3:2:0:0:
12,119,46607,2,0,P|47:39|76:30,1,99.0000030212403,8|2,0:0|0:2,0:0:0:0:
145,49,47169,1,0,0:0:0:0:
145,49,47357,2,0,P|210:56|269:48,1,99.0000030212403,2|2,0:2|0:2,0:0:0:0:
316,13,47919,1,2,0:2:0:0:
316,13,48107,6,0,P|328:95|331:244,1,215.999993408203,0|10,3:2|0:2,0:0:0:0:
251,312,49232,2,0,P|322:316|332:319,1,53.9999983520508,2|2,3:2|0:2,0:0:0:0:
416,382,49607,2,0,P|432:310|428:239,1,107.999996704102,0|2,3:2|0:2,0:0:0:0:
367,152,50357,1,10,0:2:0:0:
419,70,50732,1,2,0:2:0:0:
419,70,50919,1,0,0:0:0:0:
362,16,51107,6,0,B|296:-19|267:58|182:26,1,161.999995056153,0|0,3:2|0:0,0:0:0:0:
121,16,51857,2,0,P|104:110|187:123,1,175.499991966248,10|0,0:2|0:2,0:2:0:0:
239,142,52607,2,0,P|221:219|201:229,1,58.4999973220827,2|0,3:2|0:0,0:0:0:0:
178,244,52982,1,0,3:2:0:0:
257,64,53357,1,10,0:2:0:0:
348,157,53732,1,2,0:2:0:0:
160,87,54107,1,0,3:2:0:0:
27,361,55607,6,0,L|12:301,1,58.4999973220827,2|2,0:2|0:2,0:0:0:0:
51,338,55982,2,0,L|62:271,1,58.4999973220827,2|2,0:2|0:2,0:0:0:0:
0,171,56357,2,0,L|150:141,1,116.999994644165,6|2,1:2|0:2,0:0:0:0:
198,0,57107,6,0,P|227:162|227:275,1,270.000010299683,6|10,3:2|0:2,0:0:0:0:
153,376,58232,1,2,0:2:0:0:
153,376,58419,1,2,0:2:0:0:
103,266,58607,2,0,L|89:173,1,67.5000025749208,0|0,3:2|0:0,0:0:0:0:
202,133,58982,2,0,L|205:226,1,67.5000025749208,2|0,3:2|0:0,0:0:0:0:
228,323,59357,2,0,P|330:318|373:277,1,135.000005149842,10|2,0:2|0:2,0:0:0:0:
465,231,59919,1,2,0:2:0:0:
465,231,60107,6,0,P|465:266|476:308,1,67.5000025749208,2|0,0:0|0:0,0:0:0:0:
368,211,60482,2,0,P|378:177|380:133,1,67.5000025749208,0|0,3:2|0:0,0:0:0:0:
459,61,60857,2,0,P|356:26|323:38,1,135.000005149842,10|2,0:2|0:2,0:0:0:0:
238,125,61419,1,2,0:2:0:0:
238,125,61607,2,0,L|246:20,1,67.5000025749208,0|0,3:2|0:0,0:0:0:0:
82,0,62169,1,0,0:0:0:0:
82,0,62357,2,0,B|31:47|31:47|54:204,1,202.500007724762,10|0,0:2|0:0,0:0:0:0:
150,279,63107,6,0,P|114:270|49:265,1,67.5000025749208,2|0,3:2|0:0,0:0:0:0:
258,196,63482,2,0,P|220:204|185:203,1,67.5000025749208,2|0,3:2|0:0,0:0:0:0:
249,308,63857,2,0,P|328:276|393:288,1,135.000005149842,10|2,0:2|0:2,0:0:0:0:
488,384,64419,1,2,0:2:0:0:
488,384,64607,2,0,L|347:367,1,135.000005149842,0|2,3:2|3:2,0:0:0:0:
227,282,65357,1,10,0:2:0:0:
143,339,65732,1,2,0:2:0:0:
143,339,65919,1,2,0:2:0:0:
53,261,66107,6,0,P|55:186|112:157,1,135.000005149842,2|2,3:2|3:2,0:0:0:0:
184,215,66669,1,0,0:0:0:0:
184,215,66857,2,0,P|199:244|200:278,1,67.5000025749208,10|0,0:2|0:0,0:0:0:0:
298,372,67232,2,0,P|315:295|323:291,1,67.5000025749208,2|2,0:2|0:2,0:0:0:0:
367,213,67607,2,0,P|467:282|471:349,1,135.000005149842,2|0,3:2|3:2,0:0:0:0:
295,383,68357,1,10,0:2:0:0:
230,254,68732,1,2,0:2:0:0:
230,254,68919,1,2,0:2:0:0:
278,132,69107,6,0,P|261:30|243:-48,1,135.000005149842,0|2,3:2|3:2,0:0:0:0:
54,19,69857,2,0,P|24:137|17:170,1,135.000005149842,10|2,0:2|0:2,0:0:0:0:
131,244,70419,1,2,0:2:0:0:
131,244,70607,2,0,P|60:243|12:251,1,67.5000025749208,0|0,3:2|0:0,0:0:0:0:
4,310,70982,1,2,3:2:0:0:
160,376,71357,2,0,P|227:344|301:345,1,135.000005149842,10|2,0:2|0:2,0:0:0:0:
413,383,71919,1,2,0:2:0:0:
413,383,72107,6,0,P|432:327|374:236,1,135.000005149842,0|0,3:2|3:2,0:0:0:0:
316,166,72669,1,0,0:0:0:0:
412,149,72857,2,0,L|325:141,1,67.5000025749208,10|0,0:2|0:0,0:0:0:0:
227,74,73232,2,0,L|318:62,1,67.5000025749208,2|2,0:2|0:2,0:0:0:0:
431,43,73607,2,0,L|257:22,1,135.000005149842,0|0,3:2|3:2,0:0:0:0:
100,4,74357,1,10,0:2:0:0:
10,156,74732,1,2,0:2:0:0:
10,156,74919,1,2,0:2:0:0:
131,114,75107,6,0,P|81:199|107:282,1,135.000005149842,0|0,3:2|0:0,0:0:0:0:
220,366,75857,2,0,P|148:352|138:359,1,67.5000025749208,10|0,0:2|0:0,0:0:0:0:
51,384,76232,1,2,0:2:0:0:
51,384,76419,1,2,0:2:0:0:
89,275,76607,2,0,L|75:93,1,135.000005149842,0|2,3:2|3:2,0:0:0:0:
252,8,77357,2,0,P|229:121|222:162,1,135.000005149842,10|2,0:2|0:2,0:0:0:0:
280,288,78107,5,2,3:2:0:0:
396,64,78482,1,4,3:2:0:0:
118,6,78857,1,10,0:2:0:0:
260,331,79607,5,2,3:2:0:0:
