osu file format v14

[General]
AudioFilename: audio.mp3
AudioLeadIn: 0
PreviewTime: 55607
Countdown: 0
SampleSet: Soft
StackLeniency: 0.6
Mode: 0
LetterboxInBreaks: 0
WidescreenStoryboard: 0

[Editor]
DistanceSpacing: 1
BeatDivisor: 4
GridSize: 32
TimelineZoom: 0.3999999

[Metadata]
Title:Kioku no Kakera (TV Size)
TitleUnicode:記憶のカケラ (TV Size)
Artist:nobuko
ArtistUnicode:nobuko
Creator:HEAVENLY MOON
Version:Garden's Normal
Source:半分の月がのぼる空
Tags:pop anime japanese hanbun no tsuki ga noboru sora hantsuki looking up at the half moon ending 青い幸福 aoi koufuku anfeargorm garden ginjani
BeatmapID:3549936
BeatmapSetID:1736165

[Difficulty]
HPDrainRate:3
CircleSize:4
OverallDifficulty:4
ApproachRate:5
SliderMultiplier:1.8
SliderTickRate:1

[Events]
//Background and Video events
0,0,"wwwwwwwwwwwwww.jpg",0,0
//Break Periods
//Storyboard Layer 0 (Background)
//Storyboard Layer 1 (Fail)
//Storyboard Layer 2 (Pass)
//Storyboard Layer 3 (Foreground)
//Storyboard Layer 4 (Overlay)
//Storyboard Sound Samples

[TimingPoints]
107,750,4,2,1,30,1,0
29357,-100,4,2,1,40,0,0
30107,-100,4,2,1,50,0,0
57107,-90.9090909090909,4,2,1,60,0,1
79607,-100,4,2,1,60,0,0

[Colours]
Combo1 : 0,0,159
Combo2 : 141,15,217
Combo3 : 13,126,170
Combo4 : 0,164,0

[HitObjects]
53,338,107,5,2,0:2:0:0:
53,338,857,1,2,0:2:0:0:
53,338,1607,2,0,P|100:322|155:314,1,90,2|0,0:2|0:0,0:0:0:0:
192,242,2357,2,0,P|188:194|171:151,1,90,2|0,0:2|0:0,0:0:0:0:
111,89,3107,5,2,0:2:0:0:
111,89,3857,1,2,0:2:0:0:
111,89,4607,1,2,0:2:0:0:
111,89,5357,2,0,P|157:77|222:68,1,90,2|0,0:2|0:0,0:0:0:0:
275,117,6107,5,2,0:2:0:0:
275,117,6857,2,0,P|324:112|384:95,1,90,2|2,0:2|0:2,0:0:0:0:
452,87,7607,2,0,P|450:54|388:25,2,90,2|0|2,0:2|0:0|0:2,0:0:0:0:
419,170,8732,1,2,0:2:0:0:
481,235,9107,6,0,P|462:295|452:381,2,135,2|2|2,0:2|0:2|0:2,0:0:0:0:
419,170,10607,2,0,P|378:165|343:214,1,90,2|0,0:2|0:0,0:0:0:0:
335,286,11357,1,2,0:2:0:0:
335,286,12107,6,0,P|288:284|246:276,1,90,2|2,0:2|0:2,0:0:0:0:
180,214,12857,1,2,0:2:0:0:
245,152,13232,1,2,0:2:0:0:
170,101,13607,2,0,P|120:101|99:225,1,180,2|2,0:2|0:2,0:0:0:0:
126,286,14732,1,2,0:2:0:0:
215,297,15107,6,0,P|206:341|193:384,2,90,2|0|2,0:2|0:0|0:2,0:0:0:0:
278,233,16232,1,0,0:0:0:0:
357,275,16607,2,0,P|433:263|461:151,1,180,2|2,0:2|0:2,0:0:0:0:
447,87,17732,1,2,0:2:0:0:
359,108,18107,5,2,0:2:0:0:
359,108,18857,2,0,P|344:54|322:20,1,90,2|2,0:2|0:2,0:0:0:0:
238,4,19607,2,0,P|195:11|176:50,2,90,2|0|2,0:2|0:0|0:2,0:0:0:0:
326,25,20732,1,2,0:2:0:0:
267,93,21107,6,0,P|249:153|249:232,2,135,2|2|2,0:2|0:2|0:2,0:0:0:0:
326,25,22607,2,0,P|364:72|352:111,1,90,2|0,0:2|0:0,0:0:0:0:
443,130,23357,2,0,P|418:181|371:181,1,90,2|0,0:2|0:0,0:0:0:0:
356,270,24107,5,2,0:2:0:0:
273,233,24482,1,2,0:2:0:0:
238,316,24857,2,0,P|196:330|145:335,1,90,2|2,0:2|0:2,0:0:0:0:
90,268,25607,2,0,P|104:180|195:163,1,180,2|2,0:2|0:2,0:0:0:0:
259,204,26732,1,2,0:2:0:0:
302,125,27107,6,0,P|288:68|261:9,2,90,2|0|2,0:2|0:0|0:2,0:0:0:0:
259,204,28232,1,0,0:0:0:0:
175,169,28607,2,0,P|151:82|118:-1,1,180,2|2,0:2|0:2,0:0:0:0:
28,9,29732,1,2,0:2:0:0:
11,97,30107,5,2,0:2:0:0:
77,157,30482,2,0,P|102:226|125:335,1,180,2|2,0:2|3:2,0:0:0:0:
207,365,31607,2,0,P|257:356|276:299,1,90,8|2,0:0|0:2,0:0:0:0:
281,235,32357,2,0,P|336:251|427:262,1,135,2|2,0:2|0:2,0:0:0:0:
444,258,33107,6,0,P|463:213|433:168,1,90,0|2,3:2|0:2,0:0:0:0:
373,126,33857,1,2,0:2:0:0:
504,3,34607,1,10,0:2:0:0:
373,126,35357,2,0,P|315:121|271:102,1,90,2|2,0:2|0:2,0:0:0:0:
230,38,36107,5,0,3:2:0:0:
148,75,36482,2,0,P|106:59|39:51,2,90,2|2|2,0:2|0:2|3:2,0:0:0:0:
205,144,37607,1,8,0:0:0:0:
120,175,37982,2,0,P|75:167|33:151,2,90,2|2|2,0:2|0:2|0:2,0:0:0:0:
205,144,39107,5,0,3:2:0:0:
281,190,39482,2,0,P|309:222|299:274,1,90,2|2,0:2|0:2,0:0:0:0:
248,337,40232,1,2,3:2:0:0:
332,367,40607,2,0,P|376:364|431:347,1,90,10|2,0:2|0:2,0:0:0:0:
470,277,41357,2,0,P|465:225|447:178,1,90,2|2,0:2|3:2,0:0:0:0:
366,164,42107,6,0,P|450:148|473:66,1,180,2|2,3:2|0:2,0:0:0:0:
410,1,43232,1,2,3:2:0:0:
356,73,43607,1,8,0:0:0:0:
356,73,44357,2,0,P|304:67|256:45,1,90,2|2,0:2|0:2,0:0:0:0:
202,113,45107,5,0,3:2:0:0:
202,113,45857,2,0,P|188:160|188:217,1,90,2|2,0:2|3:2,0:0:0:0:
231,278,46607,1,8,0:0:0:0:
165,339,46982,1,2,0:2:0:0:
85,297,47357,2,0,P|75:229|96:116,1,180,2|0,0:2|3:2,0:0:0:0:
61,36,48482,5,2,0:2:0:0:
147,10,48857,2,0,P|205:29|217:68,1,90,10|2,0:2|3:2,0:0:0:0:
221,141,49607,1,0,3:2:0:0:
221,141,49982,1,2,0:2:0:0:
303,176,50357,2,0,P|355:173|385:123,1,90,10|2,0:2|0:2,0:0:0:0:
406,61,51107,5,0,3:2:0:0:
506,210,51857,2,0,P|514:285|411:322,2,180,10|2|10,0:2|3:2|0:2,0:0:0:0:
420,237,53732,1,2,0:2:0:0:
333,263,54107,1,0,3:2:0:0:
256,192,54294,12,6,56357,1:2:0:0:
333,263,57107,6,0,P|287:281|225:288,1,99.0000030212403,6|0,3:2|3:2,0:0:0:0:
148,246,57857,1,10,0:2:0:0:
84,322,58232,2,0,P|85:347|96:381,2,49.5000015106202,2|2|0,0:2|0:2|3:2,0:0:0:0:
148,246,58982,1,2,3:2:0:0:
59,201,59357,2,0,P|35:158|64:107,1,99.0000030212403,10|2,0:2|0:2,0:0:0:0:
83,95,59919,1,2,0:2:0:0:
83,95,60107,5,2,3:3:0:0:
261,8,60857,2,0,P|288:49|273:95,1,99.0000030212403,10|2,0:2|0:2,0:0:0:0:
246,111,61419,2,0,P|252:146|253:170,1,49.5000015106202,2|0,0:2|3:2,0:0:0:0:
189,236,61982,1,0,3:2:0:0:
267,296,62357,2,0,B|328:308|368:257|337:256|381:199|446:218,1,198.000006042481,10|2,0:2|3:2,0:0:0:0:
491,135,63482,5,2,3:2:0:0:
464,39,63857,2,0,P|423:10|358:28,1,99.0000030212403,10|2,0:2|0:2,0:0:0:0:
349,38,64419,1,2,0:2:0:0:
349,38,64607,1,0,3:2:0:0:
394,125,64982,1,2,3:2:0:0:
314,183,65357,2,0,P|265:187|226:158,1,99.0000030212403,10|2,0:2|0:2,0:0:0:0:
211,127,65919,2,0,P|221:99|227:72,1,49.5000015106202,2|2,0:2|3:2,0:0:0:0:
153,11,66482,5,2,3:2:0:0:
69,64,66857,2,0,P|54:115|46:175,1,99.0000030212403,10|2,0:2|0:2,0:0:0:0:
53,201,67419,1,2,0:2:0:0:
53,201,67607,1,2,3:2:0:0:
126,267,67982,1,0,3:2:0:0:
215,225,68357,2,0,P|270:224|333:240,1,99.0000030212403,10|2,0:2|0:2,0:0:0:0:
390,294,69107,5,0,3:2:0:0:
466,231,69482,1,2,3:2:0:0:
432,137,69857,2,0,P|378:137|322:122,1,99.0000030212403,10|2,0:2|0:2,0:0:0:0:
305,112,70419,2,0,P|307:83|320:56,1,49.5000015106202,2|0,0:2|3:2,0:0:0:0:
235,4,70982,1,2,3:2:0:0:
189,91,71357,2,0,P|174:139|172:194,1,99.0000030212403,10|2,0:2|0:2,0:0:0:0:
199,216,71919,1,2,0:2:0:0:
199,216,72107,6,0,P|216:284|110:334,1,198.000006042481,0|10,3:2|0:2,0:0:0:0:
38,279,73232,2,0,P|41:254|47:230,1,49.5000015106202,2|2,0:2|0:2,0:0:0:0:
64,199,73607,1,0,3:2:0:0:
4,119,73982,1,0,3:2:0:0:
80,56,74357,2,0,P|140:50|173:88,1,99.0000030212403,10|2,0:2|0:2,0:0:0:0:
195,168,75107,5,0,3:2:0:0:
277,113,75482,1,2,3:2:0:0:
319,202,75857,2,0,P|316:248|295:311,1,99.0000030212403,10|2,0:2|0:2,0:0:0:0:
324,327,76419,2,0,P|347:334|375:336,1,49.5000015106202,2|0,0:2|3:2,0:0:0:0:
455,282,76982,1,2,3:2:0:0:
411,193,77357,1,10,0:2:0:0:
488,131,77732,1,2,0:2:0:0:
443,42,78107,6,0,P|391:23|321:19,1,99.0000030212403,2|4,3:2|3:2,0:0:0:0:
257,59,78857,2,0,P|228:138|326:173,1,198.000006042481,10|2,0:2|3:2,0:0:0:0:
