osu file format v14

[General]
AudioFilename: audio.mp3
AudioLeadIn: 0
PreviewTime: 49555
Countdown: 0
SampleSet: Normal
StackLeniency: 0.7
Mode: 0
LetterboxInBreaks: 0
WidescreenStoryboard: 1

[Editor]
Bookmarks: 22680
DistanceSpacing: 1.2
BeatDivisor: 4
GridSize: 16
TimelineZoom: 1

[Metadata]
Title:Sorekara
TitleUnicode:Sorekara
Artist:noVaTion
ArtistUnicode:noVaTion
Creator:Sensokaku
Version:Normal
Source:
Tags:Tho Ging japanese miku pop
BeatmapID:2134881
BeatmapSetID:1011121

[Difficulty]
HPDrainRate:2
CircleSize:3
OverallDifficulty:3
ApproachRate:4
SliderMultiplier:1.6
SliderTickRate:1

[Events]
//Background and Video events
0,0,"__hatsune_miku_vocaloid_drawn_by_cloel__6163e9d944aa7ba572f23a7aa9c09da1.png",0,0
//Break Periods
//Storyboard Layer 0 (Background)
//Storyboard Layer 1 (Fail)
//Storyboard Layer 2 (Pass)
//Storyboard Layer 3 (Foreground)
//Storyboard Layer 4 (Overlay)
//Storyboard Sound Samples

[TimingPoints]
2680,625,4,1,0,100,1,0
25180,-166.666666666667,4,1,0,100,0,0
27367,-100,4,1,0,100,0,0
30180,-166.666666666667,4,1,0,100,0,0
32992,-100,4,1,0,100,0,0
35180,-166.666666666667,4,1,0,100,0,0
42680,-166.666666666667,4,1,0,100,0,0
49867,-100,4,1,0,100,0,1
69867,-100,4,1,0,100,0,0

[Colours]
Combo1 : 0,128,192
Combo2 : 0,128,255

[HitObjects]
124,113,22992,6,0,L|97:43,2,40,0|0|2,0:0|0:0|0:0,0:0:0:0:
159,202,23617,1,0,0:0:0:0:
236,144,23930,2,0,L|275:218,1,80
329,293,24555,2,0,P|381:245|388:224,1,80
389,207,25023,1,0,0:0:0:0:
390,178,25180,2,0,P|372:106|340:83,3,95.9999970703126,0|2|0|2,0:0|0:0|0:0|0:0,0:0:0:0:
374,284,27992,6,0,L|401:313,2,40,0|0|2,0:0|0:0|0:0,0:0:0:0:
278,272,28617,1,0,0:0:0:0:
181,275,28930,1,0,0:0:0:0:
232,194,29242,1,0,0:0:0:0:
282,111,29555,2,0,P|331:135|366:172,1,80
362,175,30023,1,0,0:0:0:0:
374,201,30180,2,0,P|385:244|378:274,3,71.9999978027344,0|2|0|2,0:0|0:0|0:0|0:0,0:0:0:0:
232,232,32992,6,0,L|208:291,2,40,0|0|2,0:0|0:0|0:0,0:0:0:0:
307,171,33617,1,0,0:0:0:0:
279,78,33930,1,0,0:0:0:0:
190,115,34242,1,0,0:0:0:0:
94,121,34555,2,0,P|54:187|53:215,1,80
52,213,35023,1,0,0:0:0:0:
51,241,35180,2,0,P|57:296|90:335,3,95.9999970703126,0|2|0|2,0:0|0:0|0:0|0:0,0:0:0:0:
240,274,37680,6,0,P|263:227|276:167,3,95.9999970703126,0|2|0|2,0:0|0:0|0:0|0:0,0:0:0:0:
340,90,40180,2,0,P|291:70|248:63,3,95.9999970703126,0|2|0|2,0:0|0:0|0:0|0:0,0:0:0:0:
351,168,42680,5,4,0:0:0:0:
351,168,43305,1,0,0:0:0:0:
265,245,43930,1,0,0:0:0:0:
265,245,44555,1,0,0:0:0:0:
212,142,45180,1,4,0:0:0:0:
212,142,45805,1,0,0:0:0:0:
105,184,46430,6,0,L|47:269,2,95.9999970703126,0|0|4,0:0|0:0|0:0,0:0:0:0:
186,102,48305,1,0,0:0:0:0:
186,102,48930,1,0,0:0:0:0:
298,128,49555,1,0,0:0:0:0:
291,223,49867,6,8,L|342:195,2,40
203,263,50492,2,8,L|152:285,2,40
223,169,51117,1,8,0:0:0:0:
223,169,51273,1,8,0:0:0:0:
223,169,51430,1,8,0:0:0:0:
296,204,51742,1,0,0:0:0:0:
385,167,52055,1,0,0:0:0:0:
431,83,52367,1,0,0:0:0:0:
431,83,52680,1,2,0:0:0:0:
273,193,53305,6,0,P|175:155|151:98,1,160
206,30,54242,2,0,P|274:25|377:56,1,160
422,123,55180,1,2,0:0:0:0:
368,307,55805,6,0,P|276:294|197:252,1,160
156,190,56742,2,0,P|264:119|308:109,1,160
349,188,57680,1,0,0:0:0:0:
199,67,58305,1,2,0:0:0:0:
53,192,58930,1,0,0:0:0:0:
199,315,59555,1,2,0:0:0:0:
404,113,60492,5,8,0:0:0:0:
404,113,60648,1,8,0:0:0:0:
404,113,60805,1,8,0:0:0:0:
363,199,61117,2,8,L|334:252,2,40
311,117,61742,2,8,L|272:79,2,40
374,189,62367,1,0,0:0:0:0:
417,275,62680,1,2,0:0:0:0:
225,276,63305,6,0,P|155:232|127:153,1,160
187,87,64242,2,0,P|248:100|346:168,1,160
379,234,65180,1,2,0:0:0:0:
292,275,65492,5,8,0:0:0:0:
292,275,65648,1,8,0:0:0:0:
292,275,65805,1,8,0:0:0:0:
198,255,66117,2,0,P|126:220|114:206,1,80
72,141,66742,1,0,0:0:0:0:
137,70,67055,2,0,P|243:59|249:60,1,80
291,115,67680,2,0,P|344:184|349:227,2,120,0|2|0,0:0|0:0|0:0,0:0:0:0:
256,192,68773,12,0,70805,0:0:0:0:
